<?xml version="1.0" standalone="no"?>
<!DOCTYPE svg PUBLIC "-//W3C//DTD SVG 1.1//EN" "http://www.w3.org/Graphics/SVG/1.1/DTD/svg11.dtd">
<svg xmlns="http://www.w3.org/2000/svg">
<defs >
<font id="NotoSans" horiz-adv-x="1254" ><font-face
    font-family="Noto Sans"
    units-per-em="2048"
    panose-1="2 11 8 2 4 5 4 2 2 4"
    ascent="2189"
    descent="-600"
    alphabetic="0" />
<glyph unicode=" " horiz-adv-x="532" />
<glyph unicode="!" horiz-adv-x="825" d="M570 485H326L275 1462H621L570 485ZM271 143Q271 190 284 222T322 275T378 304T447 313Q482 313 513 304T569 275T607 223T621 143Q621 98 607 66T569 13T514 -17T447 -27Q410 -27 378 -18T322 13T285 66T271 143Z" />
<glyph unicode="&quot;" horiz-adv-x="1118" d="M502 1494L461 966H264L223 1494H502ZM924 1494L883 966H686L645 1494H924Z" />
<glyph unicode="#" horiz-adv-x="1363" d="M1019 767L972 535H1217V329H933L871 0H651L714 329H520L459 0H244L303 329H79V535H342L389 767H151V976H426L486 1295H705L645 976H843L904 1295H1119L1058 976H1285V767H1019ZM559 535H755L802 767H606L559 535Z" />
<glyph unicode="$" horiz-adv-x="1171" d="M1092 457Q1092 298 977 202T655 86V-119H518V82Q274 87 90 168V432Q177 389 299 356T518 317V627L451 653Q253 731 171 822T88 1049Q88 1194 201 1287T518 1401V1554H655V1405Q884 1395 1069 1313L975 1079Q819 1143
655 1157V862Q850 787 932 732T1053 611T1092 457ZM791 442Q791 484 757 513T655 573V324Q791 347 791 442ZM389 1049Q389 1005 419 977T518 918V1153Q389 1134 389 1049Z" />
<glyph unicode="%" horiz-adv-x="1842" d="M324 924Q324 842 349 802T429 761Q483 761 509 801T535 924Q535 1086 429 1086Q374 1086 349 1046T324 924ZM777 926Q777 839 757 770T693 653T584 580T427 554Q342 554 278 579T170 652T104 769T82 926Q82 1013 102
1082T164 1198T272 1270T427 1295Q513 1295 578 1270T688 1198T754 1082T777 926ZM1434 1274L633 0H404L1205 1274H1434ZM1307 351Q1307 269 1332 229T1412 188Q1466 188 1492 228T1518 351Q1518 513 1412 513Q1357 513 1332 473T1307 351ZM1760 353Q1760 266 1740
197T1676 81T1567 8T1410 -18Q1325 -18 1261 7T1154 80T1088 197T1066 353Q1066 440 1086 509T1148 625T1255 697T1410 722Q1496 722 1561 697T1671 625T1737 509T1760 353Z" />
<glyph unicode="&amp;" horiz-adv-x="1536" d="M1536 0H1159L1044 113Q853 -20 612 -20Q368 -20 225 92T82 395Q82 532 142 628T350 809Q275 895 241 973T207 1145Q207 1297 323 1390T635 1483Q821 1483 932 1397T1044 1165Q1044 1046 975 948T752 760L1036 483Q1107
600 1159 784H1477Q1441 649 1378 521T1235 293L1536 0ZM403 424Q403 338 467 287T633 236Q759 236 860 297L528 627Q470 583 437 535T403 424ZM762 1133Q762 1186 726 1216T633 1247Q566 1247 528 1215T489 1124Q489 1036 584 930Q670 978 716 1024T762 1133Z"
/>
<glyph unicode="&apos;" horiz-adv-x="696" d="M502 1493L461 965H264L223 1493H502Z" />
<glyph unicode="(" horiz-adv-x="791" d="M135 673Q135 816 153 955T208 1225T301 1476T436 1703H686Q545 1482 473 1218T401 676Q401 540 419 405T473 141T562 -109T684 -338H436Q358 -235 302 -118T208 128T153 394T135 673Z" />
<glyph unicode=")" horiz-adv-x="791" d="M656 692Q656 549 638 410T583 140T490 -111T355 -338H105Q246 -117 318 147T390 689Q390 825 372 960T318 1224T229 1474T107 1703H355Q433 1600 489 1483T583 1237T638 971T656 692Z" />
<glyph unicode="*" horiz-adv-x="1243" d="M761 1525L720 1157L1093 1261L1126 1009L786 985L1009 688L782 567L626 880L489 569L253 688L474 985L136 1011L175 1261L540 1157L499 1525H761Z" />
<glyph unicode="+" horiz-adv-x="1168" d="M475 552H108V771H475V1140H694V771H1060V552H694V188H475V552Z" />
<glyph unicode="," horiz-adv-x="594" d="M444 288L459 264Q445 206 426 142T383 12T334 -119T283 -244H63Q78 -179 92 -109T120 30T145 165T163 288H444Z" />
<glyph unicode="-" horiz-adv-x="749" d="M106 484V734H643V484H106Z" />
<glyph unicode="." horiz-adv-x="584" d="M117 143Q117 190 130 222T168 275T224 304T293 313Q328 313 359 304T415 275T453 223T467 143Q467 98 453 66T415 13T360 -17T293 -27Q256 -27 224 -18T168 13T131 66T117 143Z" />
<glyph unicode="/" horiz-adv-x="966" d="M894 1705L334 -339H72L632 1705H894Z" />
<glyph unicode="0" horiz-adv-x="1128" d="M1065 731Q1065 554 1038 415T950 179T794 31T563 -20Q436 -20 342 31T186 179T94 415T63 731Q63 908 90 1048T178 1285T333 1433T563 1485Q689 1485 783 1434T940 1286T1034 1049T1065 731ZM371 731Q371 481 414 355T563
229Q667 229 712 354T758 731Q758 982 713 1108T563 1235Q510 1235 474 1203T414 1108T381 951T371 731Z" />
<glyph unicode="1" horiz-adv-x="1128" d="M817 0H508V846Q508 872 508 908T510 984T513 1064T516 1137Q511 1131 499 1119T472 1093T441 1063T410 1036L242 901L92 1087L563 1462H817V0Z" />
<glyph unicode="2" horiz-adv-x="1128" d="M1063 0H82V215L426 586Q491 656 544 715T635 830T694 944T715 1069Q715 1143 671 1184T551 1225Q472 1225 399 1186T246 1075L78 1274Q123 1315 172 1352T280 1419T410 1465T569 1483Q674 1483 757 1454T900 1372T990
1242T1022 1071Q1022 985 992 907T910 753T790 603T643 451L467 274V260H1063V0Z" />
<glyph unicode="3" horiz-adv-x="1128" d="M1006 1135Q1006 1059 982 999T915 893T815 817T690 770V764Q867 742 958 657T1049 426Q1049 330 1015 249T909 107T729 14T473 -20Q355 -20 251 -1T57 59V322Q102 298 152 280T252 250T350 231T442 225Q528 225 585
241T676 286T724 355T739 444Q739 489 721 525T661 587T552 627T387 641H283V858H385Q477 858 538 874T635 919T687 986T702 1067Q702 1145 654 1189T500 1233Q452 1233 411 1224T334 1200T269 1168T215 1133L59 1339Q101 1370 150 1396T258 1441T383 1472T526
1483Q634 1483 722 1460T874 1392T971 1283T1006 1135Z" />
<glyph unicode="4" horiz-adv-x="1128" d="M1085 303H909V0H608V303H4V518L625 1462H909V543H1085V303ZM608 543V791Q608 804 608 828T610 884T612 948T615 1011T618 1063T621 1096H612Q594 1054 572 1007T520 913L276 543H608Z" />
<glyph unicode="5" horiz-adv-x="1128" d="M598 934Q692 934 773 905T914 820T1008 681T1042 489Q1042 370 1005 276T896 116T718 15T473 -20Q418 -20 364 -15T261 -1T167 24T86 59V326Q121 306 167 289T262 259T362 239T457 231Q591 231 661 286T731 463Q731
571 663 627T451 684Q425 684 396 681T338 673T283 663T238 651L115 717L170 1462H942V1200H438L414 913Q446 920 488 927T598 934Z" />
<glyph unicode="6" horiz-adv-x="1128" d="M76 621Q76 726 87 830T128 1029T208 1207T336 1349T522 1444T776 1479Q797 1479 822 1478T872 1476T922 1471T965 1464V1217Q927 1226 885 1231T799 1237Q664 1237 577 1204T439 1110T367 966T340 780H352Q372 816 400
847T467 901T552 937T659 950Q754 950 830 919T958 829T1039 684T1067 487Q1067 368 1034 274T938 115T788 15T590 -20Q482 -20 388 18T225 136T116 335T76 621ZM584 227Q625 227 658 242T716 289T754 369T768 483Q768 590 724 651T588 713Q542 713 504 695T439
648T398 583T383 510Q383 459 395 409T433 318T496 252T584 227Z" />
<glyph unicode="7" horiz-adv-x="1128" d="M207 0L727 1200H55V1460H1063V1266L530 0H207Z" />
<glyph unicode="8" horiz-adv-x="1128" d="M565 1481Q656 1481 737 1459T879 1393T976 1283T1012 1128Q1012 1062 992 1009T937 912T854 834T750 772Q808 741 863 703T962 618T1031 511T1057 379Q1057 288 1021 214T920 88T765 8T565 -20Q447 -20 355 7T200 84T105
207T72 371Q72 446 94 506T154 614T243 699T352 764Q303 795 260 831T186 912T136 1011T117 1130Q117 1217 153 1282T252 1392T395 1459T565 1481ZM358 389Q358 349 371 316T409 258T473 221T561 207Q666 207 718 256T770 387Q770 429 753 462T708 524T645 577T575
623L553 637Q509 615 473 590T412 534T372 467T358 389ZM563 1255Q530 1255 502 1245T453 1216T420 1169T408 1106Q408 1064 420 1034T454 980T504 938T565 901Q596 917 624 936T673 979T708 1035T721 1106Q721 1141 709 1169T676 1216T626 1245T563 1255Z" />
<glyph unicode="9" horiz-adv-x="1128" d="M1055 838Q1055 733 1044 629T1003 429T923 252T795 109T609 15T354 -20Q333 -20 308 -19T258 -17T208 -13T166 -6V242Q203 232 245 227T332 221Q467 221 554 254T692 348T764 493T791 678H778Q758 642 730 611T664 557T578
521T471 508Q376 508 300 539T172 629T91 774T63 971Q63 1090 96 1184T192 1343T342 1444T541 1479Q649 1479 743 1441T906 1323T1015 1123T1055 838ZM547 1231Q506 1231 472 1216T414 1170T376 1090T362 975Q362 869 407 807T543 745Q589 745 627 763T692 810T733
875T748 948Q748 999 736 1049T698 1140T635 1206T547 1231Z" />
<glyph unicode=":" horiz-adv-x="663" d="M156 143Q156 190 169 222T207 275T263 304T332 313Q367 313 398 304T454 275T492 223T506 143Q506 98 492 66T454 13T399 -17T332 -27Q295 -27 263 -18T207 13T170 66T156 143ZM156 969Q156 1016 169 1048T207 1101T263
1130T332 1139Q367 1139 398 1130T454 1101T492 1049T506 969Q506 924 492 892T454 839T399 809T332 799Q295 799 263 808T207 838T170 891T156 969Z" />
<glyph unicode=";" horiz-adv-x="663" d="M483 288L498 264Q484 206 465 142T422 12T373 -119T322 -244H102Q117 -179 131 -109T159 30T184 165T203 288H483ZM156 969Q156 1016 169 1048T207 1101T263 1130T332 1139Q367 1139 398 1130T454 1101T492 1049T506
969Q506 924 492 892T454 839T399 809T332 799Q295 799 263 808T207 838T170 891T156 969Z" />
<glyph unicode="&lt;" horiz-adv-x="1168" d="M1060 143L108 581V724L1060 1220V980L417 663L1060 382V143Z" />
<glyph unicode="=" horiz-adv-x="1168" d="M108 747V964H1060V747H108ZM108 358V577H1060V358H108Z" />
<glyph unicode="&gt;" horiz-adv-x="1168" d="M108 382L751 663L108 980V1220L1060 724V581L108 143V382Z" />
<glyph unicode="?" horiz-adv-x="1114" d="M366 485V559Q366 610 376 651T408 730T464 803T546 877Q588 910 617 936T664 987T690 1041T698 1106Q698 1163 660 1200T542 1237Q473 1237 394 1208T229 1137L127 1358Q170 1383 220 1405T325 1445T436 1473T546 1483Q648
1483 730 1459T869 1387T956 1273T987 1120Q987 1057 973 1008T932 916T863 834T766 750Q724 717 698 693T656 646T636 601T630 545V485H366ZM333 143Q333 190 346 222T384 275T440 304T510 313Q545 313 576 304T632 275T670 223T684 143Q684 98 670 66T632 13T577
-17T510 -27Q473 -27 441 -18T384 13T347 66T333 143Z" />
<glyph unicode="@" horiz-adv-x="1837" d="M1735 733Q1735 589 1689 469T1559 282T1364 215Q1290 215 1233 250T1151 344H1135Q1086 284 1016 250T860 215Q683 215 581 321T479 612Q479 821 611 951T963 1081Q1044 1081 1150 1066T1323 1026L1300 537Q1300 397
1376 397Q1440 397 1478 490T1516 735Q1516 896 1450 1019T1262 1208T983 1274Q782 1274 632 1190T403 950T324 590Q324 313 471 166T899 18Q1011 18 1139 43T1382 111V-82Q1170 -172 907 -172Q527 -172 315 28T102 584Q102 831 211 1033T522 1348T981 1462Q1201
1462 1374 1372T1641 1116T1735 733ZM711 608Q711 397 883 397Q972 397 1019 460T1077 668L1090 889Q1044 899 975 899Q850 899 781 821T711 608Z" />
<glyph unicode="A" horiz-adv-x="1413" d="M1079 0L973 348H440L334 0H0L516 1468H895L1413 0H1079ZM899 608Q752 1081 734 1143T707 1241Q674 1113 518 608H899Z" />
<glyph unicode="B" horiz-adv-x="1376" d="M184 1462H639Q950 1462 1090 1374T1231 1092Q1231 961 1170 877T1006 776V766Q1145 735 1206 650T1268 424Q1268 224 1124 112T731 0H184V1462ZM494 883H674Q800 883 856 922T913 1051Q913 1135 852 1171T657 1208H494V883ZM494
637V256H696Q824 256 885 305T946 455Q946 637 686 637H494Z" />
<glyph unicode="C" horiz-adv-x="1305" d="M805 1225Q630 1225 534 1094T438 727Q438 238 805 238Q959 238 1178 315V55Q998 -20 776 -20Q457 -20 288 173T119 729Q119 957 202 1128T440 1391T805 1483Q1018 1483 1233 1380L1133 1128Q1051 1167 968 1196T805 1225Z" />
<glyph unicode="D" horiz-adv-x="1516" d="M1397 745Q1397 384 1192 192T598 0H184V1462H643Q1001 1462 1199 1273T1397 745ZM1075 737Q1075 1208 659 1208H494V256H627Q1075 256 1075 737Z" />
<glyph unicode="E" horiz-adv-x="1147" d="M1026 0H184V1462H1026V1208H494V887H989V633H494V256H1026V0Z" />
<glyph unicode="F" horiz-adv-x="1124" d="M489 0H184V1462H1022V1208H489V831H985V578H489V0Z" />
<glyph unicode="G" horiz-adv-x="1483" d="M739 821H1319V63Q1178 17 1054 -1T799 -20Q468 -20 294 174T119 733Q119 1087 321 1285T883 1483Q1108 1483 1317 1393L1214 1145Q1054 1225 881 1225Q680 1225 559 1090T438 727Q438 489 535 364T819 238Q916 238 1016
258V563H739V821Z" />
<glyph unicode="H" horiz-adv-x="1567" d="M1382 0H1073V631H494V0H184V1462H494V889H1073V1462H1382V0Z" />
<glyph unicode="I" horiz-adv-x="797" d="M731 0H66V176L244 258V1204L66 1286V1462H731V1286L553 1204V258L731 176V0Z" />
<glyph unicode="J" horiz-adv-x="678" d="M31 -430Q-74 -430 -152 -408V-150Q-72 -170 -6 -170Q96 -170 140 -107T184 92V1462H494V94Q494 -162 377 -296T31 -430Z" />
<glyph unicode="K" horiz-adv-x="1360" d="M1360 0H1008L625 616L494 522V0H184V1462H494V793L616 965L1012 1462H1356L846 815L1360 0Z" />
<glyph unicode="L" horiz-adv-x="1157" d="M184 0V1462H494V256H1087V0H184Z" />
<glyph unicode="M" horiz-adv-x="1931" d="M803 0L451 1147H442Q461 797 461 680V0H184V1462H606L952 344H958L1325 1462H1747V0H1458V692Q1458 741 1459 805T1473 1145H1464L1087 0H803Z" />
<glyph unicode="N" horiz-adv-x="1665" d="M1481 0H1087L451 1106H442Q461 813 461 688V0H184V1462H575L1210 367H1217Q1202 652 1202 770V1462H1481V0Z" />
<glyph unicode="O" horiz-adv-x="1630" d="M1511 733Q1511 370 1331 175T815 -20Q479 -20 299 175T119 735Q119 1100 299 1292T817 1485Q1154 1485 1332 1291T1511 733ZM444 733Q444 488 537 364T815 240Q1186 240 1186 733Q1186 1227 817 1227Q632 1227 538 1103T444
733Z" />
<glyph unicode="P" horiz-adv-x="1286" d="M494 774H596Q739 774 810 830T881 995Q881 1104 822 1156T635 1208H494V774ZM1194 1006Q1194 770 1047 645T627 520H494V0H184V1462H651Q917 1462 1055 1348T1194 1006Z" />
<glyph unicode="Q" horiz-adv-x="1630" d="M1511 733Q1511 475 1420 301T1151 45L1503 -348H1106L838 -20H815Q479 -20 299 175T119 735Q119 1100 299 1292T817 1485Q1154 1485 1332 1291T1511 733ZM444 733Q444 488 537 364T815 240Q1186 240 1186 733Q1186 1227
817 1227Q632 1227 538 1103T444 733Z" />
<glyph unicode="R" horiz-adv-x="1352" d="M494 813H594Q741 813 811 862T881 1016Q881 1120 810 1164T588 1208H494V813ZM494 561V0H184V1462H610Q908 1462 1051 1354T1194 1024Q1194 895 1123 795T922 637L1352 0H1008L659 561H494Z" />
<glyph unicode="S" horiz-adv-x="1128" d="M1047 406Q1047 208 905 94T508 -20Q274 -20 94 68V356Q242 290 344 263T532 236Q634 236 688 275T743 391Q743 434 719 467T649 532T459 631Q325 694 258 752T151 887T111 1067Q111 1261 242 1372T606 1483Q720 1483
823 1456T1040 1380L940 1139Q823 1187 747 1206T596 1225Q508 1225 461 1184T414 1077Q414 1036 433 1006T493 947T690 844Q895 746 971 648T1047 406Z" />
<glyph unicode="T" horiz-adv-x="1186" d="M748 0H438V1204H41V1462H1145V1204H748V0Z" />
<glyph unicode="U" horiz-adv-x="1548" d="M1374 1462V516Q1374 354 1302 232T1092 45T768 -20Q486 -20 330 124T174 520V1462H483V567Q483 398 551 319T776 240Q928 240 996 319T1065 569V1462H1374Z" />
<glyph unicode="V" horiz-adv-x="1331" d="M1018 1462H1331L834 0H496L0 1462H313L588 592Q611 515 635 413T666 270Q677 362 741 592L1018 1462Z" />
<glyph unicode="W" horiz-adv-x="1980" d="M1608 0H1255L1057 768Q1046 809 1020 937T989 1110Q983 1056 959 937T922 766L725 0H373L0 1462H305L492 664Q541 443 563 281Q569 338 590 457T631 643L844 1462H1137L1350 643Q1364 588 1385 475T1417 281Q1427 359
1449 475T1489 664L1675 1462H1980L1608 0Z" />
<glyph unicode="X" horiz-adv-x="1366" d="M1366 0H1012L672 553L332 0H0L485 754L31 1462H373L688 936L997 1462H1331L872 737L1366 0Z" />
<glyph unicode="Y" horiz-adv-x="1278" d="M639 860L944 1462H1278L793 569V0H485V559L0 1462H336L639 860Z" />
<glyph unicode="Z" horiz-adv-x="1186" d="M1137 0H49V201L750 1206H68V1462H1118V1262L418 256H1137V0Z" />
<glyph unicode="[" horiz-adv-x="798" d="M698 -339H214V1704H698V1493H474V-128H698V-339Z" />
<glyph unicode="\" horiz-adv-x="966" d="M334 1705L894 -339H632L72 1705H334Z" />
<glyph unicode="]" horiz-adv-x="798" d="M100 1704H584V-339H100V-128H324V1493H100V1704Z" />
<glyph unicode="^" horiz-adv-x="1168" d="M45 520L483 1470H627L1122 520H883L561 1163Q492 1002 421 839T281 520H45Z" />
<glyph unicode="_" horiz-adv-x="842" d="M846 -324H-4V-184H846V-324Z" />
<glyph unicode="`" horiz-adv-x="1243" d="M707 1241Q644 1285 522 1383T332 1548V1569H674Q737 1468 909 1268V1241H707Z" />
<glyph unicode="a" horiz-adv-x="1237" d="M870 0L811 152H803Q726 55 645 18T432 -20Q271 -20 179 72T86 334Q86 512 210 596T586 690L780 696V745Q780 915 606 915Q472 915 291 834L190 1040Q383 1141 618 1141Q843 1141 963 1043T1083 745V0H870ZM780 518L662
514Q529 510 464 466T399 332Q399 203 547 203Q653 203 716 264T780 426V518Z" />
<glyph unicode="b" horiz-adv-x="1296" d="M782 1139Q980 1139 1092 985T1204 561Q1204 284 1089 132T774 -20Q577 -20 465 123H444L393 0H160V1556H465V1194Q465 1125 453 973H465Q572 1139 782 1139ZM684 895Q571 895 519 826T465 596V563Q465 383 518 305T688
227Q782 227 837 313T893 565Q893 730 837 812T684 895Z" />
<glyph unicode="c" horiz-adv-x="1053" d="M614 -20Q92 -20 92 553Q92 838 234 988T641 1139Q835 1139 989 1063L899 827Q827 856 765 874T641 893Q403 893 403 555Q403 227 641 227Q729 227 804 250T954 324V63Q880 16 805 -2T614 -20Z" />
<glyph unicode="d" horiz-adv-x="1296" d="M514 -20Q317 -20 205 133T92 557Q92 832 206 985T522 1139Q733 1139 844 975H854Q831 1100 831 1198V1556H1137V0H903L844 145H831Q727 -20 514 -20ZM621 223Q738 223 792 291T852 522V555Q852 735 797 813T616 891Q514
891 458 805T401 553Q401 388 458 306T621 223Z" />
<glyph unicode="e" horiz-adv-x="1210" d="M623 922Q526 922 471 861T408 686H836Q834 799 777 860T623 922ZM666 -20Q396 -20 244 129T92 551Q92 832 232 985T621 1139Q858 1139 990 1004T1122 631V483H401Q406 353 478 280T680 207Q781 207 871 228T1059 295V59Q979
19 888 0T666 -20Z" />
<glyph unicode="f" horiz-adv-x="793" d="M778 889H514V0H209V889H41V1036L209 1118V1200Q209 1391 303 1479T604 1567Q762 1567 885 1520L807 1296Q715 1325 637 1325Q572 1325 543 1287T514 1188V1118H778V889Z" />
<glyph unicode="g" horiz-adv-x="1296" d="M623 219Q746 219 799 289T852 518V555Q852 734 797 812T618 891Q403 891 403 553Q403 385 456 302T623 219ZM1137 -2Q1137 -243 997 -367T578 -492Q333 -492 160 -426V-182Q363 -268 596 -268Q831 -268 831 -14V8L840
145H831Q724 -20 514 -20Q313 -20 203 135T92 557Q92 832 206 985T522 1139Q728 1139 846 975H854L879 1118H1137V-2Z" />
<glyph unicode="h" horiz-adv-x="1346" d="M1192 0H887V653Q887 895 707 895Q579 895 522 808T465 526V0H160V1556H465V1239Q465 1202 458 1065L451 975H467Q569 1139 791 1139Q988 1139 1090 1033T1192 729V0Z" />
<glyph unicode="i" horiz-adv-x="625" d="M147 1407Q147 1556 313 1556Q479 1556 479 1407Q479 1336 438 1297T313 1257Q147 1257 147 1407ZM465 0H160V1118H465V0Z" />
<glyph unicode="j" horiz-adv-x="625" d="M70 -492Q-47 -492 -131 -467V-227Q-61 -246 12 -246Q89 -246 124 -203T160 -76V1118H465V-121Q465 -299 362 -395T70 -492ZM147 1407Q147 1556 313 1556Q479 1556 479 1407Q479 1336 438 1297T313 1257Q147 1257 147 1407Z" />
<glyph unicode="k" horiz-adv-x="1270" d="M453 608L586 778L899 1118H1243L799 633L1270 0H918L596 453L465 348V0H160V1556H465V862L449 608H453Z" />
<glyph unicode="l" horiz-adv-x="625" d="M465 0H160V1556H465V0Z" />
<glyph unicode="m" horiz-adv-x="2011" d="M1161 0H856V653Q856 774 816 834T688 895Q571 895 518 809T465 526V0H160V1118H393L434 975H451Q496 1052 581 1095T776 1139Q1027 1139 1116 975H1143Q1188 1053 1275 1096T1473 1139Q1663 1139 1760 1042T1858 729V0H1552V653Q1552
774 1512 834T1384 895Q1272 895 1217 815T1161 561V0Z" />
<glyph unicode="n" horiz-adv-x="1346" d="M1192 0H887V653Q887 774 844 834T707 895Q579 895 522 810T465 526V0H160V1118H393L434 975H451Q502 1056 591 1097T795 1139Q990 1139 1091 1034T1192 729V0Z" />
<glyph unicode="o" horiz-adv-x="1268" d="M403 561Q403 395 457 310T635 225Q757 225 810 309T864 561Q864 727 810 810T633 893Q511 893 457 811T403 561ZM1176 561Q1176 288 1032 134T631 -20Q470 -20 347 50T158 253T92 561Q92 835 235 987T637 1139Q798 1139
921 1069T1110 868T1176 561Z" />
<glyph unicode="p" horiz-adv-x="1296" d="M774 -20Q577 -20 465 123H449Q465 -17 465 -39V-492H160V1118H408L451 973H465Q572 1139 782 1139Q980 1139 1092 986T1204 561Q1204 382 1152 250T1002 49T774 -20ZM684 895Q571 895 519 826T465 596V563Q465 383 518
305T688 227Q893 227 893 565Q893 730 843 812T684 895Z" />
<glyph unicode="q" horiz-adv-x="1296" d="M623 219Q739 219 793 285T852 518V555Q852 735 797 813T618 891Q403 891 403 553Q403 385 456 302T623 219ZM514 -20Q316 -20 204 132T92 557Q92 831 206 985T520 1139Q626 1139 705 1099T844 975H852L879 1118H1137V-492H831V-23Q831
38 844 145H831Q782 64 701 22T514 -20Z" />
<glyph unicode="r" horiz-adv-x="930" d="M784 1139Q846 1139 887 1130L864 844Q827 854 774 854Q628 854 547 779T465 569V0H160V1118H391L436 930H451Q503 1024 591 1081T784 1139Z" />
<glyph unicode="s" horiz-adv-x="1018" d="M940 332Q940 160 821 70T463 -20Q341 -20 255 -4T94 45V297Q179 257 285 230T473 203Q639 203 639 299Q639 335 617 357T541 408T397 475Q268 529 208 575T120 680T92 827Q92 976 207 1057T535 1139Q737 1139 928 1051L836
831Q752 867 679 890T530 913Q395 913 395 840Q395 799 438 769T629 680Q760 627 821 581T911 475T940 332Z" />
<glyph unicode="t" horiz-adv-x="889" d="M631 223Q711 223 823 258V31Q709 -20 543 -20Q360 -20 277 72T193 350V889H47V1018L215 1120L303 1356H498V1118H811V889H498V350Q498 285 534 254T631 223Z" />
<glyph unicode="u" horiz-adv-x="1346" d="M952 0L911 143H895Q846 65 756 23T551 -20Q354 -20 254 85T154 389V1118H459V465Q459 344 502 284T639 223Q767 223 824 308T881 592V1118H1186V0H952Z" />
<glyph unicode="v" horiz-adv-x="1165" d="M426 0L0 1118H319L535 481Q568 377 578 252H586Q592 365 631 481L846 1118H1165L739 0H426Z" />
<glyph unicode="w" horiz-adv-x="1753" d="M1079 0L993 391L879 885H870L666 0H338L20 1118H324L453 623Q475 535 514 256H522Q526 332 557 497L573 582L711 1118H1047L1178 582Q1190 527 1207 421T1227 256H1235Q1246 345 1266 458T1300 623L1434 1118H1733L1411
0H1079Z" />
<glyph unicode="x" horiz-adv-x="1184" d="M389 571L29 1118H375L592 762L811 1118H1157L793 571L1174 0H827L592 383L356 0H10L389 571Z" />
<glyph unicode="y" horiz-adv-x="1165" d="M0 1118H334L545 489Q572 407 582 295H588Q599 398 631 489L838 1118H1165L692 -143Q627 -318 507 -405T225 -492Q146 -492 70 -475V-233Q125 -246 190 -246Q271 -246 331 -197T426 -47L444 8L0 1118Z" />
<glyph unicode="z" horiz-adv-x="999" d="M938 0H55V180L573 885H86V1118H920V920L416 233H938V0Z" />
<glyph unicode="{" horiz-adv-x="872" d="M78 562V801Q140 801 188 812T270 848T319 912T334 1008V1379Q334 1465 353 1526T421 1627T556 1684T772 1703V1478Q732 1477 700 1470T645 1444T610 1393T598 1310V953Q592 730 364 688V676Q479 656 540 590T598 412V55Q598
4 610 -28T644 -78T699 -104T772 -113V-339Q641 -339 556 -321T422 -263T353 -162T334 -14V353Q334 466 269 514T78 562Z" />
<glyph unicode="|" horiz-adv-x="1105" d="M443 1703H662V-339H443V1703Z" />
<glyph unicode="}" horiz-adv-x="872" d="M794 563Q732 563 684 552T602 516T553 452T538 356V-15Q538 -101 519 -162T451 -263T316 -320T100 -339V-114Q140 -113 172 -106T227 -80T262 -29T274 54V411Q280 634 508 676V688Q393 708 332 774T274 952V1309Q274
1360 262 1392T228 1442T173 1468T100 1477V1703Q231 1703 316 1685T450 1627T519 1526T538 1378V1011Q538 898 603 850T794 802V563Z" />
<glyph unicode="~" horiz-adv-x="1168" d="M548 556Q511 572 483 583T431 600T386 609T342 612Q313 612 282 603T221 577T163 538T108 491V722Q159 776 222 803T364 831Q394 831 419 829T473 819T537 800T620 767Q658 751 686 741T739 724T784 715T827 712Q856
712 887 721T948 747T1006 785T1060 833V602Q959 493 804 493Q774 493 749 495T695 504T631 523T548 556Z" />
<glyph unicode="&#xa0;" horiz-adv-x="532" />
<glyph unicode="&#xa1;" horiz-adv-x="586" d="M168 606H412L463 -369H117L168 606ZM467 948Q467 864 422 821T291 778Q208 778 163 822T117 948Q117 1029 163 1073T291 1118Q375 1118 421 1074T467 948Z" />
<glyph unicode="&#xa2;" horiz-adv-x="1171" d="M563 176Q143 235 143 741Q143 1002 247 1144T563 1317V1483H741V1325Q907 1316 1040 1251L950 1016Q878 1045 816 1063T692 1081Q571 1081 513 998T455 743Q455 416 692 416Q774 416 840 431T1006 492V238Q879
177 741 168V-20H563V176Z" />
<glyph unicode="&#xa3;" horiz-adv-x="1171" d="M700 1483Q895 1483 1090 1401L997 1171Q840 1235 725 1235Q647 1235 605 1191T563 1063V870H938V651H563V508Q563 338 412 260H1130V0H82V248Q185 292 223 349T262 506V651H84V870H262V1065Q262 1266 376 1374T700 1483Z" />
<glyph unicode="&#xa4;" horiz-adv-x="1171" d="M188 723Q188 825 242 920L113 1047L260 1194L387 1067Q478 1120 584 1120Q689 1120 780 1065L907 1194L1057 1051L928 922Q981 833 981 723Q981 616 928 524L1053 399L907 254L780 379Q685 328 584 328Q469 328
385 379L260 256L115 401L242 526Q188 619 188 723ZM395 723Q395 646 449 591T584 535Q665 535 720 590T776 723Q776 803 720 858T584 913Q506 913 451 857T395 723Z" />
<glyph unicode="&#xa5;" horiz-adv-x="1171" d="M584 860L848 1462H1161L778 715H973V537H727V399H973V221H727V0H440V221H193V399H440V537H193V715H383L6 1462H322L584 860Z" />
<glyph unicode="&#xa6;" horiz-adv-x="1128" d="M455 1550H674V735H455V1550ZM455 350H674V-465H455V350Z" />
<glyph unicode="&#xa7;" horiz-adv-x="995" d="M121 801Q121 955 254 1049Q121 1133 121 1280Q121 1409 232 1488T526 1567Q696 1567 889 1483L807 1292Q701 1342 640 1359T520 1376Q439 1376 402 1354T365 1284Q365 1238 411 1202T578 1118Q746 1049 820 967T895
780Q895 602 770 522Q832 482 863 430T895 303Q895 155 776 68T455 -20Q252 -20 106 59V266Q187 225 286 197T455 168Q649 168 649 285Q649 324 631 348T567 397T442 457Q256 532 189 609T121 801ZM344 823Q344 759 406 709T590 610Q668 667 668 754Q668 823 614
869T434 961Q396 946 370 909T344 823Z" />
<glyph unicode="&#xa8;" horiz-adv-x="1243" d="M279 1405Q279 1470 316 1505T418 1540Q484 1540 521 1503T559 1405Q559 1345 521 1309T418 1272Q354 1272 317 1307T279 1405ZM682 1405Q682 1475 722 1507T823 1540Q888 1540 926 1504T965 1405Q965 1344 926
1308T823 1272Q763 1272 723 1304T682 1405Z" />
<glyph unicode="&#xa9;" horiz-adv-x="1704" d="M893 1055Q774 1055 707 970T639 731Q639 574 697 490T891 406Q986 406 1106 453V322Q1046 295 997 284T883 272Q690 272 585 392T479 731Q479 940 590 1064T891 1188Q1021 1188 1143 1126L1083 1001Q977 1055 893
1055ZM100 731Q100 931 200 1106T475 1382T852 1483Q1052 1483 1227 1383T1503 1108T1604 731Q1604 534 1507 361T1235 84T852 -20Q645 -20 470 83T198 360T100 731ZM209 731Q209 559 295 410T530 175T852 88Q1024 88 1173 174T1408 409T1495 731Q1495 903 1409
1052T1174 1287T852 1374Q680 1374 531 1288T296 1053T209 731Z" />
<glyph unicode="&#xaa;" horiz-adv-x="784" d="M561 764L530 874Q487 816 425 784T289 752Q172 752 110 810T47 975Q47 1084 129 1138T397 1202L496 1206Q496 1323 369 1323Q288 1323 152 1262L86 1397Q152 1429 231 1454T410 1479Q547 1479 621 1408T696 1206V764H561ZM252
977Q252 939 275 921T330 903Q407 903 451 944T496 1051V1087L397 1081Q252 1071 252 977Z" />
<glyph unicode="&#xab;" horiz-adv-x="1260" d="M82 573L453 1028L672 909L393 561L672 213L453 94L82 547V573ZM588 573L958 1028L1178 909L899 561L1178 213L958 94L588 547V573Z" />
<glyph unicode="&#xac;" horiz-adv-x="1171" d="M1081 248H862V612H88V831H1081V248Z" />
<glyph unicode="&#xad;" horiz-adv-x="659" d="M61 424V674H598V424H61Z" />
<glyph unicode="&#xae;" horiz-adv-x="1704" d="M727 764H829Q910 764 954 804T999 909Q999 982 958 1014T827 1047H727V764ZM1157 913Q1157 830 1114 770T997 680L1235 283H1059L854 637H727V283H571V1178H834Q1002 1178 1079 1113T1157 913ZM100 731Q100 931
200 1106T475 1382T852 1483Q1052 1483 1227 1383T1503 1108T1604 731Q1604 534 1507 361T1235 84T852 -20Q645 -20 470 83T198 360T100 731ZM209 731Q209 559 295 410T530 175T852 88Q1024 88 1173 174T1408 409T1495 731Q1495 903 1409 1052T1174 1287T852 1374Q680
1374 531 1288T296 1053T209 731Z" />
<glyph unicode="&#xaf;" horiz-adv-x="749" d="M106 484V734H643V484H106Z" />
<glyph unicode="&#xb0;" horiz-adv-x="877" d="M92 1137Q92 1229 138 1309T264 1436T438 1483Q530 1483 610 1437T737 1310T784 1137Q784 1044 738 964T611 838T438 793Q293 793 193 892T92 1137ZM283 1137Q283 1073 327 1028T438 983Q504 983 549 1029T594 1137Q594
1200 549 1247T438 1294Q374 1294 329 1248T283 1137Z" />
<glyph unicode="&#xb1;" horiz-adv-x="1171" d="M475 674H88V893H475V1282H694V893H1081V674H694V289H475V674ZM88 0V219H1081V0H88Z" />
<glyph unicode="&#xb2;" horiz-adv-x="776" d="M702 586H55V754L279 973Q381 1073 409 1117T438 1212Q438 1250 414 1270T350 1290Q269 1290 170 1202L47 1354Q194 1483 383 1483Q520 1483 599 1417T678 1233Q678 1148 631 1073T455 881L350 786H702V586Z" />
<glyph unicode="&#xb3;" horiz-adv-x="776" d="M666 1249Q666 1106 496 1051V1038Q590 1018 642 963T694 829Q694 708 606 639T332 569Q189 569 59 639V829Q207 739 330 739Q473 739 473 846Q473 899 429 925T307 952H195V1112H287Q370 1112 410 1138T451 1221Q451
1259 426 1284T350 1309Q303 1309 261 1290T162 1231L61 1372Q123 1419 198 1450T377 1481Q504 1481 585 1417T666 1249Z" />
<glyph unicode="&#xb4;" horiz-adv-x="1243" d="M332 1241V1268Q504 1468 567 1569H909V1548Q857 1496 732 1394T535 1241H332Z" />
<glyph unicode="&#xb5;" horiz-adv-x="1352" d="M465 465Q465 344 509 284T647 223Q773 223 830 309T887 592V1118H1192V0H961L918 150H903Q861 65 801 23T653 -20Q591 -20 539 3T455 70L460 -15L465 -172V-492H160V1118H465V465Z" />
<glyph unicode="&#xb6;" horiz-adv-x="1341" d="M1167 -260H1006V1356H840V-260H678V559Q616 541 532 541Q316 541 215 666T113 1042Q113 1302 222 1429T563 1556H1167V-260Z" />
<glyph unicode="&#xb7;" horiz-adv-x="584" d="M117 723Q117 807 162 850T293 893Q376 893 421 849T467 723Q467 642 421 598T293 553Q209 553 163 597T117 723Z" />
<glyph unicode="&#xb8;" horiz-adv-x="420" d="M418 -250Q418 -378 343 -435T109 -492Q31 -492 -37 -471V-303Q-10 -310 35 -317T106 -324Q178 -324 178 -262Q178 -179 12 -154L90 0H283L256 -61Q330 -85 374 -135T418 -250Z" />
<glyph unicode="&#xb9;" horiz-adv-x="776" d="M584 586H346V1032L349 1144L354 1239Q327 1203 279 1161L201 1100L92 1227L393 1462H584V586Z" />
<glyph unicode="&#xba;" horiz-adv-x="795" d="M737 1116Q737 945 646 849T395 752Q242 752 150 850T57 1116Q57 1285 146 1382T399 1479Q551 1479 644 1381T737 1116ZM260 1116Q260 1016 292 966T397 915Q469 915 500 965T532 1116Q532 1216 501 1265T397 1315Q325
1315 293 1266T260 1116Z" />
<glyph unicode="&#xbb;" horiz-adv-x="1260" d="M1178 547L807 94L588 213L866 561L588 909L807 1028L1178 573V547ZM672 547L301 94L82 213L360 561L82 909L301 1028L672 573V547Z" />
<glyph unicode="&#xbc;" horiz-adv-x="1804" d="M794 586H556V1032L559 1144L564 1239Q537 1203 489 1161L411 1100L302 1227L603 1462H794V586ZM1370 1462L559 0H320L1131 1462H1370ZM1682 152H1557V1H1319V152H936V306L1321 883H1557V320H1682V152ZM1319 320V484Q1319
570 1325 668Q1316 642 1290 588T1248 511L1121 320H1319Z" />
<glyph unicode="&#xbd;" horiz-adv-x="1804" d="M794 586H556V1032L559 1144L564 1239Q537 1203 489 1161L411 1100L302 1227L603 1462H794V586ZM1370 1462L559 0H320L1131 1462H1370ZM1716 1H1069V169L1293 388Q1395 488 1423 532T1452 627Q1452 665 1428 685T1364
705Q1283 705 1184 617L1061 769Q1208 898 1397 898Q1534 898 1613 832T1692 648Q1692 563 1645 488T1469 296L1364 201H1716V1Z" />
<glyph unicode="&#xbe;" horiz-adv-x="1804" d="M697 1249Q697 1106 527 1051V1038Q621 1018 673 963T725 829Q725 708 637 639T363 569Q220 569 90 639V829Q238 739 361 739Q504 739 504 846Q504 899 460 925T338 952H226V1112H318Q401 1112 441 1138T482 1221Q482
1259 457 1284T381 1309Q334 1309 292 1290T193 1231L92 1372Q154 1419 229 1450T408 1481Q535 1481 616 1417T697 1249ZM1441 1462L630 0H391L1202 1462H1441ZM1712 152H1587V1H1349V152H966V306L1351 883H1587V320H1712V152ZM1349 320V484Q1349 570 1355 668Q1346
642 1320 588T1278 511L1151 320H1349Z" />
<glyph unicode="&#xbf;" horiz-adv-x="977" d="M713 606V532Q713 434 669 363T516 215Q407 137 379 93T350 -14Q350 -71 393 -108T526 -145Q605 -145 695 -116T881 -45L983 -266Q885 -322 762 -356T532 -391Q312 -391 187 -295T61 -29Q61 79 109 158T301 342Q396
412 422 449T449 547V606H713ZM745 948Q745 864 700 821T569 778Q486 778 441 822T395 948Q395 1029 441 1073T569 1118Q653 1118 699 1074T745 948Z" />
<glyph unicode="&#xc0;" horiz-adv-x="1413" d="M1079 0L973 348H440L334 0H0L516 1468H895L1413 0H1079ZM899 608Q752 1081 734 1143T707 1241Q674 1113 518 608H899ZM713 1579Q650 1623 528 1721T338 1886V1907H680Q743 1806 915 1606V1579H713Z" />
<glyph unicode="&#xc1;" horiz-adv-x="1413" d="M1079 0L973 348H440L334 0H0L516 1468H895L1413 0H1079ZM899 608Q752 1081 734 1143T707 1241Q674 1113 518 608H899ZM541 1579V1606Q713 1806 776 1907H1118V1886Q1066 1834 941 1732T744 1579H541Z" />
<glyph unicode="&#xc2;" horiz-adv-x="1413" d="M1079 0L973 348H440L334 0H0L516 1468H895L1413 0H1079ZM899 608Q752 1081 734 1143T707 1241Q674 1113 518 608H899ZM938 1579Q781 1672 704 1755Q626 1674 475 1579H272V1606Q461 1795 528 1907H885Q916 1855
992 1766T1141 1606V1579H938Z" />
<glyph unicode="&#xc3;" horiz-adv-x="1413" d="M1079 0L973 348H440L334 0H0L516 1468H895L1413 0H1079ZM899 608Q752 1081 734 1143T707 1241Q674 1113 518 608H899ZM543 1684Q512 1684 484 1658T442 1577H293Q304 1722 375 1804T565 1886Q606 1886 645 1870T723
1834T799 1798T872 1782Q903 1782 931 1808T973 1888H1122Q1111 1743 1039 1661T850 1579Q809 1579 770 1595T692 1631T616 1667T543 1684Z" />
<glyph unicode="&#xc4;" horiz-adv-x="1413" d="M1079 0L973 348H440L334 0H0L516 1468H895L1413 0H1079ZM899 608Q752 1081 734 1143T707 1241Q674 1113 518 608H899ZM365 1743Q365 1808 402 1843T504 1878Q570 1878 607 1841T645 1743Q645 1683 607 1647T504
1610Q440 1610 403 1645T365 1743ZM768 1743Q768 1813 808 1845T909 1878Q974 1878 1012 1842T1051 1743Q1051 1682 1012 1646T909 1610Q849 1610 809 1642T768 1743Z" />
<glyph unicode="&#xc5;" horiz-adv-x="1413" d="M958 1567Q958 1478 911 1419L1413 0H1079L973 348H440L334 0H0L500 1419Q457 1477 457 1565Q457 1673 524 1737T705 1802Q814 1802 886 1738T958 1567ZM899 608Q752 1081 734 1143T707 1241Q674 1113 518 608H899ZM801
1565Q801 1610 774 1635T705 1661Q663 1661 636 1636T608 1565Q608 1472 705 1468Q747 1468 774 1494T801 1565Z" />
<glyph unicode="&#xc6;" horiz-adv-x="1950" d="M1829 0H956V348H465L315 0H0L655 1462H1829V1208H1266V887H1792V633H1266V256H1829V0ZM578 608H956V1198H829L578 608Z" />
<glyph unicode="&#xc7;" horiz-adv-x="1305" d="M805 1225Q630 1225 534 1094T438 727Q438 238 805 238Q959 238 1178 315V55Q998 -20 776 -20Q457 -20 288 173T119 729Q119 957 202 1128T440 1391T805 1483Q1018 1483 1233 1380L1133 1128Q1051 1167 968 1196T805
1225ZM959 -250Q959 -378 884 -435T650 -492Q572 -492 504 -471V-303Q531 -310 576 -317T647 -324Q719 -324 719 -262Q719 -179 553 -154L631 0H824L797 -61Q871 -85 915 -135T959 -250Z" />
<glyph unicode="&#xc8;" horiz-adv-x="1147" d="M1026 0H184V1462H1026V1208H494V887H989V633H494V256H1026V0ZM634 1579Q571 1623 449 1721T259 1886V1907H601Q664 1806 836 1606V1579H634Z" />
<glyph unicode="&#xc9;" horiz-adv-x="1147" d="M1026 0H184V1462H1026V1208H494V887H989V633H494V256H1026V0ZM424 1579V1606Q596 1806 659 1907H1001V1886Q949 1834 824 1732T627 1579H424Z" />
<glyph unicode="&#xca;" horiz-adv-x="1147" d="M1026 0H184V1462H1026V1208H494V887H989V633H494V256H1026V0ZM841 1579Q684 1672 607 1755Q529 1674 378 1579H175V1606Q364 1795 431 1907H788Q819 1855 895 1766T1044 1606V1579H841Z" />
<glyph unicode="&#xcb;" horiz-adv-x="1147" d="M1026 0H184V1462H1026V1208H494V887H989V633H494V256H1026V0ZM272 1743Q272 1808 309 1843T411 1878Q477 1878 514 1841T552 1743Q552 1683 514 1647T411 1610Q347 1610 310 1645T272 1743ZM675 1743Q675 1813
715 1845T816 1878Q881 1878 919 1842T958 1743Q958 1682 919 1646T816 1610Q756 1610 716 1642T675 1743Z" />
<glyph unicode="&#xcc;" horiz-adv-x="797" d="M731 0H66V176L244 258V1204L66 1286V1462H731V1286L553 1204V258L731 176V0ZM417 1579Q354 1623 232 1721T42 1886V1907H384Q447 1806 619 1606V1579H417Z" />
<glyph unicode="&#xcd;" horiz-adv-x="797" d="M731 0H66V176L244 258V1204L66 1286V1462H731V1286L553 1204V258L731 176V0ZM237 1579V1606Q409 1806 472 1907H814V1886Q762 1834 637 1732T440 1579H237Z" />
<glyph unicode="&#xce;" horiz-adv-x="797" d="M731 0H66V176L244 258V1204L66 1286V1462H731V1286L553 1204V258L731 176V0ZM630 1579Q473 1672 396 1755Q318 1674 167 1579H-36V1606Q153 1795 220 1907H577Q608 1855 684 1766T833 1606V1579H630Z" />
<glyph unicode="&#xcf;" horiz-adv-x="797" d="M731 0H66V176L244 258V1204L66 1286V1462H731V1286L553 1204V258L731 176V0ZM57 1743Q57 1808 94 1843T196 1878Q262 1878 299 1841T337 1743Q337 1683 299 1647T196 1610Q132 1610 95 1645T57 1743ZM460 1743Q460
1813 500 1845T601 1878Q666 1878 704 1842T743 1743Q743 1682 704 1646T601 1610Q541 1610 501 1642T460 1743Z" />
<glyph unicode="&#xd0;" horiz-adv-x="1516" d="M47 850H184V1462H643Q1001 1462 1199 1273T1397 745Q1397 384 1192 192T598 0H184V596H47V850ZM1075 737Q1075 969 971 1088T657 1208H494V850H731V596H494V256H625Q1075 256 1075 737Z" />
<glyph unicode="&#xd1;" horiz-adv-x="1665" d="M1481 0H1087L451 1106H442Q461 813 461 688V0H184V1462H575L1210 367H1217Q1202 652 1202 770V1462H1481V0ZM668 1684Q637 1684 609 1658T567 1577H418Q429 1722 500 1804T690 1886Q731 1886 770 1870T848 1834T924
1798T997 1782Q1028 1782 1056 1808T1098 1888H1247Q1236 1743 1164 1661T975 1579Q934 1579 895 1595T817 1631T741 1667T668 1684Z" />
<glyph unicode="&#xd2;" horiz-adv-x="1630" d="M1511 733Q1511 370 1331 175T815 -20Q479 -20 299 175T119 735Q119 1100 299 1292T817 1485Q1154 1485 1332 1291T1511 733ZM444 733Q444 488 537 364T815 240Q1186 240 1186 733Q1186 1227 817 1227Q632 1227
538 1103T444 733ZM824 1579Q761 1623 639 1721T449 1886V1907H791Q854 1806 1026 1606V1579H824Z" />
<glyph unicode="&#xd3;" horiz-adv-x="1630" d="M1511 733Q1511 370 1331 175T815 -20Q479 -20 299 175T119 735Q119 1100 299 1292T817 1485Q1154 1485 1332 1291T1511 733ZM444 733Q444 488 537 364T815 240Q1186 240 1186 733Q1186 1227 817 1227Q632 1227
538 1103T444 733ZM658 1579V1606Q830 1806 893 1907H1235V1886Q1183 1834 1058 1732T861 1579H658Z" />
<glyph unicode="&#xd4;" horiz-adv-x="1630" d="M1511 733Q1511 370 1331 175T815 -20Q479 -20 299 175T119 735Q119 1100 299 1292T817 1485Q1154 1485 1332 1291T1511 733ZM444 733Q444 488 537 364T815 240Q1186 240 1186 733Q1186 1227 817 1227Q632 1227
538 1103T444 733ZM1047 1579Q890 1672 813 1755Q735 1674 584 1579H381V1606Q570 1795 637 1907H994Q1025 1855 1101 1766T1250 1606V1579H1047Z" />
<glyph unicode="&#xd5;" horiz-adv-x="1630" d="M1511 733Q1511 370 1331 175T815 -20Q479 -20 299 175T119 735Q119 1100 299 1292T817 1485Q1154 1485 1332 1291T1511 733ZM444 733Q444 488 537 364T815 240Q1186 240 1186 733Q1186 1227 817 1227Q632 1227
538 1103T444 733ZM652 1684Q621 1684 593 1658T551 1577H402Q413 1722 484 1804T674 1886Q715 1886 754 1870T832 1834T908 1798T981 1782Q1012 1782 1040 1808T1082 1888H1231Q1220 1743 1148 1661T959 1579Q918 1579 879 1595T801 1631T725 1667T652 1684Z"
/>
<glyph unicode="&#xd6;" horiz-adv-x="1630" d="M1511 733Q1511 370 1331 175T815 -20Q479 -20 299 175T119 735Q119 1100 299 1292T817 1485Q1154 1485 1332 1291T1511 733ZM444 733Q444 488 537 364T815 240Q1186 240 1186 733Q1186 1227 817 1227Q632 1227
538 1103T444 733ZM474 1743Q474 1808 511 1843T613 1878Q679 1878 716 1841T754 1743Q754 1683 716 1647T613 1610Q549 1610 512 1645T474 1743ZM877 1743Q877 1813 917 1845T1018 1878Q1083 1878 1121 1842T1160 1743Q1160 1682 1121 1646T1018 1610Q958 1610
918 1642T877 1743Z" />
<glyph unicode="&#xd7;" horiz-adv-x="1168" d="M428 663L129 964L280 1118L581 819L886 1118L1040 968L735 663L1036 360L886 208L581 509L280 210L131 362L428 663Z" />
<glyph unicode="&#xd8;" horiz-adv-x="1630" d="M1511 733Q1511 370 1331 175T815 -20Q618 -20 479 45L389 -90L227 18L317 154Q119 348 119 735Q119 1100 299 1292T817 1485Q1015 1485 1161 1415L1245 1540L1405 1436L1317 1305Q1511 1111 1511 733ZM444 733Q444
542 500 426L1006 1182Q922 1227 817 1227Q632 1227 538 1103T444 733ZM1186 733Q1186 913 1135 1030L635 279Q711 240 815 240Q1186 240 1186 733Z" />
<glyph unicode="&#xd9;" horiz-adv-x="1548" d="M1374 1462V516Q1374 354 1302 232T1092 45T768 -20Q486 -20 330 124T174 520V1462H483V567Q483 398 551 319T776 240Q928 240 996 319T1065 569V1462H1374ZM750 1579Q687 1623 565 1721T375 1886V1907H717Q780
1806 952 1606V1579H750Z" />
<glyph unicode="&#xda;" horiz-adv-x="1548" d="M1374 1462V516Q1374 354 1302 232T1092 45T768 -20Q486 -20 330 124T174 520V1462H483V567Q483 398 551 319T776 240Q928 240 996 319T1065 569V1462H1374ZM602 1579V1606Q774 1806 837 1907H1179V1886Q1127 1834
1002 1732T805 1579H602Z" />
<glyph unicode="&#xdb;" horiz-adv-x="1548" d="M1374 1462V516Q1374 354 1302 232T1092 45T768 -20Q486 -20 330 124T174 520V1462H483V567Q483 398 551 319T776 240Q928 240 996 319T1065 569V1462H1374ZM1006 1579Q849 1672 772 1755Q694 1674 543 1579H340V1606Q529
1795 596 1907H953Q984 1855 1060 1766T1209 1606V1579H1006Z" />
<glyph unicode="&#xdc;" horiz-adv-x="1548" d="M1374 1462V516Q1374 354 1302 232T1092 45T768 -20Q486 -20 330 124T174 520V1462H483V567Q483 398 551 319T776 240Q928 240 996 319T1065 569V1462H1374ZM433 1743Q433 1808 470 1843T572 1878Q638 1878 675
1841T713 1743Q713 1683 675 1647T572 1610Q508 1610 471 1645T433 1743ZM836 1743Q836 1813 876 1845T977 1878Q1042 1878 1080 1842T1119 1743Q1119 1682 1080 1646T977 1610Q917 1610 877 1642T836 1743Z" />
<glyph unicode="&#xdd;" horiz-adv-x="1278" d="M639 860L944 1462H1278L793 569V0H485V559L0 1462H336L639 860ZM461 1579V1606Q633 1806 696 1907H1038V1886Q986 1834 861 1732T664 1579H461Z" />
<glyph unicode="&#xde;" horiz-adv-x="1286" d="M1194 770Q1194 541 1052 417T647 293H494V0H184V1462H494V1233H672Q926 1233 1060 1114T1194 770ZM494 543H594Q739 543 810 595T881 770Q881 877 818 929T618 981H494V543Z" />
<glyph unicode="&#xdf;" horiz-adv-x="1456" d="M1249 1241Q1249 1177 1228 1129T1175 1042T1106 975T1037 922T984 877T963 834Q963 807 989 781T1082 715Q1228 624 1280 575T1358 465T1384 326Q1384 154 1268 67T924 -20Q825 -20 753 -6T621 43V285Q674 249
756 224T903 199Q1071 199 1071 322Q1071 363 1055 388T998 444T883 516Q757 588 708 647T659 788Q659 852 694 905T799 1007Q876 1062 907 1102T938 1188Q938 1248 875 1288T711 1329Q595 1329 530 1277T465 1128V0H160V1139Q160 1340 306 1453T711 1567Q955 1567
1102 1479T1249 1241Z" />
<glyph unicode="&#xe0;" horiz-adv-x="1237" d="M870 0L811 152H803Q726 55 645 18T432 -20Q271 -20 179 72T86 334Q86 512 210 596T586 690L780 696V745Q780 915 606 915Q472 915 291 834L190 1040Q383 1141 618 1141Q843 1141 963 1043T1083 745V0H870ZM780
518L662 514Q529 510 464 466T399 332Q399 203 547 203Q653 203 716 264T780 426V518ZM870 1241Q807 1285 685 1383T495 1548V1569H837Q900 1468 1072 1268V1241H870Z" />
<glyph unicode="&#xe1;" horiz-adv-x="1237" d="M870 0L811 152H803Q726 55 645 18T432 -20Q271 -20 179 72T86 334Q86 512 210 596T586 690L780 696V745Q780 915 606 915Q472 915 291 834L190 1040Q383 1141 618 1141Q843 1141 963 1043T1083 745V0H870ZM780
518L662 514Q529 510 464 466T399 332Q399 203 547 203Q653 203 716 264T780 426V518ZM441 1241V1268Q613 1468 676 1569H1018V1548Q966 1496 841 1394T644 1241H441Z" />
<glyph unicode="&#xe2;" horiz-adv-x="1237" d="M870 0L811 152H803Q726 55 645 18T432 -20Q271 -20 179 72T86 334Q86 512 210 596T586 690L780 696V745Q780 915 606 915Q472 915 291 834L190 1040Q383 1141 618 1141Q843 1141 963 1043T1083 745V0H870ZM780
518L662 514Q529 510 464 466T399 332Q399 203 547 203Q653 203 716 264T780 426V518ZM1099 1496Q942 1589 865 1672Q787 1591 636 1496H433V1523Q622 1712 689 1824H1046Q1077 1772 1153 1683T1302 1523V1496H1099Z" />
<glyph unicode="&#xe3;" horiz-adv-x="1237" d="M870 0L811 152H803Q726 55 645 18T432 -20Q271 -20 179 72T86 334Q86 512 210 596T586 690L780 696V745Q780 915 606 915Q472 915 291 834L190 1040Q383 1141 618 1141Q843 1141 963 1043T1083 745V0H870ZM780
518L662 514Q529 510 464 466T399 332Q399 203 547 203Q653 203 716 264T780 426V518ZM467 1346Q436 1346 408 1320T366 1239H217Q228 1384 299 1466T489 1548Q530 1548 569 1532T647 1496T723 1460T796 1444Q827 1444 855 1470T897 1550H1046Q1035 1405 963 1323T774
1241Q733 1241 694 1257T616 1293T540 1329T467 1346Z" />
<glyph unicode="&#xe4;" horiz-adv-x="1237" d="M870 0L811 152H803Q726 55 645 18T432 -20Q271 -20 179 72T86 334Q86 512 210 596T586 690L780 696V745Q780 915 606 915Q472 915 291 834L190 1040Q383 1141 618 1141Q843 1141 963 1043T1083 745V0H870ZM780
518L662 514Q529 510 464 466T399 332Q399 203 547 203Q653 203 716 264T780 426V518ZM285 1405Q285 1470 322 1505T424 1540Q490 1540 527 1503T565 1405Q565 1345 527 1309T424 1272Q360 1272 323 1307T285 1405ZM688 1405Q688 1475 728 1507T829 1540Q894 1540
932 1504T971 1405Q971 1344 932 1308T829 1272Q769 1272 729 1304T688 1405Z" />
<glyph unicode="&#xe5;" horiz-adv-x="1237" d="M870 0L811 152H803Q726 55 645 18T432 -20Q271 -20 179 72T86 334Q86 512 210 596T586 690L780 696V745Q780 915 606 915Q472 915 291 834L190 1040Q383 1141 618 1141Q843 1141 963 1043T1083 745V0H870ZM780
518L662 514Q529 510 464 466T399 332Q399 203 547 203Q653 203 716 264T780 426V518ZM883 1479Q883 1371 812 1305T629 1239Q517 1239 449 1303T381 1477Q381 1585 448 1649T629 1714Q739 1714 811 1648T883 1479ZM725 1477Q725 1522 698 1547T629 1573Q587 1573
560 1548T533 1477Q533 1432 557 1406T629 1380Q671 1380 698 1406T725 1477Z" />
<glyph unicode="&#xe6;" horiz-adv-x="1878" d="M1329 -20Q1192 -20 1080 30T895 186Q797 69 699 25T442 -20Q281 -20 184 74T86 334Q86 512 207 596T569 690L760 696V780Q760 849 716 882T594 915Q454 915 289 838L190 1040Q379 1141 612 1141Q839 1141 954 1010Q1020
1074 1106 1106T1313 1139Q1534 1139 1662 1002T1790 631V483H1067Q1072 353 1144 280T1346 207Q1542 207 1726 295V59Q1647 20 1555 0T1329 -20ZM760 518L647 514Q523 510 461 467T399 332Q399 203 539 203Q640 203 700 264T760 426V518ZM1307 922Q1090 922 1073
686H1503Q1501 798 1448 860T1307 922Z" />
<glyph unicode="&#xe7;" horiz-adv-x="1053" d="M614 -20Q92 -20 92 553Q92 838 234 988T641 1139Q835 1139 989 1063L899 827Q827 856 765 874T641 893Q403 893 403 555Q403 227 641 227Q729 227 804 250T954 324V63Q880 16 805 -2T614 -20ZM805 -250Q805 -378
730 -435T496 -492Q418 -492 350 -471V-303Q377 -310 422 -317T493 -324Q565 -324 565 -262Q565 -179 399 -154L477 0H670L643 -61Q717 -85 761 -135T805 -250Z" />
<glyph unicode="&#xe8;" horiz-adv-x="1210" d="M623 922Q526 922 471 861T408 686H836Q834 799 777 860T623 922ZM666 -20Q396 -20 244 129T92 551Q92 832 232 985T621 1139Q858 1139 990 1004T1122 631V483H401Q406 353 478 280T680 207Q781 207 871 228T1059
295V59Q979 19 888 0T666 -20ZM876 1241Q813 1285 691 1383T501 1548V1569H843Q906 1468 1078 1268V1241H876Z" />
<glyph unicode="&#xe9;" horiz-adv-x="1210" d="M623 922Q526 922 471 861T408 686H836Q834 799 777 860T623 922ZM666 -20Q396 -20 244 129T92 551Q92 832 232 985T621 1139Q858 1139 990 1004T1122 631V483H401Q406 353 478 280T680 207Q781 207 871 228T1059
295V59Q979 19 888 0T666 -20ZM447 1241V1268Q619 1468 682 1569H1024V1548Q972 1496 847 1394T650 1241H447Z" />
<glyph unicode="&#xea;" horiz-adv-x="1210" d="M623 922Q526 922 471 861T408 686H836Q834 799 777 860T623 922ZM666 -20Q396 -20 244 129T92 551Q92 832 232 985T621 1139Q858 1139 990 1004T1122 631V483H401Q406 353 478 280T680 207Q781 207 871 228T1059
295V59Q979 19 888 0T666 -20ZM860 1241Q703 1334 626 1417Q548 1336 397 1241H194V1268Q383 1457 450 1569H807Q838 1517 914 1428T1063 1268V1241H860Z" />
<glyph unicode="&#xeb;" horiz-adv-x="1210" d="M623 922Q526 922 471 861T408 686H836Q834 799 777 860T623 922ZM666 -20Q396 -20 244 129T92 551Q92 832 232 985T621 1139Q858 1139 990 1004T1122 631V483H401Q406 353 478 280T680 207Q781 207 871 228T1059
295V59Q979 19 888 0T666 -20ZM297 1405Q297 1470 334 1505T436 1540Q502 1540 539 1503T577 1405Q577 1345 539 1309T436 1272Q372 1272 335 1307T297 1405ZM700 1405Q700 1475 740 1507T841 1540Q906 1540 944 1504T983 1405Q983 1344 944 1308T841 1272Q781
1272 741 1304T700 1405Z" />
<glyph unicode="&#xec;" horiz-adv-x="625" d="M465 0H160V1118H465V0ZM274 1241Q211 1285 89 1383T-101 1548V1569H241Q304 1468 476 1268V1241H274Z" />
<glyph unicode="&#xed;" horiz-adv-x="625" d="M465 0H160V1118H465V0ZM145 1241V1268Q317 1468 380 1569H722V1548Q670 1496 545 1394T348 1241H145Z" />
<glyph unicode="&#xee;" horiz-adv-x="625" d="M465 0H160V1118H465V0ZM544 1241Q387 1334 310 1417Q232 1336 81 1241H-122V1268Q67 1457 134 1569H491Q522 1517 598 1428T747 1268V1241H544Z" />
<glyph unicode="&#xef;" horiz-adv-x="625" d="M465 0H160V1118H465V0ZM-29 1405Q-29 1470 8 1505T110 1540Q176 1540 213 1503T251 1405Q251 1345 213 1309T110 1272Q46 1272 9 1307T-29 1405ZM374 1405Q374 1475 414 1507T515 1540Q580 1540 618 1504T657 1405Q657
1344 618 1308T515 1272Q455 1272 415 1304T374 1405Z" />
<glyph unicode="&#xf0;" horiz-adv-x="1268" d="M510 1298Q421 1357 358 1391L459 1567Q607 1500 717 1425L942 1565L1042 1411L872 1307Q1028 1164 1102 985T1176 573Q1176 293 1031 137T631 -20Q386 -20 239 117T92 489Q92 722 222 858T573 995Q778 995 848
897L856 901Q792 1056 664 1178L434 1036L334 1192L510 1298ZM864 532Q864 640 803 705T635 770Q514 770 459 702T403 487Q403 347 463 276T635 205Q758 205 811 287T864 532Z" />
<glyph unicode="&#xf1;" horiz-adv-x="1346" d="M1192 0H887V653Q887 774 844 834T707 895Q579 895 522 810T465 526V0H160V1118H393L434 975H451Q502 1056 591 1097T795 1139Q990 1139 1091 1034T1192 729V0ZM508 1346Q477 1346 449 1320T407 1239H258Q269 1384
340 1466T530 1548Q571 1548 610 1532T688 1496T764 1460T837 1444Q868 1444 896 1470T938 1550H1087Q1076 1405 1004 1323T815 1241Q774 1241 735 1257T657 1293T581 1329T508 1346Z" />
<glyph unicode="&#xf2;" horiz-adv-x="1268" d="M403 561Q403 395 457 310T635 225Q757 225 810 309T864 561Q864 727 810 810T633 893Q511 893 457 811T403 561ZM1176 561Q1176 288 1032 134T631 -20Q470 -20 347 50T158 253T92 561Q92 835 235 987T637 1139Q798
1139 921 1069T1110 868T1176 561ZM868 1241Q805 1285 683 1383T493 1548V1569H835Q898 1468 1070 1268V1241H868Z" />
<glyph unicode="&#xf3;" horiz-adv-x="1268" d="M403 561Q403 395 457 310T635 225Q757 225 810 309T864 561Q864 727 810 810T633 893Q511 893 457 811T403 561ZM1176 561Q1176 288 1032 134T631 -20Q470 -20 347 50T158 253T92 561Q92 835 235 987T637 1139Q798
1139 921 1069T1110 868T1176 561ZM467 1241V1268Q639 1468 702 1569H1044V1548Q992 1496 867 1394T670 1241H467Z" />
<glyph unicode="&#xf4;" horiz-adv-x="1268" d="M403 561Q403 395 457 310T635 225Q757 225 810 309T864 561Q864 727 810 810T633 893Q511 893 457 811T403 561ZM1176 561Q1176 288 1032 134T631 -20Q470 -20 347 50T158 253T92 561Q92 835 235 987T637 1139Q798
1139 921 1069T1110 868T1176 561ZM864 1241Q707 1334 630 1417Q552 1336 401 1241H198V1268Q387 1457 454 1569H811Q842 1517 918 1428T1067 1268V1241H864Z" />
<glyph unicode="&#xf5;" horiz-adv-x="1268" d="M403 561Q403 395 457 310T635 225Q757 225 810 309T864 561Q864 727 810 810T633 893Q511 893 457 811T403 561ZM1176 561Q1176 288 1032 134T631 -20Q470 -20 347 50T158 253T92 561Q92 835 235 987T637 1139Q798
1139 921 1069T1110 868T1176 561ZM469 1346Q438 1346 410 1320T368 1239H219Q230 1384 301 1466T491 1548Q532 1548 571 1532T649 1496T725 1460T798 1444Q829 1444 857 1470T899 1550H1048Q1037 1405 965 1323T776 1241Q735 1241 696 1257T618 1293T542 1329T469
1346Z" />
<glyph unicode="&#xf6;" horiz-adv-x="1268" d="M403 561Q403 395 457 310T635 225Q757 225 810 309T864 561Q864 727 810 810T633 893Q511 893 457 811T403 561ZM1176 561Q1176 288 1032 134T631 -20Q470 -20 347 50T158 253T92 561Q92 835 235 987T637 1139Q798
1139 921 1069T1110 868T1176 561ZM291 1405Q291 1470 328 1505T430 1540Q496 1540 533 1503T571 1405Q571 1345 533 1309T430 1272Q366 1272 329 1307T291 1405ZM694 1405Q694 1475 734 1507T835 1540Q900 1540 938 1504T977 1405Q977 1344 938 1308T835 1272Q775
1272 735 1304T694 1405Z" />
<glyph unicode="&#xf7;" horiz-adv-x="1168" d="M108 552V771H1060V552H108ZM444 313Q444 355 455 384T485 430T529 456T583 464Q611 464 636 456T680 431T710 384T722 313Q722 273 711 244T680 197T636 170T583 161Q555 161 530 169T485 196T455 244T444 313ZM444
1011Q444 1053 455 1082T485 1129T529 1155T583 1163Q611 1163 636 1155T680 1129T710 1082T722 1011Q722 971 711 943T680 896T636 869T583 860Q555 860 530 868T485 895T455 942T444 1011Z" />
<glyph unicode="&#xf8;" horiz-adv-x="1268" d="M1176 561Q1176 288 1032 134T631 -20Q505 -20 397 25L330 -76L176 29L244 129Q92 285 92 561Q92 835 235 987T637 1139Q769 1139 885 1087L940 1169L1092 1061L1034 977Q1176 822 1176 561ZM403 561Q403 467 422
395L739 870Q696 893 633 893Q511 893 457 811T403 561ZM864 561Q864 642 852 702L543 240Q581 225 635 225Q757 225 810 309T864 561Z" />
<glyph unicode="&#xf9;" horiz-adv-x="1346" d="M952 0L911 143H895Q846 65 756 23T551 -20Q354 -20 254 85T154 389V1118H459V465Q459 344 502 284T639 223Q767 223 824 308T881 592V1118H1186V0H952ZM876 1241Q813 1285 691 1383T501 1548V1569H843Q906 1468
1078 1268V1241H876Z" />
<glyph unicode="&#xfa;" horiz-adv-x="1346" d="M952 0L911 143H895Q846 65 756 23T551 -20Q354 -20 254 85T154 389V1118H459V465Q459 344 502 284T639 223Q767 223 824 308T881 592V1118H1186V0H952ZM498 1241V1268Q670 1468 733 1569H1075V1548Q1023 1496 898
1394T701 1241H498Z" />
<glyph unicode="&#xfb;" horiz-adv-x="1346" d="M952 0L911 143H895Q846 65 756 23T551 -20Q354 -20 254 85T154 389V1118H459V465Q459 344 502 284T639 223Q767 223 824 308T881 592V1118H1186V0H952ZM901 1241Q744 1334 667 1417Q589 1336 438 1241H235V1268Q424
1457 491 1569H848Q879 1517 955 1428T1104 1268V1241H901Z" />
<glyph unicode="&#xfc;" horiz-adv-x="1346" d="M952 0L911 143H895Q846 65 756 23T551 -20Q354 -20 254 85T154 389V1118H459V465Q459 344 502 284T639 223Q767 223 824 308T881 592V1118H1186V0H952ZM326 1405Q326 1470 363 1505T465 1540Q531 1540 568 1503T606
1405Q606 1345 568 1309T465 1272Q401 1272 364 1307T326 1405ZM729 1405Q729 1475 769 1507T870 1540Q935 1540 973 1504T1012 1405Q1012 1344 973 1308T870 1272Q810 1272 770 1304T729 1405Z" />
<glyph unicode="&#xfd;" horiz-adv-x="1165" d="M0 1118H334L545 489Q572 407 582 295H588Q599 398 631 489L838 1118H1165L692 -143Q627 -318 507 -405T225 -492Q146 -492 70 -475V-233Q125 -246 190 -246Q271 -246 331 -197T426 -47L444 8L0 1118ZM393 1241V1268Q565
1468 628 1569H970V1548Q918 1496 793 1394T596 1241H393Z" />
<glyph unicode="&#xfe;" horiz-adv-x="1296" d="M465 973Q515 1054 596 1096T782 1139Q980 1139 1092 985T1204 561Q1204 288 1093 134T782 -20Q569 -20 465 117H451L458 55L465 -39V-492H160V1556H465V1165L458 1045L451 973H465ZM684 895Q571 895 519 826T465
596V563Q465 383 518 305T688 227Q893 227 893 565Q893 730 843 812T684 895Z" />
<glyph unicode="&#xff;" horiz-adv-x="1165" d="M0 1118H334L545 489Q572 407 582 295H588Q599 398 631 489L838 1118H1165L692 -143Q627 -318 507 -405T225 -492Q146 -492 70 -475V-233Q125 -246 190 -246Q271 -246 331 -197T426 -47L444 8L0 1118ZM499 1405Q499
1470 536 1505T638 1540Q704 1540 741 1503T779 1405Q779 1345 741 1309T638 1272Q574 1272 537 1307T499 1405ZM902 1405Q902 1475 942 1507T1043 1540Q1108 1540 1146 1504T1185 1405Q1185 1344 1146 1308T1043 1272Q983 1272 943 1304T902 1405Z" />
<glyph unicode="&#x2013;" horiz-adv-x="1024" d="M82 496V726H942V496H82Z" />
<glyph unicode="&#x2014;" horiz-adv-x="2048" d="M82 496V726H1966V496H82Z" />
<glyph unicode="&#x2018;" horiz-adv-x="687" d="M159 1014Q173 1069 192 1129T235 1252T284 1376T335 1493H555Q540 1433 526 1367T498 1235T473 1107T454 992H174L159 1014Z" />
<glyph unicode="&#x2019;" horiz-adv-x="686" d="M576 1471Q562 1416 543 1356T500 1233T451 1109T400 992H181Q195 1052 209 1118T237 1250T262 1378T281 1493H561L576 1471Z" />
<glyph unicode="&#x201a;" horiz-adv-x="584" d="M459 215Q407 13 283 -264H63Q128 2 164 238H444L459 215Z" />
<glyph unicode="&#x201c;" horiz-adv-x="1153" d="M626 1014Q640 1069 659 1129T702 1252T751 1376T802 1493H1021Q1007 1433 993 1367T965 1235T940 1107T921 992H641L626 1014ZM159 1014Q173 1069 192 1129T235 1252T284 1376T335 1493H555Q540 1433 526 1367T498
1235T473 1107T454 992H174L159 1014Z" />
<glyph unicode="&#x201d;" horiz-adv-x="1153" d="M576 1471Q562 1416 543 1356T500 1233T451 1109T400 992H181Q195 1052 209 1118T237 1250T262 1378T281 1493H561L576 1471ZM1043 1471Q1029 1416 1010 1356T967 1233T918 1109T867 992H647Q662 1052 676 1118T704
1250T729 1378T748 1493H1028L1043 1471Z" />
<glyph unicode="&#x201e;" horiz-adv-x="1051" d="M459 215Q407 13 283 -264H63Q128 2 164 238H444L459 215ZM926 215Q874 13 750 -264H530Q595 2 631 238H911L926 215Z" />
<glyph unicode="&#x2022;" horiz-adv-x="770" d="M98 748Q98 902 172 983T385 1065Q522 1065 597 983T672 748Q672 596 597 513T385 430Q247 430 173 513T98 748Z" />
<glyph unicode="&#x2039;" horiz-adv-x="754" d="M82 573L453 1028L672 909L393 561L672 213L453 94L82 547V573Z" />
<glyph unicode="&#x203a;" horiz-adv-x="754" d="M672 547L301 94L82 213L360 561L82 909L301 1028L672 573V547Z" />
</font>
</defs>
</svg>
