<?xml version="1.0" standalone="no"?>
<!DOCTYPE svg PUBLIC "-//W3C//DTD SVG 1.1//EN" "http://www.w3.org/Graphics/SVG/1.1/DTD/svg11.dtd" >
<svg>
<metadata>
Created by FontForge 20090914 at Fri Jun 30 10:31:15 2017
 By www-data
Digitized data copyright 2012-2016, The Mozilla Foundation and Telefonica S.A.
</metadata>
<defs>
<font id="FiraSans-Regular" horiz-adv-x="560" >
  <font-face 
    font-family="Fira Sans"
    font-weight="400"
    font-stretch="normal"
    units-per-em="1000"
    panose-1="2 11 5 3 5 0 0 2 0 4"
    ascent="800"
    descent="-200"
    x-height="527"
    cap-height="689"
    bbox="-756 -353 1360 1104"
    underline-thickness="50"
    underline-position="-50"
    unicode-range="U+000D-U+FEFF"
  />
<missing-glyph horiz-adv-x="666" 
d="M543 1050v-1400h-420v1400h420zM489 998h-311v-1296h311v1296zM409.5 419c17 -21.333 25.4961 -49.002 25.4961 -83.002c0 -35.333 -7.5 -62.666 -22.5 -81.999s-39.167 -31.333 -72.5 -36v-45c0 -7.33301 -2.5 -13.166 -7.5 -17.499s-10.833 -6.5 -17.5 -6.5
s-12.5 2.16699 -17.5 6.5s-7.5 10.166 -7.5 17.499v84c35.333 2 59.333 8.5 72 19.5s19 30.167 19 57.5c0 22 -4.33301 39 -13 51s-24.667 18 -48 18c-19.333 0 -36.666 -3.66699 -51.999 -11c-5.33301 -2 -9.66602 -3 -12.999 -3c-7.33301 0 -13.166 2.16699 -17.499 6.5
s-6.5 9.83301 -6.5 16.5c0 12.667 9.83301 22.334 29.5 29.001s40.834 10 63.501 10c40 0 68.5 -10.667 85.5 -32zM339.996 109.998c6.66699 -6.66699 10 -15 10 -25c0 -10.667 -3.33301 -19.5 -10 -26.5s-15 -10.5 -25 -10.5s-18.333 3.5 -25 10.5s-10 15.833 -10 26.5
c0 10 3.33301 18.333 10 25s15 10 25 10s18.333 -3.33301 25 -10z" />
    <glyph glyph-name="fi" unicode="fi" horiz-adv-x="575" 
d="M352.5 741c23 -6 46.166 -14.999 69.499 -26.999l-32 -64c-34.667 16.667 -71.667 25 -111 25c-35.333 0 -59.666 -6.33301 -72.999 -19s-20 -32.334 -20 -59.001v-70h294v-527h-92v456h-202v-456h-92v456h-84v71h84v69c0 46.667 15 84 45 112s75.667 42 137 42
c28 0 53.5 -3 76.5 -9z" />
    <glyph glyph-name="fl" unicode="fl" horiz-adv-x="592" 
d="M572 6c-24.667 -12 -50.6689 -18 -78.002 -18c-34 0 -60 9.83301 -78 29.5s-27 48.5 -27 86.5v555c-20.667 6 -39.667 10.333 -57 13s-36.666 4 -57.999 4c-32.667 0 -55.5 -6 -68.5 -18s-19.5 -31.333 -19.5 -58v-73h128l-10 -71h-118v-456h-92v456h-84v71h84v72
c0 46 14.833 82.667 44.5 110s72.834 41 129.501 41c22.667 0 43.167 -1.66699 61.5 -5s38.5 -8.33301 60.5 -15l91 12v-636c0 -14 2.5 -24.5 7.5 -31.5s13.5 -10.5 25.5 -10.5c12.667 0 24 2 34 6z" />
    <glyph glyph-name=".notdef" horiz-adv-x="666" 
d="M543 1050v-1400h-420v1400h420zM489 998h-311v-1296h311v1296zM409.5 419c17 -21.333 25.4961 -49.002 25.4961 -83.002c0 -35.333 -7.5 -62.666 -22.5 -81.999s-39.167 -31.333 -72.5 -36v-45c0 -7.33301 -2.5 -13.166 -7.5 -17.499s-10.833 -6.5 -17.5 -6.5
s-12.5 2.16699 -17.5 6.5s-7.5 10.166 -7.5 17.499v84c35.333 2 59.333 8.5 72 19.5s19 30.167 19 57.5c0 22 -4.33301 39 -13 51s-24.667 18 -48 18c-19.333 0 -36.666 -3.66699 -51.999 -11c-5.33301 -2 -9.66602 -3 -12.999 -3c-7.33301 0 -13.166 2.16699 -17.499 6.5
s-6.5 9.83301 -6.5 16.5c0 12.667 9.83301 22.334 29.5 29.001s40.834 10 63.501 10c40 0 68.5 -10.667 85.5 -32zM339.996 109.998c6.66699 -6.66699 10 -15 10 -25c0 -10.667 -3.33301 -19.5 -10 -26.5s-15 -10.5 -25 -10.5s-18.333 3.5 -25 10.5s-10 15.833 -10 26.5
c0 10 3.33301 18.333 10 25s15 10 25 10s18.333 -3.33301 25 -10z" />
    <glyph glyph-name="nonmarkingreturn" unicode="&#xd;" horiz-adv-x="265" 
 />
    <glyph glyph-name="space" unicode=" " horiz-adv-x="265" 
 />
    <glyph glyph-name="exclam" unicode="!" horiz-adv-x="241" 
d="M170 689l-10 -459h-81l-11 459h102zM170 107c13.333 -13.333 20 -29.666 20 -48.999s-6.66699 -35.833 -20 -49.5s-30 -20.5 -50 -20.5c-19.333 0 -35.666 6.83301 -48.999 20.5s-20 30.167 -20 49.5s6.66699 35.666 20 48.999s29.666 20 48.999 20
c20 0 36.667 -6.66699 50 -20z" />
    <glyph glyph-name="quotedbl" unicode="&#x22;" horiz-adv-x="399" 
d="M75 427l-15 262h99l-15 -262h-69zM255 427l-15 262h99l-15 -262h-69z" />
    <glyph glyph-name="numbersign" unicode="#" horiz-adv-x="518" 
d="M503 447h-76l-28 -215h67v-69h-77l-21 -163h-78l21 163h-154l-21 -163h-78l21 163h-64v69h74l28 215h-65v70h74l20 152h78l-20 -152h154l20 152h78l-20 -152h67v-70zM321 232l28 215h-154l-28 -215h154z" />
    <glyph glyph-name="dollar" unicode="$" horiz-adv-x="531" 
d="M443 58c-32 -34.667 -76.332 -56.666 -132.999 -65.999v-147h-80v144c-82 4 -150.333 32.667 -205 86l54 59c48 -46.667 105.333 -70 172 -70c42 0 76.5 10.333 103.5 31s40.5 50 40.5 88c0 22 -4.16699 40.333 -12.5 55s-22.833 27.667 -43.5 39s-50.334 23 -89.001 35
c-68.667 21.333 -118.834 46.5 -150.501 75.5s-47.5 68.167 -47.5 117.5c0 46.667 16.333 85.667 49 117s75.667 50 129 56v146h80v-147c32 -3.33301 60.833 -11.166 86.5 -23.499s50.167 -29.5 73.5 -51.5l-53 -58c-22.667 21.333 -46.167 36.666 -70.5 45.999
s-50.833 14 -79.5 14c-35.333 0 -64.166 -8.16699 -86.499 -24.5s-33.5 -39.833 -33.5 -70.5c0 -19.333 4 -35.5 12 -48.5s22.333 -25 43 -36s51 -22.833 91 -35.5c42 -12.667 77 -26.667 105 -42s50.5 -36 67.5 -62s25.5 -59 25.5 -99c0 -50.667 -16 -93.334 -48 -128.001z
" />
    <glyph glyph-name="percent" unicode="%" horiz-adv-x="826" 
d="M613 711l64 -42l-463 -700l-64 42zM324.5 633c30.333 -30.667 45.5 -71.667 45.5 -123s-15.167 -92.333 -45.5 -123s-69.5 -46 -117.5 -46c-47.333 0 -86.166 15.333 -116.499 46s-45.5 71.667 -45.5 123s15.167 92.333 45.5 123s69.166 46 116.499 46
c48 0 87.167 -15.333 117.5 -46zM144.5 587c-12.333 -20 -18.5 -45.667 -18.5 -77c0 -30.667 6.16699 -56.167 18.5 -76.5s33.166 -30.5 62.499 -30.5c54 0 81 35.667 81 107c0 30.667 -6 56.167 -18 76.5s-33 30.5 -63 30.5c-29.333 0 -50.166 -10 -62.499 -30zM736 280
c30 -30.667 45 -71.667 45 -123s-15 -92.333 -45 -123s-69 -46 -117 -46s-87.167 15.333 -117.5 46s-45.5 71.667 -45.5 123s15.167 92.333 45.5 123s69.5 46 117.5 46s87 -15.333 117 -46zM556.5 233.5c-12.333 -19.667 -18.5 -45.167 -18.5 -76.5
c0 -30.667 6.16699 -56.167 18.5 -76.5s33.166 -30.5 62.499 -30.5c54 0 81 35.667 81 107c0 30.667 -6 56 -18 76s-33 30 -63 30c-29.333 0 -50.166 -9.83301 -62.499 -29.5z" />
    <glyph glyph-name="ampersand" unicode="&#x26;" horiz-adv-x="729" 
d="M397.5 681.5c27.667 -13 49.167 -31.166 64.5 -54.499s23 -49.333 23 -78c0 -39.333 -12.5 -73.166 -37.5 -101.499s-59.5 -55.5 -103.5 -81.5l176 -166c26.667 54 46.667 110.333 60 169l86 -25c-23.333 -77.333 -53 -143 -89 -197l112 -105l-66 -54l-97 94
c-28.667 -31.333 -61 -54.833 -97 -70.5s-77.333 -23.5 -124 -23.5c-44 0 -82.833 7.66699 -116.5 23s-60 37.166 -79 65.499s-28.5 61.166 -28.5 98.499c0 41.333 11.667 77.5 35 108.5s58 61.167 104 90.5c-33.333 32 -57.833 60.667 -73.5 86s-23.5 54 -23.5 86
c0 45.333 15.833 82.5 47.5 111.5s75.5 43.5 131.5 43.5c36 0 67.833 -6.5 95.5 -19.5zM237 609.001c-16 -16 -24 -36.667 -24 -62c0 -24 6.33301 -45.5 19 -64.5s32.667 -41.5 60 -67.5c34 20.667 59.667 41.167 77 61.5s26 42.833 26 67.5c0 28 -8.33301 49.833 -25 65.5
s-39 23.5 -67 23.5s-50 -8 -66 -24zM199 256.501c-16 -23 -23.998 -49.166 -23.998 -78.499c0 -36.667 12.833 -65.334 38.5 -86.001s59.5 -31 101.5 -31c31.333 0 59.666 6 84.999 18s49.666 30 72.999 54l-200 191c-33.333 -22 -58 -44.5 -74 -67.5z" />
    <glyph glyph-name="quotesingle" unicode="'" horiz-adv-x="219" 
d="M75 427l-15 262h99l-15 -262h-69z" />
    <glyph glyph-name="parenleft" unicode="(" horiz-adv-x="324" 
d="M284 805c-34.667 -51.333 -62.167 -97.166 -82.5 -137.499s-36.333 -86.166 -48 -137.499s-17.5 -111.333 -17.5 -180c0 -68 5.83301 -127.667 17.5 -179s27.667 -97.5 48 -138.5s47.833 -86.833 82.5 -137.5l-58 -40c-44 62.667 -77.833 114.167 -101.5 154.5
s-43.667 88.666 -60 144.999s-24.5 121.5 -24.5 195.5s8.16699 139.167 24.5 195.5s36.333 104.666 60 144.999s57.5 91.833 101.5 154.5z" />
    <glyph glyph-name="parenright" unicode=")" horiz-adv-x="324" 
d="M199.5 690.5c23.667 -40.333 43.667 -88.666 60 -144.999s24.5 -121.5 24.5 -195.5s-8.16699 -139.167 -24.5 -195.5s-36.333 -104.666 -60 -144.999s-57.5 -91.833 -101.5 -154.5l-58 40c34.667 50.667 62.167 96.5 82.5 137.5s36.333 87.167 48 138.5
s17.5 111 17.5 179c0 68.667 -5.83301 128.667 -17.5 180s-27.667 97.166 -48 137.499s-47.833 86.166 -82.5 137.499l58 40c44 -62.667 77.833 -114.167 101.5 -154.5z" />
    <glyph glyph-name="asterisk" unicode="*" horiz-adv-x="439" 
d="M419 561l-153 -33l104 -116l-72 -53l-79 134l-78 -134l-72 52l103 117l-152 33l27 82l142 -61l-15 157h90l-15 -158l142 63z" />
    <glyph glyph-name="plus" unicode="+" horiz-adv-x="499" 
d="M291 519v-150h146v-76h-146v-149h-84v149h-145v76h145v150h84z" />
    <glyph glyph-name="comma" unicode="," horiz-adv-x="240" 
d="M169 107c13.333 -13.333 20.001 -29.665 20.001 -48.998c0 -20.667 -6 -44.334 -18 -71.001l-67 -153h-66l40 166c-8.66699 6.66699 -15.5 15 -20.5 25s-7.5 21 -7.5 33c0 19.333 6.66699 35.666 20 48.999s29.666 20 48.999 20c20 0 36.667 -6.66699 50 -20z" />
    <glyph glyph-name="hyphen" unicode="-" horiz-adv-x="403" 
d="M60 274v78h283v-78h-283z" />
    <glyph glyph-name="period" unicode="." horiz-adv-x="240" 
d="M169 107c13.333 -13.333 20 -29.666 20 -48.999s-6.66699 -35.833 -20 -49.5s-30 -20.5 -50 -20.5c-19.333 0 -35.666 6.83301 -48.999 20.5s-20 30.167 -20 49.5s6.66699 35.666 20 48.999s29.666 20 48.999 20c20 0 36.667 -6.66699 50 -20z" />
    <glyph glyph-name="slash" unicode="/" horiz-adv-x="520" 
d="M337 807l78 -18l-231 -893l-79 19z" />
    <glyph glyph-name="zero" unicode="0" horiz-adv-x="558" 
d="M446.5 590.5c37.667 -59 56.5 -144.5 56.5 -256.5s-18.833 -197.667 -56.5 -257s-93.5 -89 -167.5 -89s-129.833 29.667 -167.5 89s-56.5 145 -56.5 257s18.833 197.5 56.5 256.5s93.5 88.5 167.5 88.5s129.833 -29.5 167.5 -88.5zM182.5 542
c-21 -42.667 -31.5 -112 -31.5 -208s10.5 -165.5 31.5 -208.5s53.167 -64.5 96.5 -64.5c42.667 0 74.667 21.5 96 64.5s32 112.5 32 208.5c0 95.333 -10.667 164.5 -32 207.5s-53.333 64.5 -96 64.5c-43.333 0 -75.5 -21.333 -96.5 -64z" />
    <glyph glyph-name="one" unicode="1" horiz-adv-x="433" 
d="M323 669v-669h-92v571l-156 -95l-40 65l207 128h81z" />
    <glyph glyph-name="two" unicode="2" horiz-adv-x="495" 
d="M333.5 655c30.333 -16 53.8359 -37.835 70.5029 -65.502s25 -58.834 25 -93.501c0 -40.667 -9.16699 -79.667 -27.5 -117s-46.5 -77.666 -84.5 -120.999s-95.667 -103.666 -173 -180.999h301l-11 -77h-395v73c89.333 92.667 152.666 160.5 189.999 203.5
s64 80.5 80 112.5s24 66.333 24 103c0 34.667 -10 61.834 -30 81.501s-46.667 29.5 -80 29.5c-27.333 0 -51.333 -5.66699 -72 -17s-42.667 -30 -66 -56l-60 48c27.333 34 57.666 59.333 90.999 76s70.666 25 111.999 25c40 0 75.167 -8 105.5 -24z" />
    <glyph glyph-name="three" unicode="3" horiz-adv-x="499" 
d="M331.5 656c29.667 -15.333 52.334 -36 68.001 -62s23.5 -54.333 23.5 -85c0 -40.667 -11.833 -74.167 -35.5 -100.5s-55.167 -44.166 -94.5 -53.499c44.667 -4 81 -20 109 -48s42 -66 42 -114c0 -38.667 -9.33301 -73.667 -28 -105s-45.334 -55.833 -80.001 -73.5
s-74.667 -26.5 -120 -26.5c-40.667 0 -78 7.5 -112 22.5s-63.667 37.5 -89 67.5l55 51c22 -22.667 44.5 -39.334 67.5 -50.001s48.167 -16 75.5 -16c42 0 75 11.833 99 35.5s36 55.5 36 95.5c0 44 -11.333 75 -34 93s-55.667 27 -99 27h-50l11 71h34
c34.667 0 63.5 10.333 86.5 31s34.5 49.667 34.5 87c0 31.333 -10 56.166 -30 74.499s-47 27.5 -81 27.5c-26 0 -49.833 -4.66699 -71.5 -14s-43.834 -24.666 -66.501 -45.999l-48 55c56.667 52.667 120.334 79 191.001 79c41.333 0 76.833 -7.66699 106.5 -23z" />
    <glyph glyph-name="four" unicode="4" horiz-adv-x="532" 
d="M502 238v-73h-87v-165h-89v165h-286v66l201 448l77 -32l-181 -409h190l8 180h80v-180h87z" />
    <glyph glyph-name="five" unicode="5" horiz-adv-x="501" 
d="M420 597l-261 -0.00195312v-197c34 17.333 69.667 26 107 26c57.333 0 103.333 -18.833 138 -56.5s52 -89.5 52 -155.5c0 -44 -9.66699 -83.167 -29 -117.5s-46.5 -61 -81.5 -80s-75.5 -28.5 -121.5 -28.5c-40.667 0 -77 7.16699 -109 21.5s-61.667 35.5 -89 63.5l54 53
c21.333 -21.333 43.333 -37.166 66 -47.499s48.334 -15.5 77.001 -15.5c42.667 0 76.167 13.333 100.5 40s36.5 64.334 36.5 113.001s-11 84 -33 106s-51.667 33 -89 33c-17.333 0 -33.333 -1.83301 -48 -5.5s-30.334 -9.5 -47.001 -17.5h-72v337h362z" />
    <glyph glyph-name="six" unicode="6" horiz-adv-x="533" 
d="M401 416c28 -16 50.3311 -40.001 66.998 -72.001s25 -71 25 -117c0 -47.333 -9.5 -89.166 -28.5 -125.499s-44.667 -64.333 -77 -84s-68.166 -29.5 -107.499 -29.5c-78 0 -135 28.833 -171 86.5s-54 137.5 -54 239.5c0 72.667 10.167 136.5 30.5 191.5
s49.5 97.667 87.5 128s83 45.5 135 45.5c50.667 0 96.667 -13.667 138 -41l-36 -61c-31.333 19.333 -65.666 29 -102.999 29c-48 0 -86 -23 -114 -69s-43.333 -107.667 -46 -185c41.333 58.667 95 88 161 88c34 0 65 -8 93 -24zM368.998 104.999
c20.667 29.333 30.999 69 30.999 119c0 95.333 -36 143 -108 143c-29.333 0 -56.333 -8.16699 -81 -24.5s-45.667 -38.833 -63 -67.5c2 -73.333 13.5 -127.333 34.5 -162s53.5 -52 97.5 -52c38.667 0 68.334 14.667 89.001 44z" />
    <glyph glyph-name="seven" unicode="7" horiz-adv-x="444" 
d="M414 669v-69l-250 -610l-84 28l241 576h-296v75h389z" />
    <glyph glyph-name="eight" unicode="8" horiz-adv-x="551" 
d="M506 179c0 -36.667 -9.83105 -69.501 -29.498 -98.501s-47.167 -51.667 -82.5 -68s-75.333 -24.5 -120 -24.5c-45.333 0 -85.333 8 -120 24s-61.5 38.333 -80.5 67s-28.5 61.334 -28.5 98.001c0 41.333 11.167 76 33.5 104s55.166 51.333 98.499 70
c-35.333 18 -61.5 39.833 -78.5 65.5s-25.5 55.834 -25.5 90.501c0 36 9.5 67 28.5 93s44 45.667 75 59s64.167 20 99.5 20c34.667 0 67.5 -6.33301 98.5 -19s56.167 -31.834 75.5 -57.501s29 -56.5 29 -92.5c0 -33.333 -9.33301 -62 -28 -86s-47.334 -45.667 -86.001 -65
c94 -38 141 -98 141 -180zM193.502 582.999c-20.333 -18 -30.5 -43.666 -30.5 -76.999c0 -32 9.83301 -56.333 29.5 -73s51.167 -32 94.5 -46l17 -6c30 17.333 51.667 35.666 65 54.999s20 43 20 71c0 31.333 -9.83301 56.333 -29.5 75s-47.5 28 -83.5 28
c-34.667 0 -62.167 -9 -82.5 -27zM373.502 93c24.333 21.333 36.501 49.668 36.501 85.001c0 24 -4.66699 44.167 -14 60.5s-24.333 30.666 -45 42.999s-49.667 24.833 -87 37.5l-25 9c-33.333 -16 -58 -36.167 -74 -60.5s-24 -54.5 -24 -90.5
c0 -36.667 12 -65.167 36 -85.5s56.667 -30.5 98 -30.5s74.166 10.667 98.499 32z" />
    <glyph glyph-name="nine" unicode="9" horiz-adv-x="525" 
d="M420 609.5c36.667 -46.333 55.0029 -109.83 55.0029 -190.497c0 -91.333 -12.333 -164.833 -37 -220.5s-62.334 -100 -113.001 -133s-119.334 -62.167 -206.001 -87.5l-21 69c89.333 25.333 157.833 59.666 205.5 102.999s73.167 101 76.5 173
c-15.333 -24 -36 -43.333 -62 -58s-55.333 -22 -88 -22c-34.667 0 -66 8.83301 -94 26.5s-50.167 42.667 -66.5 75s-24.5 70.166 -24.5 113.499c0 45.333 9.66699 84.666 29 117.999s45.166 58.833 77.499 76.5s68.166 26.5 107.499 26.5
c70.667 0 124.334 -23.167 161.001 -69.5zM382.003 398.003c1.33301 74 -7.83301 127.168 -27.5 159.501s-50.834 48.5 -93.501 48.5c-39.333 0 -69.666 -13 -90.999 -39s-32 -63 -32 -111c0 -46.667 10 -81.834 30 -105.501s47 -35.5 81 -35.5c52.667 0 97 27.667 133 83z
" />
    <glyph glyph-name="colon" unicode=":" horiz-adv-x="240" 
d="M169 107c13.333 -13.333 20 -29.666 20 -48.999s-6.66699 -35.833 -20 -49.5s-30 -20.5 -50 -20.5c-19.333 0 -35.666 6.83301 -48.999 20.5s-20 30.167 -20 49.5s6.66699 35.666 20 48.999s29.666 20 48.999 20c20 0 36.667 -6.66699 50 -20zM169 475
c13.333 -13.333 20 -29.666 20 -48.999s-6.66699 -35.833 -20 -49.5s-30 -20.5 -50 -20.5c-19.333 0 -35.666 6.83301 -48.999 20.5s-20 30.167 -20 49.5s6.66699 35.666 20 48.999s29.666 20 48.999 20c20 0 36.667 -6.66699 50 -20z" />
    <glyph glyph-name="semicolon" unicode=";" horiz-adv-x="240" 
d="M169 107c13.333 -13.333 20.001 -29.665 20.001 -48.998c0 -20.667 -6 -44.334 -18 -71.001l-67 -153h-66l40 166c-8.66699 6.66699 -15.5 15 -20.5 25s-7.5 21 -7.5 33c0 19.333 6.66699 35.666 20 48.999s29.666 20 48.999 20c20 0 36.667 -6.66699 50 -20z
M169.001 475.001c13.333 -13.333 20 -29.666 20 -48.999s-6.66699 -35.833 -20 -49.5s-30 -20.5 -50 -20.5c-19.333 0 -35.666 6.83301 -48.999 20.5s-20 30.167 -20 49.5s6.66699 35.666 20 48.999s29.666 20 48.999 20c20 0 36.667 -6.66699 50 -20z" />
    <glyph glyph-name="less" unicode="&#x3c;" horiz-adv-x="500" 
d="M417 551l33 -76l-327 -142l327 -144l-33 -74l-367 171v94z" />
    <glyph glyph-name="equal" unicode="=" horiz-adv-x="500" 
d="M62 389v77h376v-77h-376zM62 196v77h376v-77h-376z" />
    <glyph glyph-name="greater" unicode="&#x3e;" horiz-adv-x="500" 
d="M83 551l367 -171v-94l-367 -171l-33 74l327 144l-327 142z" />
    <glyph glyph-name="question" unicode="?" horiz-adv-x="459" 
d="M341.5 679.5c29 -14.333 50.832 -33.5029 65.499 -57.5029s22 -49.667 22 -77c0 -26 -4.5 -48.167 -13.5 -66.5s-19.833 -33.166 -32.5 -44.499s-29.667 -24.666 -51 -39.999c-28 -19.333 -49 -37.166 -63 -53.499s-21 -38.166 -21 -65.499v-45h-91v50
c0 28.667 4.83301 53 14.5 73s21.167 36 34.5 48s31 25.667 53 41c25.333 16.667 44 31.667 56 45s18 30.666 18 51.999c0 27.333 -9 48.5 -27 63.5s-42.667 22.5 -74 22.5c-53.333 0 -99.666 -24 -138.999 -72l-63 49c56 66 125.333 99 208 99
c40 0 74.5 -7.16699 103.5 -21.5zM254.999 106.997c13.333 -13.333 20 -29.666 20 -48.999s-6.66699 -35.833 -20 -49.5s-30 -20.5 -50 -20.5c-19.333 0 -35.666 6.83301 -48.999 20.5s-20 30.167 -20 49.5s6.66699 35.666 20 48.999s29.666 20 48.999 20
c20 0 36.667 -6.66699 50 -20z" />
    <glyph glyph-name="at" unicode="@" horiz-adv-x="1020" 
d="M756 647.5c64 -35.667 112.333 -83.502 145 -143.502s49 -125.667 49 -197c0 -86.667 -16.667 -158 -50 -214s-82.333 -84 -147 -84c-37.333 0 -66.5 10.333 -87.5 31s-34.5 44.667 -40.5 72c-12.667 -29.333 -30.834 -53.5 -54.501 -72.5s-53.5 -28.5 -89.5 -28.5
c-53.333 0 -95.5 20 -126.5 60s-46.5 93.333 -46.5 160c0 84 20 148.5 60 193.5s92.667 67.5 158 67.5c28 0 54.333 -3 79 -9s50.667 -16.333 78 -31v-259c0 -41.333 5.66699 -70.5 17 -87.5s28.333 -25.5 51 -25.5c70.667 0 106 75 106 225c0 64.667 -12.667 121 -38 169
s-62.666 85.167 -111.999 111.5s-109.666 39.5 -180.999 39.5c-73.333 0 -137.5 -16.5 -192.5 -49.5s-97.167 -78.667 -126.5 -137s-44 -124.5 -44 -198.5s14.167 -139.5 42.5 -196.5s69.833 -101.333 124.5 -133s120 -47.5 196 -47.5c63.333 0 127.333 11.333 192 34
l25 -71c-37.333 -13.333 -72.5 -23.166 -105.5 -29.499s-70.5 -9.5 -112.5 -9.5c-89.333 0 -168.333 18.5 -237 55.5s-122.167 89.833 -160.5 158.5s-57.5 148.334 -57.5 239.001c0 86.667 19.167 165 57.5 235s92.166 125.167 161.499 165.5s148.333 60.5 237 60.5
c89.333 0 166 -17.833 230 -53.5zM600 163.998v247c-22 10 -45.667 15 -71 15c-87.333 0 -131 -65 -131 -195c0 -50 8 -88 24 -114s39.333 -39 70 -39c50 0 86 28.667 108 86z" />
    <glyph glyph-name="A" unicode="A" horiz-adv-x="573" 
d="M467 0l-52 173h-261l-52 -173h-96l221 689h120l220 -689h-100zM177 250h215l-107 360z" />
    <glyph glyph-name="B" unicode="B" horiz-adv-x="608" 
d="M519 314c29.333 -25.333 44.002 -64.666 44.002 -117.999c0 -130.667 -91 -196 -273 -196h-190v689h163c87.333 0 154.166 -14.333 200.499 -43s69.5 -72.334 69.5 -131.001c0 -40 -12.5 -73.333 -37.5 -100s-55.5 -43.667 -91.5 -51
c47.333 -8 85.666 -24.667 114.999 -50zM195.002 614v-216.999h104c40 0 72.833 9.66699 98.5 29s38.5 46.666 38.5 81.999c0 40 -13.5 67.667 -40.5 83s-67.833 23 -122.5 23h-78zM418.502 101.001c29.667 16.667 44.5 48.333 44.5 95c0 45.333 -14.333 78 -43 98
s-66 30 -112 30h-113v-248h95c56 0 98.833 8.33301 128.5 25z" />
    <glyph glyph-name="C" unicode="C" 
d="M445.5 685c28.333 -10.667 57.168 -28.001 86.501 -52.001l-52 -61c-42 34 -86.333 51 -133 51c-57.333 0 -103.5 -22 -138.5 -66s-52.5 -114.667 -52.5 -212c0 -94.667 17.333 -164.5 52 -209.5s80.667 -67.5 138 -67.5c29.333 0 55 5 77 15s45.333 24 70 42l47 -60
c-21.333 -22 -48.666 -40.333 -81.999 -55s-71.666 -22 -114.999 -22c-56 0 -105.833 13.833 -149.5 41.5s-77.667 68.334 -102 122.001s-36.5 118.167 -36.5 193.5s12.667 139.833 38 193.5s59.666 94.167 102.999 121.5s91.666 41 144.999 41
c41.333 0 76.166 -5.33301 104.499 -16z" />
    <glyph glyph-name="D" unicode="D" horiz-adv-x="644" 
d="M494.5 616.5c63 -48.333 94.5 -137.834 94.5 -268.501c0 -127.333 -31.5 -217.166 -94.5 -269.499s-139.5 -78.5 -229.5 -78.5h-165v689h144c104 0 187.5 -24.167 250.5 -72.5zM195 612.999v-537.999h77c64 0 116 19.667 156 59s60 110.666 60 213.999
c0 72.667 -10.333 128.5 -31 167.5s-47 65 -79 78s-69.667 19.5 -113 19.5h-70z" />
    <glyph glyph-name="E" unicode="E" horiz-adv-x="535" 
d="M473 689l-11 -76h-267v-225h232v-76h-232v-236h286v-76h-381v689h373z" />
    <glyph glyph-name="F" unicode="F" horiz-adv-x="491" 
d="M100 0v689h366l-11 -76h-260v-235h225v-75h-225v-303h-95z" />
    <glyph glyph-name="G" unicode="G" horiz-adv-x="631" 
d="M466.5 682.5c31.667 -12.333 63.1689 -31.502 94.502 -57.502l-56 -58c-24.667 20 -48.334 34.333 -71.001 43s-49.334 13 -80.001 13c-35.333 0 -67.833 -9.5 -97.5 -28.5s-53.834 -49.333 -72.501 -91s-28 -94.5 -28 -158.5c0 -96.667 15.833 -167.334 47.5 -212.001
s78.5 -67 140.5 -67c50.667 0 94.334 10.333 131.001 31v208h-122l-11 77h227v-333c-71.333 -40.667 -146.333 -61 -225 -61c-90.667 0 -161.5 30.333 -212.5 91s-76.5 149.334 -76.5 266.001c0 74.667 13.5 138.834 40.5 192.501s63.333 94.334 109 122.001
s95.5 41.5 149.5 41.5c43.333 0 80.833 -6.16699 112.5 -18.5z" />
    <glyph glyph-name="H" unicode="H" horiz-adv-x="680" 
d="M485 0v323h-290v-323h-95v689h95v-288h290v288h95v-689h-95z" />
    <glyph glyph-name="I" unicode="I" horiz-adv-x="295" 
d="M195 689v-689h-95v689h95z" />
    <glyph glyph-name="J" unicode="J" horiz-adv-x="305" 
d="M210 96c0 -68 -14.832 -119 -44.499 -153s-74.834 -60.667 -135.501 -80l-25 69c30.667 12 53.667 25 69 39s26 31 32 51s9 46 9 78v589h95v-593z" />
    <glyph glyph-name="K" unicode="K" horiz-adv-x="589" 
d="M195 689v-689h-95v689h95zM570 689l-261 -315l280 -374h-117l-272 368l262 321h108z" />
    <glyph glyph-name="L" unicode="L" horiz-adv-x="498" 
d="M195 689v-606h283l-11 -83h-367v689h95z" />
    <glyph glyph-name="M" unicode="M" horiz-adv-x="778" 
d="M716 0l-92 -0.000976562l-24 311c-10 122 -15.667 215.667 -17 281l-149 -514h-89l-157 515c0 -83.333 -4.33301 -179.666 -13 -288.999l-23 -304h-90l57 689h128l145 -501l138 501h129z" />
    <glyph glyph-name="N" unicode="N" horiz-adv-x="683" 
d="M583 0l-127 0.000976562l-280 585c4 -46 7.16699 -88.5 9.5 -127.5s3.5 -86.167 3.5 -141.5v-316h-89v689h124l283 -586c-2 17.333 -4.66699 47.666 -8 90.999s-5 83 -5 119v376h89v-689z" />
    <glyph glyph-name="O" unicode="O" horiz-adv-x="692" 
d="M498.5 659.5c43.667 -27.667 77.667 -68.165 102 -121.498s36.5 -118 36.5 -194c0 -74.667 -12.167 -138.667 -36.5 -192s-58.333 -94 -102 -122s-94.5 -42 -152.5 -42s-108.833 13.667 -152.5 41s-77.667 67.666 -102 120.999s-36.5 117.666 -36.5 192.999
c0 74 12.167 138 36.5 192s58.5 95.167 102.5 123.5s94.667 42.5 152 42.5c58 0 108.833 -13.833 152.5 -41.5zM206 555.002c-33.333 -45.333 -50 -116 -50 -212c0 -95.333 16.833 -165.333 50.5 -210s80.167 -67 139.5 -67c126.667 0 190 92.667 190 278
c0 186 -63.333 279 -190 279c-60 0 -106.667 -22.667 -140 -68z" />
    <glyph glyph-name="P" unicode="P" horiz-adv-x="581" 
d="M479 635.5c46.667 -35.667 70.001 -88.833 70.001 -159.5c0 -75.333 -24.333 -131.333 -73 -168s-113.334 -55 -194.001 -55h-87v-253h-95v689h181c85.333 0 151.333 -17.833 198 -53.5zM404.501 360.001c29 21.333 43.5 59.667 43.5 115c0 49.333 -14.5 85 -43.5 107
s-70.5 33 -124.5 33h-85v-287h83c55.333 0 97.5 10.667 126.5 32z" />
    <glyph glyph-name="Q" unicode="Q" horiz-adv-x="691" 
d="M579 22.5c30 -11 58.998 -26.165 86.998 -45.498l-62 -80c-40 35.333 -78 59.666 -114 72.999s-84.667 20 -146 20c-57.333 0 -107.666 13.5 -150.999 40.5s-77.166 67 -101.499 120s-36.5 117.167 -36.5 192.5c0 74 12.167 138 36.5 192s58.5 95.167 102.5 123.5
s94.667 42.5 152 42.5c58 0 108.833 -13.833 152.5 -41.5s77.667 -68.167 102 -121.5s36.5 -118 36.5 -194c0 -80.667 -13.333 -144.834 -40 -192.501s-66 -85.167 -118 -112.5c36.667 0 70 -5.5 100 -16.5zM206.498 133.002c33.667 -44.667 80.167 -67 139.5 -67
c126.667 0 190 92.667 190 278c0 186 -63.333 279 -190 279c-60 0 -106.667 -22.667 -140 -68s-50 -116 -50 -212c0 -95.333 16.833 -165.333 50.5 -210z" />
    <glyph glyph-name="R" unicode="R" horiz-adv-x="605" 
d="M302 292l-107 0.000976562v-292h-95v689h181c86 0 151.167 -16.333 195.5 -49s66.5 -81.334 66.5 -146.001c0 -48 -12.333 -87 -37 -117s-62 -52.667 -112 -68l186 -309h-113zM291 365.001c50 0 87.668 10.168 113.001 30.501s38 53.166 38 98.499
c0 42.667 -12.833 73.5 -38.5 92.5s-66.834 28.5 -123.501 28.5h-85v-250h96z" />
    <glyph glyph-name="S" unicode="S" horiz-adv-x="545" 
d="M388 681.5c32.667 -13 64.333 -33.167 95 -60.5l-52 -58c-26 20.667 -51.5 35.834 -76.5 45.501s-51.833 14.5 -80.5 14.5c-36 0 -65.667 -8.33301 -89 -25s-35 -41 -35 -73c0 -20 4 -36.833 12 -50.5s22.833 -26.167 44.5 -37.5s53.167 -23.333 94.5 -36
c43.333 -13.333 79.333 -27.666 108 -42.999s51.834 -36.5 69.501 -63.5s26.5 -61.167 26.5 -102.5c0 -40 -9.83301 -75.333 -29.5 -106s-48 -54.667 -85 -72s-80.833 -26 -131.5 -26c-95.333 0 -173.333 29.667 -234 89l52 58c28 -22.667 56.333 -39.834 85 -51.501
s60.667 -17.5 96 -17.5c42.667 0 78 10.5 106 31.5s42 51.5 42 91.5c0 22.667 -4.33301 41.5 -13 56.5s-23.5 28.5 -44.5 40.5s-51.5 24 -91.5 36c-70.667 21.333 -122.334 47 -155.001 77s-49 70.667 -49 122c0 34.667 9.16699 65.667 27.5 93s44 48.666 77 63.999
s70.5 23 112.5 23c46 0 85.333 -6.5 118 -19.5z" />
    <glyph glyph-name="T" unicode="T" horiz-adv-x="517" 
d="M507 689l-10 -81h-191v-608h-95v608h-196v81h492z" />
    <glyph glyph-name="U" unicode="U" horiz-adv-x="662" 
d="M572 221c0 -46 -9.49902 -86.5 -28.499 -121.5s-46.667 -62.333 -83 -82s-79.833 -29.5 -130.5 -29.5c-76.667 0 -135.834 21.167 -177.501 63.5s-62.5 98.833 -62.5 169.5v468h95v-461c0 -53.333 12 -93.333 36 -120s60.333 -40 109 -40c49.333 0 86 13.167 110 39.5
s36 66.5 36 120.5v461h96v-468z" />
    <glyph glyph-name="V" unicode="V" horiz-adv-x="556" 
d="M550 689l-220 -689h-102l-222 689h102l173 -586l173 586h96z" />
    <glyph glyph-name="W" unicode="W" horiz-adv-x="826" 
d="M801 689l-140 -689h-122l-127 577l-128 -577h-119l-140 689h93l111 -606l133 606h101l136 -606l115 606h87z" />
    <glyph glyph-name="X" unicode="X" horiz-adv-x="540" 
d="M325 372l210 -372h-108l-159 305l-161 -305h-102l207 367l-189 322h108l139 -259l140 259h102z" />
    <glyph glyph-name="Y" unicode="Y" horiz-adv-x="550" 
d="M545 689l-222 -424v-265h-96v264l-222 425h105l168 -341l168 341h99z" />
    <glyph glyph-name="Z" unicode="Z" horiz-adv-x="522" 
d="M477 689v-77l-341 -531h341l-11 -81h-436v76l344 533h-308v80h411z" />
    <glyph glyph-name="bracketleft" unicode="[" horiz-adv-x="322" 
d="M272 816v-77h-120v-779h120v-76h-207v932h207z" />
    <glyph glyph-name="backslash" unicode="\" horiz-adv-x="520" 
d="M183 807l232 -892l-79 -19l-231 893z" />
    <glyph glyph-name="bracketright" unicode="]" horiz-adv-x="322" 
d="M257 816v-932h-207v76h120v779h-120v77h207z" />
    <glyph glyph-name="asciicircum" unicode="^" horiz-adv-x="540" 
d="M311 840l189 -313h-98l-133 233l-132 -233h-97l189 313h82z" />
    <glyph glyph-name="underscore" unicode="_" horiz-adv-x="520" 
d="M17 -142v79h486v-79h-486z" />
    <glyph glyph-name="grave" unicode="`" horiz-adv-x="300" 
d="M71 801l199 -114l-28 -49l-212 86z" />
    <glyph glyph-name="a" unicode="a" horiz-adv-x="544" 
d="M461 75.5c7.33301 -10.333 18.332 -18.167 32.999 -23.5l-21 -64c-27.333 3.33301 -49.333 11 -66 23s-29 30.667 -37 56c-35.333 -52.667 -87.666 -79 -156.999 -79c-52 0 -93 14.667 -123 44s-45 67.666 -45 114.999c0 56 20.167 99 60.5 129s97.5 45 171.5 45h81v39
c0 37.333 -9 64 -27 80s-45.667 24 -83 24c-38.667 0 -86 -9.33301 -142 -28l-23 67c65.333 24 126 36 182 36c62 0 108.333 -15.167 139 -45.5s46 -73.5 46 -129.5v-241c0 -21.333 3.66699 -37.166 11 -47.499zM357.999 138.999v121h-69c-97.333 0 -146 -36 -146 -108
c0 -31.333 7.66699 -55 23 -71s38 -24 68 -24c52.667 0 94 27.333 124 82z" />
    <glyph glyph-name="b" unicode="b" horiz-adv-x="594" 
d="M479 466.5c35.333 -48.333 53 -115.832 53 -202.499c0 -54.667 -8.33301 -102.834 -25 -144.501s-40.667 -74 -72 -97s-68 -34.5 -110 -34.5c-55.333 0 -102 23.333 -140 70l-9 -58h-81v739l92 11v-289c38 52 87.667 78 149 78c60 0 107.667 -24.167 143 -72.5z
M398.5 110.501c23 33 34.499 84.167 34.499 153.5c0 71.333 -10.667 122.833 -32 154.5s-51.666 47.5 -90.999 47.5c-46.667 0 -87.667 -27.333 -123 -82v-252c14 -22 31.167 -39.333 51.5 -52s41.833 -19 64.5 -19c40.667 0 72.5 16.5 95.5 49.5z" />
    <glyph glyph-name="c" unicode="c" horiz-adv-x="478" 
d="M373 525.5c26 -9 51.0049 -23.498 75.0049 -43.498l-44 -58c-18.667 13.333 -36.834 23.166 -54.501 29.499s-37.167 9.5 -58.5 9.5c-42.667 0 -75.834 -17 -99.501 -51s-35.5 -84.333 -35.5 -151s11.667 -115.834 35 -147.501s56.666 -47.5 99.999 -47.5
c20.667 0 39.667 3.16699 57 9.5s36.666 16.5 57.999 30.5l42 -60c-48 -38.667 -101.667 -58 -161 -58c-71.333 0 -127.5 24 -168.5 72s-61.5 114.333 -61.5 199c0 56 9.33301 105 28 147s45.167 74.667 79.5 98s75.166 35 122.499 35c31.333 0 60 -4.5 86 -13.5z" />
    <glyph glyph-name="d" unicode="d" horiz-adv-x="598" 
d="M503 739v-738.999h-81l-9 73c-17.333 -26.667 -39 -47.5 -65 -62.5s-55 -22.5 -87 -22.5c-62.667 0 -111.5 24.667 -146.5 74s-52.5 115.666 -52.5 198.999c0 54 8.33301 102 25 144s40.667 74.833 72 98.5s68 35.5 110 35.5c54 0 101.333 -21.667 142 -65v276z
M353 80.501c20 13 39.333 32.499 58 58.499v258c-17.333 22.667 -35.833 39.834 -55.5 51.501s-41.834 17.5 -66.501 17.5c-40.667 0 -72.167 -17 -94.5 -51s-33.5 -84.667 -33.5 -152c0 -68 10.333 -118.667 31 -152s50.334 -50 89.001 -50c28 0 52 6.5 72 19.5z" />
    <glyph glyph-name="e" unicode="e" horiz-adv-x="545" 
d="M491 232h-335.998c4 -58 18.667 -100.667 44 -128s58 -41 98 -41c25.333 0 48.666 3.66699 69.999 11s43.666 19 66.999 35l40 -55c-56 -44 -117.333 -66 -184 -66c-73.333 0 -130.5 24 -171.5 72s-61.5 114 -61.5 198c0 54.667 8.83301 103.167 26.5 145.5
s43 75.5 76 99.5s71.833 36 116.5 36c70 0 123.667 -23 161 -69s56 -109.667 56 -191c0 -15.333 -0.666992 -31 -2 -47zM402.002 306c0 52 -10.333 91.667 -31 119s-51.667 41 -93 41c-75.333 0 -116.333 -55.333 -123 -166h247v6z" />
    <glyph glyph-name="f" unicode="f" horiz-adv-x="335" 
d="M214 657.5c-12 -12.333 -18 -31.501 -18 -57.501v-73h128l-10 -71h-118v-456h-92v456h-94v71h94v72c0 45.333 14.5 81.833 43.5 109.5s69.5 41.5 121.5 41.5c24 0 45.5 -2.16699 64.5 -6.5s39.5 -11.166 61.5 -20.499l-29 -67c-30 13.333 -60.667 20 -92 20
c-28 0 -48 -6.16699 -60 -18.5z" />
    <glyph glyph-name="g" unicode="g" horiz-adv-x="520" 
d="M520 503c-20 -6.66699 -41.999 -11.0029 -65.999 -13.0029s-53.333 -3 -88 -3c62 -28 93 -72.333 93 -133c0 -52.667 -18 -95.667 -54 -129s-85 -50 -147 -50c-24 0 -46.333 3.33301 -67 10c-8 -5.33301 -14.333 -12.5 -19 -21.5s-7 -18.167 -7 -27.5
c0 -28.667 23 -43 69 -43h84c35.333 0 66.666 -6.33301 93.999 -19s48.5 -30 63.5 -52s22.5 -47 22.5 -75c0 -51.333 -21 -90.833 -63 -118.5s-103.333 -41.5 -184 -41.5c-56.667 0 -101.5 5.83301 -134.5 17.5s-56.5 29.167 -70.5 52.5s-21 53.333 -21 90h83
c0 -21.333 4 -38.166 12 -50.499s22.333 -21.666 43 -27.999s50 -9.5 88 -9.5c55.333 0 94.833 6.83301 118.5 20.5s35.5 34.167 35.5 61.5c0 24.667 -9.33301 43.334 -28 56.001s-44.667 19 -78 19h-83c-44.667 0 -78.5 9.5 -101.5 28.5s-34.5 42.833 -34.5 71.5
c0 17.333 5 34 15 50s24.333 30.333 43 43c-30.667 16 -53.167 35.833 -67.5 59.5s-21.5 52.5 -21.5 86.5c0 35.333 8.83301 67 26.5 95s42 49.833 73 65.5s65.5 23.5 103.5 23.5c41.333 -0.666992 76 0.833008 104 4.5s51.167 8.66699 69.5 15s40.833 15.5 67.5 27.5z
M171.501 440.497c-19 -21.667 -28.499 -50.167 -28.499 -85.5c0 -36 9.66699 -64.833 29 -86.5s46.666 -32.5 81.999 -32.5c36 0 63.5 10.5 82.5 31.5s28.5 50.5 28.5 88.5c0 78 -37.667 117 -113 117c-34.667 0 -61.5 -10.833 -80.5 -32.5z" />
    <glyph glyph-name="h" unicode="h" horiz-adv-x="586" 
d="M455.5 496c27 -28.667 40.498 -67.999 40.498 -117.999v-378h-92v365c0 37.333 -7.16699 63.666 -21.5 78.999s-35.166 23 -62.499 23s-51.666 -8 -72.999 -24s-41.333 -38.667 -60 -68v-375h-92v738l92 10v-294c41.333 56.667 93.333 85 156 85
c48 0 85.5 -14.333 112.5 -43z" />
    <glyph glyph-name="i" unicode="i" horiz-adv-x="282" 
d="M187 527v-527h-92v527h92zM187 762c12 -12 18 -27 18 -45s-6 -32.833 -18 -44.5s-27.667 -17.5 -47 -17.5c-18.667 0 -34 5.83301 -46 17.5s-18 26.5 -18 44.5s6 33 18 45s27.333 18 46 18c19.333 0 35 -6 47 -18z" />
    <glyph glyph-name="j" unicode="j" horiz-adv-x="280" 
d="M185 32c0 -48.667 -6 -87.668 -18 -117.001s-29.5 -53.166 -52.5 -71.499s-55.167 -36.833 -96.5 -55.5l-27 67c26 12 46 23.833 60 35.5s24.5 28 31.5 49s10.5 49.833 10.5 86.5v501h92v-495zM186 761.999c12 -12 18 -27 18 -45s-6 -32.833 -18 -44.5
s-27.667 -17.5 -47 -17.5c-18.667 0 -34 5.83301 -46 17.5s-18 26.5 -18 44.5s6 33 18 45s27.333 18 46 18c19.333 0 35 -6 47 -18z" />
    <glyph glyph-name="k" unicode="k" horiz-adv-x="512" 
d="M187 750v-750h-92v739zM490 527l-194 -233l216 -294h-110l-209 288l194 239h103z" />
    <glyph glyph-name="l" unicode="l" horiz-adv-x="293" 
d="M119.5 18.5c-19.667 20.333 -29.5 48.834 -29.5 85.501v635l92 11v-644c0 -14.667 2.5 -25.334 7.5 -32.001s13.5 -10 25.5 -10c12.667 0 24 2 34 6l24 -64c-22 -12 -46.333 -18 -73 -18c-34 0 -60.833 10.167 -80.5 30.5z" />
    <glyph glyph-name="m" unicode="m" horiz-adv-x="857" 
d="M728 495.5c26 -29 39 -68.168 39 -117.501v-378h-92v365c0 68 -24.667 102 -74 102c-26 0 -48 -7.5 -66 -22.5s-37.333 -38.5 -58 -70.5v-374h-92v365c0 68 -24.667 102 -74 102c-26.667 0 -49 -7.66699 -67 -23s-37 -38.666 -57 -69.999v-374h-92v527h79l8 -77
c39.333 59.333 90 89 152 89c32.667 0 60.5 -8.33301 83.5 -25s39.5 -40 49.5 -70c20.667 30.667 43.5 54.167 68.5 70.5s54.5 24.5 88.5 24.5c43.333 0 78 -14.5 104 -43.5z" />
    <glyph glyph-name="n" unicode="n" horiz-adv-x="586" 
d="M455.5 496c27 -28.667 40.499 -67.999 40.499 -117.999v-378h-92v365c0 37.333 -7 63.666 -21 78.999s-34.667 23 -62 23c-28 0 -52.667 -8 -74 -24s-41.333 -39 -60 -69v-374h-92v527h79l8 -78c18.667 28 41.834 50 69.501 66s58.167 24 91.5 24
c48 0 85.5 -14.333 112.5 -43z" />
    <glyph glyph-name="o" unicode="o" horiz-adv-x="584" 
d="M465.5 465c41 -49.333 61.501 -116.333 61.501 -201c0 -54.667 -9.33301 -102.834 -28 -144.501s-45.667 -74 -81 -97s-77.333 -34.5 -126 -34.5c-74 0 -131.667 24.667 -173 74s-62 116.333 -62 201c0 54.667 9.33301 102.834 28 144.501s45.667 74 81 97
s77.666 34.5 126.999 34.5c74 0 131.5 -24.667 172.5 -74zM156.001 263c0 -134 45.333 -201 136 -201s136 67.333 136 202c0 134 -45 201 -135 201c-91.333 0 -137 -67.333 -137 -202z" />
    <glyph glyph-name="p" unicode="p" horiz-adv-x="594" 
d="M485 467c31.333 -48 47.002 -115.666 47.002 -202.999c0 -82.667 -18 -149.334 -54 -200.001s-87 -76 -153 -76c-58.667 0 -104.667 20 -138 60v-250l-92 -11v740h79l7 -71c19.333 26.667 42.666 47.167 69.999 61.5s56 21.5 86 21.5c67.333 0 116.666 -24 147.999 -72z
M433.002 264.001c0 134.667 -39.667 202 -119 202c-26 0 -49.667 -7.66699 -71 -23s-40 -35 -56 -59v-257c13.333 -20.667 30 -36.5 50 -47.5s42 -16.5 66 -16.5c86.667 0 130 67 130 201z" />
    <glyph glyph-name="q" unicode="q" horiz-adv-x="598" 
d="M503 527v-739.999l-92 11v272c-17.333 -26 -38.833 -46.167 -64.5 -60.5s-54.167 -21.5 -85.5 -21.5c-62.667 0 -111.5 24.667 -146.5 74s-52.5 115.666 -52.5 198.999c0 54 8.33301 102 25 144s40.667 74.833 72 98.5s68 35.5 110 35.5c56 0 105.333 -23.667 148 -71
l7 59h79zM353 80.501c20 13 39.333 32.499 58 58.499v258c-17.333 22.667 -35.833 39.834 -55.5 51.501s-41.834 17.5 -66.501 17.5c-40.667 0 -72.167 -17 -94.5 -51s-33.5 -84.667 -33.5 -152c0 -68 10.333 -118.667 31 -152s50.334 -50 89.001 -50c28 0 52 6.5 72 19.5z
" />
    <glyph glyph-name="r" unicode="r" horiz-adv-x="386" 
d="M376 533l-17 -90c-16 4 -31.333 6 -46 6c-32.667 0 -59 -12 -79 -36s-35.667 -61.333 -47 -112v-301h-92v527h79l9 -107c14 39.333 33 69 57 89s52 30 84 30c18.667 0 36 -2 52 -6z" />
    <glyph glyph-name="s" unicode="s" horiz-adv-x="467" 
d="M335 524c28.667 -10 56 -24.998 82 -44.998l-39 -58c-24 15.333 -46.833 26.666 -68.5 33.999s-44.5 11 -68.5 11c-30 0 -53.667 -6.16699 -71 -18.5s-26 -29.166 -26 -50.499s8.16699 -38 24.5 -50s45.833 -23.667 88.5 -35c58.667 -14.667 102.5 -34.667 131.5 -60
s43.5 -60 43.5 -104c0 -52 -20.167 -91.667 -60.5 -119s-89.5 -41 -147.5 -41c-80 0 -146.333 23 -199 69l49 56c44.667 -34 94 -51 148 -51c34.667 0 62.167 7.16699 82.5 21.5s30.5 33.833 30.5 58.5c0 18 -3.66699 32.5 -11 43.5s-20 20.667 -38 29
s-44.333 17.166 -79 26.499c-56 14.667 -96.5 34.334 -121.5 59.001s-37.5 56 -37.5 94c0 27.333 8.16699 52.166 24.5 74.499s39 39.666 68 51.999s61.5 18.5 97.5 18.5s68.333 -5 97 -15z" />
    <glyph glyph-name="t" unicode="t" horiz-adv-x="361" 
d="M361 24c-34.667 -24 -74.001 -36.002 -118.001 -36.002c-44.667 0 -79.5 12.833 -104.5 38.5s-37.5 62.834 -37.5 111.501v318h-92v71h92v119l92 11v-130h125l-10 -71h-115v-314c0 -27.333 4.83301 -47.166 14.5 -59.499s25.834 -18.5 48.501 -18.5c20.667 0 44 7 70 21z
" />
    <glyph glyph-name="u" unicode="u" horiz-adv-x="582" 
d="M487 0h-79.001l-7 82c-20 -32.667 -43 -56.5 -69 -71.5s-57.667 -22.5 -95 -22.5c-46 0 -82 14 -108 42s-39 67.667 -39 119v378h92v-368c0 -36 6.33301 -61.5 19 -76.5s33.334 -22.5 62.001 -22.5c51.333 0 95.333 30.333 132 91v376h92v-527z" />
    <glyph glyph-name="v" unicode="v" horiz-adv-x="492" 
d="M482 527l-179 -527h-111l-182 527h100l138 -445l137 445h97z" />
    <glyph glyph-name="w" unicode="w" horiz-adv-x="717" 
d="M697 527l-120 -527h-125l-92 444l-95 -444h-122l-123 527h92l95 -463l104 463h103l99 -463l96 463h88z" />
    <glyph glyph-name="x" unicode="x" horiz-adv-x="485" 
d="M297 282l183 -282h-111l-129 223l-131 -223h-104l184 278l-163 249h108l110 -193l111 193h104z" />
    <glyph glyph-name="y" unicode="y" horiz-adv-x="492" 
d="M306 -3c-20.667 -61.333 -49.501 -109.833 -86.501 -145.5s-89.833 -57.167 -158.5 -64.5l-10 72c34.667 6 62.334 14.667 83.001 26s37.167 25.833 49.5 43.5s23.833 41.5 34.5 71.5h-31l-177 527h98l141 -460l138 460h95z" />
    <glyph glyph-name="z" unicode="z" horiz-adv-x="437" 
d="M404 527v-70l-275 -380h278l-11 -77h-371v69l274 380h-251v78h356z" />
    <glyph glyph-name="braceleft" unicode="{" horiz-adv-x="322" 
d="M277 765c-34 0 -58.334 -5.16699 -73.001 -15.5s-22 -27.833 -22 -52.5v-239c0 -34 -6 -58.5 -18 -73.5s-31 -26.833 -57 -35.5c26.667 -9.33301 45.834 -21 57.501 -35s17.5 -38 17.5 -72v-239c0 -24.667 7.33301 -42.167 22 -52.5s39 -15.5 73 -15.5v-71
c-66.667 0 -113.667 11.5 -141 34.5s-41 61.167 -41 114.5v222c0 28 -5.16699 47.667 -15.5 59s-28.5 17 -54.5 17v76c26 0 44.167 6 54.5 18s15.5 32 15.5 60v222c0 53.333 13.667 91.5 41 114.5s74.333 34.5 141 34.5v-71z" />
    <glyph glyph-name="bar" unicode="|" horiz-adv-x="403" 
d="M243 807v-909h-83v909h83z" />
    <glyph glyph-name="braceright" unicode="}" horiz-adv-x="322" 
d="M186 801.5c27.333 -23 40.999 -61.167 40.999 -114.5v-222c0 -28 5.16699 -48 15.5 -60s28.5 -18 54.5 -18v-76c-26 0 -44.167 -5.66699 -54.5 -17s-15.5 -31 -15.5 -59v-222c0 -53.333 -13.667 -91.5 -41 -114.5s-74.333 -34.5 -141 -34.5v71
c34 0 58.333 5.16699 73 15.5s22 27.833 22 52.5v239c0 34 5.83301 58 17.5 72s30.834 25.667 57.501 35c-26 8.66699 -45 20.5 -57 35.5s-18 39.5 -18 73.5v239c0 24.667 -7.33301 42.167 -22 52.5s-39 15.5 -73 15.5v71c66.667 0 113.667 -11.5 141 -34.5z" />
    <glyph glyph-name="asciitilde" unicode="~" horiz-adv-x="488" 
d="M268.5 259.5c-14.333 6.33301 -31.5 15.833 -51.5 28.5c-12 8 -22 14 -30 18s-16 6 -24 6c-26 0 -50 -18 -72 -54l-56 29c33.333 64.667 79 97 137 97c18.667 0 35 -3 49 -9s30.333 -15 49 -27c13.333 -8.66699 24.166 -15 32.499 -19s16.833 -6 25.5 -6
c14 0 27 4.5 39 13.5s22.333 20.5 31 34.5l55 -30c-31.333 -60.667 -76 -91 -134 -91c-19.333 0 -36.166 3.16699 -50.499 9.5z" />
    <glyph glyph-name="uni00A0" unicode="&#xa0;" horiz-adv-x="265" 
 />
    <glyph glyph-name="exclamdown" unicode="&#xa1;" horiz-adv-x="241" 
d="M170 474.5c13.333 -13.667 20 -30.167 20 -49.5s-6.66699 -35.666 -20 -48.999s-29.666 -20 -48.999 -20c-20 0 -36.667 6.66699 -50 20s-20 29.666 -20 48.999s6.66699 35.833 20 49.5s30 20.5 50 20.5c19.333 0 35.666 -6.83301 48.999 -20.5zM162 247l11 -449h-102
l10 449h81z" />
    <glyph glyph-name="cent" unicode="&#xa2;" horiz-adv-x="478" 
d="M448 46c-37.333 -30 -76.9961 -48.333 -118.996 -55v-145h-80v145c-60 8 -107 35.5 -141 82.5s-51 108.833 -51 185.5s17.167 139.834 51.5 189.501s81.5 78.834 141.5 87.501v148h79v-148c43.333 -6 83 -24 119 -54l-44 -58
c-18.667 13.333 -36.834 23.166 -54.501 29.499s-37.167 9.5 -58.5 9.5c-42.667 0 -75.834 -17 -99.501 -51s-35.5 -84.333 -35.5 -151s11.667 -115.834 35 -147.501s56.666 -47.5 99.999 -47.5c20.667 0 39.667 3.16699 57 9.5s36.666 16.5 57.999 30.5z" />
    <glyph glyph-name="sterling" unicode="&#xa3;" horiz-adv-x="520" 
d="M200 125c-8.66699 -18.667 -24.6631 -34.6699 -47.9961 -48.0029h320l-11 -77h-421v73c23.333 8.66699 40.666 17.834 51.999 27.501s19.166 22.334 23.499 38.001s6.5 37.834 6.5 66.501v117h-66v60h66v111c0 55.333 16.667 100.166 50 134.499
s79.666 51.5 138.999 51.5c36.667 0 69.667 -6.83301 99 -20.5s56 -34.5 80 -62.5l-60 -46c-16 18.667 -33 32.334 -51 41.001s-39.333 13 -64 13c-32.667 0 -57.834 -9.5 -75.501 -28.5s-26.5 -46.167 -26.5 -81.5v-112h208v-60h-208v-118c0 -34 -4.33301 -60.333 -13 -79z
" />
    <glyph glyph-name="currency" unicode="&#xa4;" 
d="M455 218l75.999 -74.999l-55 -55l-78 76c-35.333 -21.333 -75.333 -32 -120 -32c-44 0 -83.333 11.667 -118 35l-78 -79l-53 55l78 78c-24 35.333 -36 75.333 -36 120c0 43.333 11.667 83 35 119l-77 80l55 55l78 -80c32.667 22.667 71.334 34 116.001 34
c46 0 86.333 -11 121 -33l79 79l53 -55l-76 -77c24.667 -34.667 37 -75.334 37 -122.001c0 -46 -12.333 -87 -37 -123zM372.499 241.001c21 24 31.5 57.667 31.5 101s-10.5 77 -31.5 101s-51.5 36 -91.5 36c-39.333 0 -69.5 -12.167 -90.5 -36.5s-31.5 -57.833 -31.5 -100.5
c0 -43.333 10.5 -77 31.5 -101s51.167 -36 90.5 -36c40 0 70.5 12 91.5 36z" />
    <glyph glyph-name="yen" unicode="&#xa5;" horiz-adv-x="536" 
d="M531 669l-191 -323h113v-62h-138v-90h138v-61h-138v-133h-94v133h-139v61h139v90h-139v62h114l-191 323h102l164 -295l163 295h97z" />
    <glyph glyph-name="brokenbar" unicode="&#xa6;" horiz-adv-x="403" 
d="M243 807v-364h-83v364h83zM243 262v-364h-83v364h83z" />
    <glyph glyph-name="section" unicode="&#xa7;" horiz-adv-x="533" 
d="M441 75c0 -44.667 -17.998 -80.1689 -53.998 -106.502s-83 -39.5 -141 -39.5c-64.667 0 -120.667 16.667 -168 50l35 61c20 -13.333 40.833 -23.166 62.5 -29.499s46.167 -9.5 73.5 -9.5c29.333 0 53.333 5.66699 72 17s28 27.333 28 48c0 16 -3.33301 29 -10 39
s-18.5 19.333 -35.5 28s-43.167 18.667 -78.5 30c-55.333 18 -95 37.667 -119 59s-36 51 -36 89c0 24 6.83301 46.5 20.5 67.5s32.5 38.833 56.5 53.5c-18 12 -31.333 26.167 -40 42.5s-13 35.833 -13 58.5c0 44.667 17.333 79.834 52 105.501s79.667 38.5 135 38.5
c64.667 0 121.667 -18 171 -54l-35 -58c-22 14 -43.667 24.333 -65 31s-45.333 10 -72 10c-30 0 -53.333 -5.83301 -70 -17.5s-25 -27.834 -25 -48.501c0 -16 3.16699 -29.167 9.5 -39.5s18.166 -20.166 35.499 -29.499s43 -19.666 77 -30.999
c55.333 -18.667 95.166 -39 119.499 -61s36.5 -50.667 36.5 -86c0 -46 -25.333 -86 -76 -120c36 -24.667 54 -57.334 54 -98.001zM178.502 268.998c13 -12 38.167 -23.999 75.5 -35.999c28.667 -9.33301 55 -19.333 79 -30c13.333 12 23.666 24.667 30.999 38
s11 26.333 11 39c0 16 -3 29.167 -9 39.5s-16.5 19.666 -31.5 27.999s-37.5 17.833 -67.5 28.5c-23.333 8.66699 -45.666 17.667 -66.999 27c-12.667 -12.667 -22.667 -26 -30 -40s-11 -27.333 -11 -40c0 -24 6.5 -42 19.5 -54z" />
    <glyph glyph-name="dieresis" unicode="&#xa8;" horiz-adv-x="385" 
d="M128.5 751.5c11 -11 16.5 -24.5 16.5 -40.5s-5.5 -29.5 -16.5 -40.5s-24.5 -16.5 -40.5 -16.5c-16.667 0 -30.5 5.5 -41.5 16.5s-16.5 24.5 -16.5 40.5s5.5 29.5 16.5 40.5s24.833 16.5 41.5 16.5c16 0 29.5 -5.5 40.5 -16.5zM338.5 751.5c11 -11 16.5 -24.5 16.5 -40.5
s-5.5 -29.5 -16.5 -40.5s-24.833 -16.5 -41.5 -16.5c-16 0 -29.5 5.5 -40.5 16.5s-16.5 24.5 -16.5 40.5s5.5 29.5 16.5 40.5s24.5 16.5 40.5 16.5c16.667 0 30.5 -5.5 41.5 -16.5z" />
    <glyph glyph-name="copyright" unicode="&#xa9;" horiz-adv-x="810" 
d="M563.5 707.5c47.667 -27 85.334 -64.333 113.001 -112s41.5 -101.5 41.5 -161.5s-13.833 -113.833 -41.5 -161.5s-65.334 -84.834 -113.001 -111.501s-100.167 -40 -157.5 -40s-110 13.333 -158 40s-86 63.834 -114 111.501s-42 101.5 -42 161.5s14 113.833 42 161.5
s66 85 114 112s100.667 40.5 158 40.5s109.833 -13.5 157.5 -40.5zM276.5 663c-38.333 -22 -68.5 -53 -90.5 -93s-33 -85.333 -33 -136s11 -95.667 33 -135s52.167 -70 90.5 -92s81.5 -33 129.5 -33c47.333 0 90.166 11 128.499 33s68.5 52.667 90.5 92s33 84.333 33 135
s-11 96 -33 136s-52.167 71 -90.5 93s-81.166 33 -128.499 33c-48 0 -91.167 -11 -129.5 -33zM471 615c18 -6.66699 36 -16.668 54 -30.001l-35 -47c-25.333 18 -51.333 27 -78 27c-27.333 0 -49.333 -10.667 -66 -32s-25 -54 -25 -98c0 -42 8.16699 -73.667 24.5 -95
s38.5 -32 66.5 -32c16.667 0 31.5 2.5 44.5 7.5s26.167 12.833 39.5 23.5l32 -48c-34.667 -30.667 -74.334 -46 -119.001 -46c-49.333 0 -89 16.667 -119 50s-45 80 -45 140c0 40 7.33301 74.333 22 103s34.334 50.334 59.001 65.001s52 22 82 22c24 0 45 -3.33301 63 -10z
" />
    <glyph glyph-name="ordfeminine" unicode="&#xaa;" horiz-adv-x="500" 
d="M313 525l0.000976562 23.998c0 26 -6.66699 44.333 -20 55s-34.333 16 -63 16c-32.667 0 -70.334 -7 -113.001 -21l-22 62c52 18.667 102 28 150 28c104.667 0 157 -45 157 -135v-170c0 -15.333 2.66699 -26.666 8 -33.999s13.666 -13 24.999 -17l-19 -61
c-23.333 2.66699 -42.166 8.5 -56.499 17.5s-25.166 22.833 -32.499 41.5c-14 -20 -31.833 -35 -53.5 -45s-45.834 -15 -72.501 -15c-42 0 -75.167 11.167 -99.5 33.5s-36.5 51.833 -36.5 88.5c0 42.667 16.5 75.334 49.5 98.001s79.833 34 140.5 34h58zM313.001 389.998v80
h-48c-70.667 0 -106 -24 -106 -72c0 -19.333 5.66699 -34.333 17 -45s27.333 -16 48 -16c37.333 0 67 17.667 89 53zM71.001 76.998h376v-77h-376v77z" />
    <glyph glyph-name="guillemotleft" unicode="&#xab;" horiz-adv-x="575" 
d="M230 535l55 -38l-135 -210l135 -210l-55 -38l-175 216v63zM465 535l55 -38l-135 -210l135 -210l-55 -38l-175 216v63z" />
    <glyph glyph-name="logicalnot" unicode="&#xac;" horiz-adv-x="500" 
d="M438 361v-220h-83v143h-293v77h376z" />
    <glyph glyph-name="uni00AD" unicode="&#xad;" horiz-adv-x="403" 
d="M60 274v78h283v-78h-283z" />
    <glyph glyph-name="registered" unicode="&#xae;" horiz-adv-x="641" 
d="M448.5 715.5c39 -23 69.667 -54.167 92 -93.5s33.5 -82.333 33.5 -129s-11.167 -89.5 -33.5 -128.5s-53 -69.833 -92 -92.5s-82.167 -34 -129.5 -34c-46 0 -88.333 11.333 -127 34s-69.167 53.5 -91.5 92.5s-33.5 81.833 -33.5 128.5s11.167 89.667 33.5 129
s52.833 70.5 91.5 93.5s81 34.5 127 34.5c47.333 0 90.5 -11.5 129.5 -34.5zM422.5 313.5c30.333 17.667 54 42.167 71 73.5s25.5 66.666 25.5 105.999s-8.5 74.833 -25.5 106.5s-40.667 56.5 -71 74.5s-64.833 27 -103.5 27c-37.333 0 -71 -9 -101 -27
s-53.5 -42.833 -70.5 -74.5s-25.5 -67.167 -25.5 -106.5s8.5 -74.666 25.5 -105.999s40.5 -55.833 70.5 -73.5s63.667 -26.5 101 -26.5c38.667 0 73.167 8.83301 103.5 26.5zM410 502.5c-12 -13 -27.667 -22.5 -47 -28.5l74 -115h-67l-61 106h-24v-106h-57v276h78
c81.333 0 122 -28 122 -84c0 -19.333 -6 -35.5 -18 -48.5zM285 509h30c36 0 54 14 54 42c0 14 -4.5 24.167 -13.5 30.5s-23.167 9.5 -42.5 9.5h-28v-82z" />
    <glyph glyph-name="macron" unicode="&#xaf;" horiz-adv-x="333" 
d="M303 667h-273v69h273v-69z" />
    <glyph glyph-name="degree" unicode="&#xb0;" horiz-adv-x="523" 
d="M138.5 400c-25 12.667 -45.167 31.168 -60.5 55.501s-23 52.833 -23 85.5s7.66699 61.167 23 85.5s35.5 42.833 60.5 55.5s51.833 19 80.5 19s55.5 -6.33301 80.5 -19s45.167 -31.334 60.5 -56.001s23 -53.334 23 -86.001s-7.66699 -61.167 -23 -85.5
s-35.5 -42.666 -60.5 -54.999s-51.833 -18.5 -80.5 -18.5s-55.5 6.33301 -80.5 19zM281 468.001c16.667 16.667 25.001 40.667 25.001 72s-8.33301 55.5 -25 72.5s-37.334 25.5 -62.001 25.5s-45.334 -8.33301 -62.001 -25s-25 -40.667 -25 -72s8.5 -55.5 25.5 -72.5
s37.5 -25.5 61.5 -25.5c24.667 0 45.334 8.33301 62.001 25z" />
    <glyph glyph-name="plusminus" unicode="&#xb1;" horiz-adv-x="500" 
d="M62 0v77h376v-77h-376zM292 542v-150h146v-76h-146v-149h-84v149h-145v76h145v150h84z" />
    <glyph glyph-name="uni00B2" unicode="&#xb2;" horiz-adv-x="400" 
d="M296.5 712c25 -22.667 37.499 -51.333 37.499 -86c0 -22.667 -5.5 -44.5 -16.5 -65.5s-28.833 -44.833 -53.5 -71.5s-61 -61.667 -109 -105h189l-8 -62h-269v58c56 54 96 93.833 120 119.5s41.167 47.5 51.5 65.5s15.5 36.333 15.5 55c0 20 -6 35.667 -18 47
s-27.667 17 -47 17c-17.333 0 -32.333 -3.33301 -45 -10s-26 -18 -40 -34l-49 38c36.667 45.333 83.334 68 140.001 68c42.667 0 76.5 -11.333 101.5 -34z" />
    <glyph glyph-name="uni00B3" unicode="&#xb3;" horiz-adv-x="400" 
d="M297.5 716c24.333 -20 36.5 -44.999 36.5 -74.999c0 -25.333 -7.66699 -46.333 -23 -63s-36.333 -28.334 -63 -35.001c29.333 -2.66699 53.333 -12.667 72 -30s28 -41.333 28 -72c0 -36.667 -14.167 -67.167 -42.5 -91.5s-66.5 -36.5 -114.5 -36.5
c-58 0 -104.333 20 -139 60l45 42c25.333 -27.333 55.333 -41 90 -41c24.667 0 44.167 6.33301 58.5 19s21.5 30 21.5 52c0 24 -6.83301 41.167 -20.5 51.5s-33.5 15.5 -59.5 15.5h-34l9 56h23c21.333 0 38.666 5.5 51.999 16.5s20 26.5 20 46.5c0 17.333 -6 31 -18 41
s-28 15 -48 15c-16.667 0 -32 -3 -46 -9s-28 -15.333 -42 -28l-40 44c38.667 34.667 83.334 52 134.001 52c42.667 0 76.167 -10 100.5 -30z" />
    <glyph glyph-name="acute" unicode="&#xb4;" horiz-adv-x="300" 
d="M229 801l41 -77l-212 -86l-28 49z" />
    <glyph glyph-name="uni00B5" unicode="&#xb5;" horiz-adv-x="588" 
d="M513 0l-85.999 -12c-7.33301 17.333 -12.5 32.5 -15.5 45.5s-5.83301 30.167 -8.5 51.5v1c-16 -28 -35.833 -51.333 -59.5 -70s-49.834 -28 -78.501 -28c-23.333 0 -42.5 3.83301 -57.5 11.5s-27.833 20.5 -38.5 38.5c6 -18.667 10.333 -38 13 -58s4 -45.333 4 -76v-106
l-91 -11v740h92v-371c0 -59.333 26.333 -89 79 -89c53.333 0 96.333 32 129 96v364h92v-347c0 -66.667 8.66699 -126.667 26 -180z" />
    <glyph glyph-name="paragraph" unicode="&#xb6;" horiz-adv-x="734" 
d="M594 689v-891.001l-83 -13v831h-114v-818l-83 -13v497c-75.333 4 -131.5 24.333 -168.5 61s-55.5 84.334 -55.5 143.001c0 64.667 22 114.667 66 150s104 53 180 53h258z" />
    <glyph glyph-name="periodcentered" unicode="&#xb7;" horiz-adv-x="240" 
d="M169 360c13.333 -13.333 20 -29.666 20 -48.999s-6.66699 -35.833 -20 -49.5s-30 -20.5 -50 -20.5c-19.333 0 -35.666 6.83301 -48.999 20.5s-20 30.167 -20 49.5s6.66699 35.666 20 48.999s29.666 20 48.999 20c20 0 36.667 -6.66699 50 -20z" />
    <glyph glyph-name="cedilla" unicode="&#xb8;" horiz-adv-x="275" 
d="M152 -56c32 -2.66699 55.5 -11.8311 70.5 -27.498s22.5 -34.834 22.5 -57.501c0 -32 -11.667 -56.667 -35 -74s-53 -26 -89 -26c-18.667 0 -36 2.16699 -52 6.5s-29 10.166 -39 17.499l25 52c20 -10.667 41 -16 63 -16c15.333 0 27.5 3.16699 36.5 9.5
s13.5 16.5 13.5 30.5s-7 24.5 -21 31.5s-36.667 10.5 -68 10.5l14 115h59v-72z" />
    <glyph glyph-name="uni00B9" unicode="&#xb9;" horiz-adv-x="400" 
d="M274 739v-417h-77v338l-98 -57l-34 53l140 83h69z" />
    <glyph glyph-name="ordmasculine" unicode="&#xba;" horiz-adv-x="500" 
d="M393.5 633.5c33.667 -37 50.499 -88.167 50.499 -153.5c0 -63.333 -17.167 -114 -51.5 -152s-81.833 -57 -142.5 -57c-61.333 0 -109 18.667 -143 56s-51 88.333 -51 153c0 63.333 17.333 114 52 152s82.334 57 143.001 57c61.333 0 108.833 -18.5 142.5 -55.5z
M150.999 480c0 -93.333 33 -140 99 -140s99 46.667 99 140c0 48 -8.16699 83.333 -24.5 106s-40.833 34 -73.5 34c-66.667 0 -100 -46.667 -100 -140zM61.999 0v77h376v-77h-376z" />
    <glyph glyph-name="guillemotright" unicode="&#xbb;" horiz-adv-x="566" 
d="M110 535l175 -217v-63l-175 -216l-55 38l135 210l-135 210zM336 535l175 -217v-63l-175 -216l-55 38l135 210l-135 210z" />
    <glyph glyph-name="onequarter" unicode="&#xbc;" horiz-adv-x="932" 
d="M274 689v-417h-77v338l-98 -57l-34 53l140 83h69zM640 750l59 -29l-406 -799l-60 29zM889 156v-60h-53v-96h-76v96h-186v54l128 274l66 -25l-113 -243h106l7 105h68v-105h53z" />
    <glyph glyph-name="onehalf" unicode="&#xbd;" horiz-adv-x="932" 
d="M274 689v-417h-77v338l-98 -57l-34 53l140 83h69zM640 750l59 -29l-406 -799l-60 29zM828.5 390c25 -22.667 37.499 -51.333 37.499 -86c0 -22.667 -5.5 -44.5 -16.5 -65.5s-28.833 -44.833 -53.5 -71.5s-61 -61.667 -109 -105h189l-8 -62h-269v58
c56 54 96 93.833 120 119.5s41.167 47.5 51.5 65.5s15.5 36.333 15.5 55c0 20 -6 35.667 -18 47s-27.667 17 -47 17c-17.333 0 -32.333 -3.33301 -45 -10s-26 -18 -40 -34l-49 38c36.667 45.333 83.334 68 140.001 68c42.667 0 76.5 -11.333 101.5 -34z" />
    <glyph glyph-name="threequarters" unicode="&#xbe;" horiz-adv-x="932" 
d="M297.5 666c24.333 -20 36.5 -44.999 36.5 -74.999c0 -25.333 -7.66699 -46.333 -23 -63s-36.333 -28.334 -63 -35.001c29.333 -2.66699 53.333 -12.667 72 -30s28 -41.333 28 -72c0 -36.667 -14.167 -67.167 -42.5 -91.5s-66.5 -36.5 -114.5 -36.5
c-58 0 -104.333 20 -139 60l45 42c25.333 -27.333 55.333 -41 90 -41c24.667 0 44.167 6.33301 58.5 19s21.5 30 21.5 52c0 24 -6.83301 41.167 -20.5 51.5s-33.5 15.5 -59.5 15.5h-34l9 56h23c21.333 0 38.666 5.5 51.999 16.5s20 26.5 20 46.5c0 17.333 -6 31 -18 41
s-28 15 -48 15c-16.667 0 -32 -3 -46 -9s-28 -15.333 -42 -28l-40 44c38.667 34.667 83.334 52 134.001 52c42.667 0 76.167 -10 100.5 -30zM640 750.001l59 -29l-406 -799l-60 29zM889 156.001v-60h-53v-96h-76v96h-186v54l128 274l66 -25l-113 -243h106l7 105h68v-105h53z
" />
    <glyph glyph-name="questiondown" unicode="&#xbf;" horiz-adv-x="459" 
d="M204 376c-13.333 13.333 -20 29.666 -20 48.999s6.66699 35.833 20 49.5s30 20.5 50 20.5c19.333 0 35.666 -6.83301 48.999 -20.5s20 -30.167 20 -49.5s-6.66699 -35.666 -20 -48.999s-29.666 -20 -48.999 -20c-20 0 -36.667 6.66699 -50 20zM117.5 -193.5
c-29 14.333 -50.833 33.501 -65.5 57.501s-22 49.667 -22 77c0 26.667 4.5 49.167 13.5 67.5s20.167 33.166 33.5 44.499s30.666 24.333 51.999 39c27.333 18.667 47.833 35.834 61.5 51.501s20.5 36.5 20.5 62.5v41h91v-46c0 -28 -4.66699 -51.667 -14 -71
s-20.666 -34.833 -33.999 -46.5s-31 -24.834 -53 -39.501c-25.333 -16 -44.166 -30.833 -56.499 -44.5s-18.5 -31.167 -18.5 -52.5c0 -27.333 9 -48.5 27 -63.5s42.667 -22.5 74 -22.5c53.333 0 99.666 24 138.999 72l63 -49c-56 -66 -125.333 -99 -208 -99
c-40 0 -74.5 7.16699 -103.5 21.5z" />
    <glyph glyph-name="Agrave" unicode="&#xc0;" horiz-adv-x="573" 
d="M467 0l-52 173h-261l-52 -173h-96l221 689h120l220 -689h-100zM177 250h215l-107 360zM196 911l201 -107l-24 -49l-216 79z" />
    <glyph glyph-name="Aacute" unicode="&#xc1;" horiz-adv-x="573" 
d="M467 0l-52 173h-261l-52 -173h-96l221 689h120l220 -689h-100zM177 250h215l-107 360zM367 911l40 -77l-216 -79l-24 49z" />
    <glyph glyph-name="Acircumflex" unicode="&#xc2;" horiz-adv-x="573" 
d="M467 0l-52 173h-261l-52 -173h-96l221 689h120l220 -689h-100zM177 250h215l-107 360zM160 759l-40 45l136 110h61l135 -110l-39 -45l-127 81z" />
    <glyph glyph-name="Atilde" unicode="&#xc3;" horiz-adv-x="573" 
d="M467 0l-52 173h-261l-52 -173h-96l221 689h120l220 -689h-100zM177 250h215l-107 360zM310.5 789c-10.333 4.66699 -21.8281 11.334 -34.4951 20.001c-10 7.33301 -18.5 12.666 -25.5 15.999s-14.167 5 -21.5 5c-10.667 0 -20 -3.66699 -28 -11s-16.333 -19 -25 -35
l-56 28c12.667 26.667 28.167 48 46.5 64s39.166 24 62.499 24c14 0 26 -2.5 36 -7.5s21.333 -11.833 34 -20.5l12.5 -8c6.33301 -4 12.166 -7 17.499 -9s10.666 -3 15.999 -3c10 0 19 3.5 27 10.5s16.667 18.167 26 33.5l56 -28c-12.667 -28 -28.334 -49.333 -47.001 -64
s-39.334 -22 -62.001 -22c-12.667 0 -24.167 2.33301 -34.5 7z" />
    <glyph glyph-name="Adieresis" unicode="&#xc4;" horiz-adv-x="573" 
d="M467 0l-52 173h-261l-52 -173h-96l221 689h120l220 -689h-100zM177 250h215l-107 360zM222.5 877.5c11 -11 16.5 -24.5 16.5 -40.5s-5.5 -29.5 -16.5 -40.5s-24.5 -16.5 -40.5 -16.5c-16.667 0 -30.5 5.5 -41.5 16.5s-16.5 24.5 -16.5 40.5s5.5 29.5 16.5 40.5
s24.833 16.5 41.5 16.5c16 0 29.5 -5.5 40.5 -16.5zM432.5 877.5c11 -11 16.5 -24.5 16.5 -40.5s-5.5 -29.5 -16.5 -40.5s-24.833 -16.5 -41.5 -16.5c-16 0 -29.5 5.5 -40.5 16.5s-16.5 24.5 -16.5 40.5s5.5 29.5 16.5 40.5s24.5 16.5 40.5 16.5
c16.667 0 30.5 -5.5 41.5 -16.5z" />
    <glyph glyph-name="Aring" unicode="&#xc5;" horiz-adv-x="573" 
d="M467 0l-52 173h-261l-52 -173h-96l221 689h120l220 -689h-100zM177 250h215l-107 360zM369 931.5c21.333 -20.333 32 -45.5 32 -75.5s-10.667 -55.167 -32 -75.5s-48.666 -30.5 -81.999 -30.5s-60.666 10.167 -81.999 30.5s-32 45.5 -32 75.5s10.667 55.167 32 75.5
s48.666 30.5 81.999 30.5s60.666 -10.167 81.999 -30.5zM248 897c-9.33301 -10 -14 -23.667 -14 -41s4.66699 -31 14 -41s22.333 -15 39 -15c16 0 28.833 5 38.5 15s14.5 23.667 14.5 41s-4.66699 31 -14 41s-22.333 15 -39 15s-29.667 -5 -39 -15z" />
    <glyph glyph-name="AE" unicode="&#xc6;" horiz-adv-x="816" 
d="M535 76h227v-76h-304l-40 173h-268l-65 -173h-97l274 689h459l-11 -76h-309l56 -226h255v-76h-236zM179 250h221l-84 363z" />
    <glyph glyph-name="Ccedilla" unicode="&#xc7;" 
d="M470.5 15.5c-27.667 -13.667 -59.1621 -22.1641 -94.4951 -25.4971v-46c32 -2.66699 55.5 -11.834 70.5 -27.501s22.5 -34.834 22.5 -57.501c0 -32 -11.667 -56.667 -35 -74s-53 -26 -89 -26c-18.667 0 -36 2.16699 -52 6.5s-29 10.166 -39 17.499l25 52
c20 -10.667 41 -16 63 -16c15.333 0 27.5 3.16699 36.5 9.5s13.5 16.5 13.5 30.5s-7 24.5 -21 31.5s-36.667 10.5 -68 10.5l11 88c-51.333 4.66699 -96.5 21.5 -135.5 50.5s-69.333 69.333 -91 121s-32.5 113.167 -32.5 184.5c0 75.333 12.667 139.833 38 193.5
s59.666 94.167 102.999 121.5s91.666 41 144.999 41c41.333 0 76.166 -5.33301 104.499 -16s57.166 -28 86.499 -52l-52 -61c-42 34 -86.333 51 -133 51c-57.333 0 -103.5 -22 -138.5 -66s-52.5 -114.667 -52.5 -212c0 -94.667 17.333 -164.5 52 -209.5
s80.667 -67.5 138 -67.5c29.333 0 55 5 77 15s45.333 24 70 42l47 -60c-18.667 -19.333 -41.834 -35.833 -69.501 -49.5z" />
    <glyph glyph-name="Egrave" unicode="&#xc8;" horiz-adv-x="535" 
d="M473 689l-11 -76h-267v-225h232v-76h-232v-236h286v-76h-381v689h373zM199 911l201 -107l-24 -49l-216 79z" />
    <glyph glyph-name="Eacute" unicode="&#xc9;" horiz-adv-x="535" 
d="M473 689l-11 -76h-267v-225h232v-76h-232v-236h286v-76h-381v689h373zM370 911l40 -77l-216 -79l-24 49z" />
    <glyph glyph-name="Ecircumflex" unicode="&#xca;" horiz-adv-x="535" 
d="M473 689l-11 -76h-267v-225h232v-76h-232v-236h286v-76h-381v689h373zM163 759l-40 45l136 110h61l135 -110l-39 -45l-127 81z" />
    <glyph glyph-name="Edieresis" unicode="&#xcb;" horiz-adv-x="535" 
d="M473 689l-11 -76h-267v-225h232v-76h-232v-236h286v-76h-381v689h373zM225.5 877.5c11 -11 16.5 -24.5 16.5 -40.5s-5.5 -29.5 -16.5 -40.5s-24.5 -16.5 -40.5 -16.5c-16.667 0 -30.5 5.5 -41.5 16.5s-16.5 24.5 -16.5 40.5s5.5 29.5 16.5 40.5s24.833 16.5 41.5 16.5
c16 0 29.5 -5.5 40.5 -16.5zM435.5 877.5c11 -11 16.5 -24.5 16.5 -40.5s-5.5 -29.5 -16.5 -40.5s-24.833 -16.5 -41.5 -16.5c-16 0 -29.5 5.5 -40.5 16.5s-16.5 24.5 -16.5 40.5s5.5 29.5 16.5 40.5s24.5 16.5 40.5 16.5c16.667 0 30.5 -5.5 41.5 -16.5z" />
    <glyph glyph-name="Igrave" unicode="&#xcc;" horiz-adv-x="295" 
d="M195 689v-689h-95v689h95zM56 911l201 -107l-24 -49l-216 79z" />
    <glyph glyph-name="Iacute" unicode="&#xcd;" horiz-adv-x="295" 
d="M195 689v-689h-95v689h95zM227 911l40 -77l-216 -79l-24 49z" />
    <glyph glyph-name="Icircumflex" unicode="&#xce;" horiz-adv-x="295" 
d="M195 689v-689h-95v689h95zM20 759l-40 45l136 110h61l135 -110l-39 -45l-127 81z" />
    <glyph glyph-name="Idieresis" unicode="&#xcf;" horiz-adv-x="295" 
d="M195 689v-689h-95v689h95zM82.5 877.5c11 -11 16.5 -24.5 16.5 -40.5s-5.5 -29.5 -16.5 -40.5s-24.5 -16.5 -40.5 -16.5c-16.667 0 -30.5 5.5 -41.5 16.5s-16.5 24.5 -16.5 40.5s5.5 29.5 16.5 40.5s24.833 16.5 41.5 16.5c16 0 29.5 -5.5 40.5 -16.5zM292.5 877.5
c11 -11 16.5 -24.5 16.5 -40.5s-5.5 -29.5 -16.5 -40.5s-24.833 -16.5 -41.5 -16.5c-16 0 -29.5 5.5 -40.5 16.5s-16.5 24.5 -16.5 40.5s5.5 29.5 16.5 40.5s24.5 16.5 40.5 16.5c16.667 0 30.5 -5.5 41.5 -16.5z" />
    <glyph glyph-name="Eth" unicode="&#xd0;" horiz-adv-x="656" 
d="M506.5 616.5c63 -48.333 94.5 -137.834 94.5 -268.501c0 -127.333 -31.5 -217.166 -94.5 -269.499s-139.5 -78.5 -229.5 -78.5h-165v318h-92v70h92v301h144c104 0 187.5 -24.167 250.5 -72.5zM440 133.999c40 39.333 60 110.667 60 214c0 72.667 -10.333 128.5 -31 167.5
s-47 65 -79 78s-69.667 19.5 -113 19.5h-70v-225h157v-70h-157v-243h77c64 0 116 19.667 156 59z" />
    <glyph glyph-name="Ntilde" unicode="&#xd1;" horiz-adv-x="683" 
d="M583 0l-127 0.000976562l-280 585c4 -46 7.16699 -88.5 9.5 -127.5s3.5 -86.167 3.5 -141.5v-316h-89v689h124l283 -586c-2 17.333 -4.66699 47.666 -8 90.999s-5 83 -5 119v376h89v-689zM376.5 789.001c-10.333 4.66699 -21.8281 11.334 -34.4951 20.001
c-10 7.33301 -18.5 12.666 -25.5 15.999s-14.167 5 -21.5 5c-10.667 0 -20 -3.66699 -28 -11s-16.333 -19 -25 -35l-56 28c12.667 26.667 28.167 48 46.5 64s39.166 24 62.499 24c14 0 26 -2.5 36 -7.5s21.333 -11.833 34 -20.5l12.5 -8c6.33301 -4 12.166 -7 17.499 -9
s10.666 -3 15.999 -3c10 0 19 3.5 27 10.5s16.667 18.167 26 33.5l56 -28c-12.667 -28 -28.334 -49.333 -47.001 -64s-39.334 -22 -62.001 -22c-12.667 0 -24.167 2.33301 -34.5 7z" />
    <glyph glyph-name="Ograve" unicode="&#xd2;" horiz-adv-x="692" 
d="M498.5 659.5c43.667 -27.667 77.667 -68.165 102 -121.498s36.5 -118 36.5 -194c0 -74.667 -12.167 -138.667 -36.5 -192s-58.333 -94 -102 -122s-94.5 -42 -152.5 -42s-108.833 13.667 -152.5 41s-77.667 67.666 -102 120.999s-36.5 117.666 -36.5 192.999
c0 74 12.167 138 36.5 192s58.5 95.167 102.5 123.5s94.667 42.5 152 42.5c58 0 108.833 -13.833 152.5 -41.5zM206 555.002c-33.333 -45.333 -50 -116 -50 -212c0 -95.333 16.833 -165.333 50.5 -210s80.167 -67 139.5 -67c126.667 0 190 92.667 190 278
c0 186 -63.333 279 -190 279c-60 0 -106.667 -22.667 -140 -68zM255 911.002l201 -107l-24 -49l-216 79z" />
    <glyph glyph-name="Oacute" unicode="&#xd3;" horiz-adv-x="692" 
d="M498.5 659.5c43.667 -27.667 77.667 -68.165 102 -121.498s36.5 -118 36.5 -194c0 -74.667 -12.167 -138.667 -36.5 -192s-58.333 -94 -102 -122s-94.5 -42 -152.5 -42s-108.833 13.667 -152.5 41s-77.667 67.666 -102 120.999s-36.5 117.666 -36.5 192.999
c0 74 12.167 138 36.5 192s58.5 95.167 102.5 123.5s94.667 42.5 152 42.5c58 0 108.833 -13.833 152.5 -41.5zM206 555.002c-33.333 -45.333 -50 -116 -50 -212c0 -95.333 16.833 -165.333 50.5 -210s80.167 -67 139.5 -67c126.667 0 190 92.667 190 278
c0 186 -63.333 279 -190 279c-60 0 -106.667 -22.667 -140 -68zM426 911.002l40 -77l-216 -79l-24 49z" />
    <glyph glyph-name="Ocircumflex" unicode="&#xd4;" horiz-adv-x="692" 
d="M498.5 659.5c43.667 -27.667 77.667 -68.165 102 -121.498s36.5 -118 36.5 -194c0 -74.667 -12.167 -138.667 -36.5 -192s-58.333 -94 -102 -122s-94.5 -42 -152.5 -42s-108.833 13.667 -152.5 41s-77.667 67.666 -102 120.999s-36.5 117.666 -36.5 192.999
c0 74 12.167 138 36.5 192s58.5 95.167 102.5 123.5s94.667 42.5 152 42.5c58 0 108.833 -13.833 152.5 -41.5zM206 555.002c-33.333 -45.333 -50 -116 -50 -212c0 -95.333 16.833 -165.333 50.5 -210s80.167 -67 139.5 -67c126.667 0 190 92.667 190 278
c0 186 -63.333 279 -190 279c-60 0 -106.667 -22.667 -140 -68zM219 759.002l-40 45l136 110h61l135 -110l-39 -45l-127 81z" />
    <glyph glyph-name="Otilde" unicode="&#xd5;" horiz-adv-x="692" 
d="M498.5 659.5c43.667 -27.667 77.667 -68.165 102 -121.498s36.5 -118 36.5 -194c0 -74.667 -12.167 -138.667 -36.5 -192s-58.333 -94 -102 -122s-94.5 -42 -152.5 -42s-108.833 13.667 -152.5 41s-77.667 67.666 -102 120.999s-36.5 117.666 -36.5 192.999
c0 74 12.167 138 36.5 192s58.5 95.167 102.5 123.5s94.667 42.5 152 42.5c58 0 108.833 -13.833 152.5 -41.5zM206 555.002c-33.333 -45.333 -50 -116 -50 -212c0 -95.333 16.833 -165.333 50.5 -210s80.167 -67 139.5 -67c126.667 0 190 92.667 190 278
c0 186 -63.333 279 -190 279c-60 0 -106.667 -22.667 -140 -68zM369.5 789.002c-10.333 4.66699 -21.8281 11.334 -34.4951 20.001c-10 7.33301 -18.5 12.666 -25.5 15.999s-14.167 5 -21.5 5c-10.667 0 -20 -3.66699 -28 -11s-16.333 -19 -25 -35l-56 28
c12.667 26.667 28.167 48 46.5 64s39.166 24 62.499 24c14 0 26 -2.5 36 -7.5s21.333 -11.833 34 -20.5l12.5 -8c6.33301 -4 12.166 -7 17.499 -9s10.666 -3 15.999 -3c10 0 19 3.5 27 10.5s16.667 18.167 26 33.5l56 -28c-12.667 -28 -28.334 -49.333 -47.001 -64
s-39.334 -22 -62.001 -22c-12.667 0 -24.167 2.33301 -34.5 7z" />
    <glyph glyph-name="Odieresis" unicode="&#xd6;" horiz-adv-x="692" 
d="M498.5 659.5c43.667 -27.667 77.667 -68.165 102 -121.498s36.5 -118 36.5 -194c0 -74.667 -12.167 -138.667 -36.5 -192s-58.333 -94 -102 -122s-94.5 -42 -152.5 -42s-108.833 13.667 -152.5 41s-77.667 67.666 -102 120.999s-36.5 117.666 -36.5 192.999
c0 74 12.167 138 36.5 192s58.5 95.167 102.5 123.5s94.667 42.5 152 42.5c58 0 108.833 -13.833 152.5 -41.5zM206 555.002c-33.333 -45.333 -50 -116 -50 -212c0 -95.333 16.833 -165.333 50.5 -210s80.167 -67 139.5 -67c126.667 0 190 92.667 190 278
c0 186 -63.333 279 -190 279c-60 0 -106.667 -22.667 -140 -68zM281.5 877.502c11 -11 16.5 -24.5 16.5 -40.5s-5.5 -29.5 -16.5 -40.5s-24.5 -16.5 -40.5 -16.5c-16.667 0 -30.5 5.5 -41.5 16.5s-16.5 24.5 -16.5 40.5s5.5 29.5 16.5 40.5s24.833 16.5 41.5 16.5
c16 0 29.5 -5.5 40.5 -16.5zM491.5 877.502c11 -11 16.5 -24.5 16.5 -40.5s-5.5 -29.5 -16.5 -40.5s-24.833 -16.5 -41.5 -16.5c-16 0 -29.5 5.5 -40.5 16.5s-16.5 24.5 -16.5 40.5s5.5 29.5 16.5 40.5s24.5 16.5 40.5 16.5c16.667 0 30.5 -5.5 41.5 -16.5z" />
    <glyph glyph-name="multiply" unicode="&#xd7;" horiz-adv-x="500" 
d="M372 486l56 -57l-120 -120l120 -124l-56 -56l-120 124l-124 -124l-56 56l120 120l-120 124l56 57l120 -125z" />
    <glyph glyph-name="Oslash" unicode="&#xd8;" horiz-adv-x="692" 
d="M597.5 545.5c26.333 -55 39.499 -122.167 39.499 -201.5c0 -74.667 -12.167 -138.667 -36.5 -192s-58.333 -94 -102 -122s-94.5 -42 -152.5 -42c-24 0 -46.333 2.33301 -67 7l-35 -122l-79 21l40 128c-47.333 26.667 -84.166 67.167 -110.499 121.5
s-39.5 120.833 -39.5 199.5c0 74 12.167 138 36.5 192s58.5 95.167 102.5 123.5s94.667 42.5 152 42.5c24.667 0 46.667 -2.33301 66 -7l37 125l79 -21l-42 -131c48 -26 85.167 -66.5 111.5 -121.5zM205.999 555c-33.333 -45.333 -50 -116 -50 -212
c0 -123.333 27.333 -205.333 82 -246l158 521c-18 3.33301 -34.667 5 -50 5c-60 0 -106.667 -22.667 -140 -68zM535.999 344c0 66 -7.00098 119.333 -21.001 160s-35 70.667 -63 90l-156 -523c16.667 -3.33301 33.334 -5 50.001 -5c126.667 0 190 92.667 190 278z" />
    <glyph glyph-name="Ugrave" unicode="&#xd9;" horiz-adv-x="662" 
d="M572 221c0 -46 -9.49902 -86.5 -28.499 -121.5s-46.667 -62.333 -83 -82s-79.833 -29.5 -130.5 -29.5c-76.667 0 -135.834 21.167 -177.501 63.5s-62.5 98.833 -62.5 169.5v468h95v-461c0 -53.333 12 -93.333 36 -120s60.333 -40 109 -40c49.333 0 86 13.167 110 39.5
s36 66.5 36 120.5v461h96v-468zM240.001 911l201 -107l-24 -49l-216 79z" />
    <glyph glyph-name="Uacute" unicode="&#xda;" horiz-adv-x="662" 
d="M572 221c0 -46 -9.49902 -86.5 -28.499 -121.5s-46.667 -62.333 -83 -82s-79.833 -29.5 -130.5 -29.5c-76.667 0 -135.834 21.167 -177.501 63.5s-62.5 98.833 -62.5 169.5v468h95v-461c0 -53.333 12 -93.333 36 -120s60.333 -40 109 -40c49.333 0 86 13.167 110 39.5
s36 66.5 36 120.5v461h96v-468zM411.001 911l40 -77l-216 -79l-24 49z" />
    <glyph glyph-name="Ucircumflex" unicode="&#xdb;" horiz-adv-x="662" 
d="M572 221c0 -46 -9.49902 -86.5 -28.499 -121.5s-46.667 -62.333 -83 -82s-79.833 -29.5 -130.5 -29.5c-76.667 0 -135.834 21.167 -177.501 63.5s-62.5 98.833 -62.5 169.5v468h95v-461c0 -53.333 12 -93.333 36 -120s60.333 -40 109 -40c49.333 0 86 13.167 110 39.5
s36 66.5 36 120.5v461h96v-468zM204.001 759l-40 45l136 110h61l135 -110l-39 -45l-127 81z" />
    <glyph glyph-name="Udieresis" unicode="&#xdc;" horiz-adv-x="662" 
d="M572 221c0 -46 -9.49902 -86.5 -28.499 -121.5s-46.667 -62.333 -83 -82s-79.833 -29.5 -130.5 -29.5c-76.667 0 -135.834 21.167 -177.501 63.5s-62.5 98.833 -62.5 169.5v468h95v-461c0 -53.333 12 -93.333 36 -120s60.333 -40 109 -40c49.333 0 86 13.167 110 39.5
s36 66.5 36 120.5v461h96v-468zM266.501 877.5c11 -11 16.5 -24.5 16.5 -40.5s-5.5 -29.5 -16.5 -40.5s-24.5 -16.5 -40.5 -16.5c-16.667 0 -30.5 5.5 -41.5 16.5s-16.5 24.5 -16.5 40.5s5.5 29.5 16.5 40.5s24.833 16.5 41.5 16.5c16 0 29.5 -5.5 40.5 -16.5z
M476.501 877.5c11 -11 16.5 -24.5 16.5 -40.5s-5.5 -29.5 -16.5 -40.5s-24.833 -16.5 -41.5 -16.5c-16 0 -29.5 5.5 -40.5 16.5s-16.5 24.5 -16.5 40.5s5.5 29.5 16.5 40.5s24.5 16.5 40.5 16.5c16.667 0 30.5 -5.5 41.5 -16.5z" />
    <glyph glyph-name="Yacute" unicode="&#xdd;" horiz-adv-x="550" 
d="M545 689l-222 -424v-265h-96v264l-222 425h105l168 -341l168 341h99zM355 911l40 -77l-216 -79l-24 49z" />
    <glyph glyph-name="Thorn" unicode="&#xde;" horiz-adv-x="581" 
d="M479 517c46.667 -36 70.001 -90.333 70.001 -163c0 -77.333 -24.333 -134.5 -73 -171.5s-113.334 -55.5 -194.001 -55.5h-87v-127h-95v689h95v-118h86c85.333 0 151.333 -18 198 -54zM405.001 235c28.667 22 43 61.334 43 118.001c0 51.333 -14.5 88.166 -43.5 110.499
s-70.5 33.5 -124.5 33.5h-85v-295h83c56 0 98.333 11 127 33z" />
    <glyph glyph-name="germandbls" unicode="&#xdf;" horiz-adv-x="593" 
d="M391.5 731c27 -12.667 47.834 -29.833 62.501 -51.5s22 -45.834 22 -72.501c0 -27.333 -5.66699 -49 -17 -65s-27.666 -32.667 -48.999 -50c-16 -13.333 -27.5 -24.333 -34.5 -33s-10.5 -19.334 -10.5 -32.001c0 -15.333 5.66699 -28.666 17 -39.999
s28.666 -25 51.999 -41c25.333 -17.333 45.833 -33 61.5 -47s29.167 -32.333 40.5 -55s17 -50 17 -82c0 -34.667 -8.16699 -65.167 -24.5 -91.5s-38.166 -46.666 -65.499 -60.999s-56.666 -21.5 -87.999 -21.5c-39.333 0 -73.333 7.66699 -102 23l27 64
c17.333 -8.66699 39.333 -13 66 -13c28 0 50.5 8.66699 67.5 26s25.5 42.333 25.5 75c0 30 -7.83301 54.333 -23.5 73s-38.834 39 -69.501 61c-28.667 20.667 -50.5 39.667 -65.5 57s-22.5 39.333 -22.5 66c0 22 4.66699 39.333 14 52s23.666 27 42.999 43
c18 14.667 31.333 28 40 40s13 27.667 13 47c0 24.667 -8.83301 43.5 -26.5 56.5s-39.834 19.5 -66.501 19.5c-72 0 -108 -46.333 -108 -139v-539h-92v539c0 66.667 17.5 118.5 52.5 155.5s84.5 55.5 148.5 55.5c36.667 0 68.5 -6.33301 95.5 -19z" />
    <glyph glyph-name="agrave" unicode="&#xe0;" horiz-adv-x="544" 
d="M461 75.5c7.33301 -10.333 18.332 -18.167 32.999 -23.5l-21 -64c-27.333 3.33301 -49.333 11 -66 23s-29 30.667 -37 56c-35.333 -52.667 -87.666 -79 -156.999 -79c-52 0 -93 14.667 -123 44s-45 67.666 -45 114.999c0 56 20.167 99 60.5 129s97.5 45 171.5 45h81v39
c0 37.333 -9 64 -27 80s-45.667 24 -83 24c-38.667 0 -86 -9.33301 -142 -28l-23 67c65.333 24 126 36 182 36c62 0 108.333 -15.167 139 -45.5s46 -73.5 46 -129.5v-241c0 -21.333 3.66699 -37.166 11 -47.499zM357.999 138.999v121h-69c-97.333 0 -146 -36 -146 -108
c0 -31.333 7.66699 -55 23 -71s38 -24 68 -24c52.667 0 94 27.333 124 82zM191.999 800.999l199 -114l-28 -49l-212 86z" />
    <glyph glyph-name="aacute" unicode="&#xe1;" horiz-adv-x="544" 
d="M461 75.5c7.33301 -10.333 18.332 -18.167 32.999 -23.5l-21 -64c-27.333 3.33301 -49.333 11 -66 23s-29 30.667 -37 56c-35.333 -52.667 -87.666 -79 -156.999 -79c-52 0 -93 14.667 -123 44s-45 67.666 -45 114.999c0 56 20.167 99 60.5 129s97.5 45 171.5 45h81v39
c0 37.333 -9 64 -27 80s-45.667 24 -83 24c-38.667 0 -86 -9.33301 -142 -28l-23 67c65.333 24 126 36 182 36c62 0 108.333 -15.167 139 -45.5s46 -73.5 46 -129.5v-241c0 -21.333 3.66699 -37.166 11 -47.499zM357.999 138.999v121h-69c-97.333 0 -146 -36 -146 -108
c0 -31.333 7.66699 -55 23 -71s38 -24 68 -24c52.667 0 94 27.333 124 82zM339.999 800.999l41 -77l-212 -86l-28 49z" />
    <glyph glyph-name="acircumflex" unicode="&#xe2;" horiz-adv-x="544" 
d="M461 75.5c7.33301 -10.333 18.332 -18.167 32.999 -23.5l-21 -64c-27.333 3.33301 -49.333 11 -66 23s-29 30.667 -37 56c-35.333 -52.667 -87.666 -79 -156.999 -79c-52 0 -93 14.667 -123 44s-45 67.666 -45 114.999c0 56 20.167 99 60.5 129s97.5 45 171.5 45h81v39
c0 37.333 -9 64 -27 80s-45.667 24 -83 24c-38.667 0 -86 -9.33301 -142 -28l-23 67c65.333 24 126 36 182 36c62 0 108.333 -15.167 139 -45.5s46 -73.5 46 -129.5v-241c0 -21.333 3.66699 -37.166 11 -47.499zM357.999 138.999v121h-69c-97.333 0 -146 -36 -146 -108
c0 -31.333 7.66699 -55 23 -71s38 -24 68 -24c52.667 0 94 27.333 124 82zM133.999 633.999l-39 45l135 113h61l136 -113l-40 -45l-126 84z" />
    <glyph glyph-name="atilde" unicode="&#xe3;" horiz-adv-x="544" 
d="M461 75.5c7.33301 -10.333 18.332 -18.167 32.999 -23.5l-21 -64c-27.333 3.33301 -49.333 11 -66 23s-29 30.667 -37 56c-35.333 -52.667 -87.666 -79 -156.999 -79c-52 0 -93 14.667 -123 44s-45 67.666 -45 114.999c0 56 20.167 99 60.5 129s97.5 45 171.5 45h81v39
c0 37.333 -9 64 -27 80s-45.667 24 -83 24c-38.667 0 -86 -9.33301 -142 -28l-23 67c65.333 24 126 36 182 36c62 0 108.333 -15.167 139 -45.5s46 -73.5 46 -129.5v-241c0 -21.333 3.66699 -37.166 11 -47.499zM357.999 138.999v121h-69c-97.333 0 -146 -36 -146 -108
c0 -31.333 7.66699 -55 23 -71s38 -24 68 -24c52.667 0 94 27.333 124 82zM284.499 662.999c-10.333 4.66699 -21.8281 11.334 -34.4951 20.001c-10 7.33301 -18.5 12.666 -25.5 15.999s-14.167 5 -21.5 5c-10.667 0 -20 -3.66699 -28 -11s-16.333 -19 -25 -35l-56 28
c12.667 26.667 28.167 48 46.5 64s39.166 24 62.499 24c14 0 26 -2.5 36 -7.5s21.333 -11.833 34 -20.5l12.5 -8c6.33301 -4 12.166 -7 17.499 -9s10.666 -3 15.999 -3c10 0 19 3.5 27 10.5s16.667 18.167 26 33.5l56 -28c-12.667 -28 -28.334 -49.333 -47.001 -64
s-39.334 -22 -62.001 -22c-12.667 0 -24.167 2.33301 -34.5 7z" />
    <glyph glyph-name="adieresis" unicode="&#xe4;" horiz-adv-x="544" 
d="M461 75.5c7.33301 -10.333 18.332 -18.167 32.999 -23.5l-21 -64c-27.333 3.33301 -49.333 11 -66 23s-29 30.667 -37 56c-35.333 -52.667 -87.666 -79 -156.999 -79c-52 0 -93 14.667 -123 44s-45 67.666 -45 114.999c0 56 20.167 99 60.5 129s97.5 45 171.5 45h81v39
c0 37.333 -9 64 -27 80s-45.667 24 -83 24c-38.667 0 -86 -9.33301 -142 -28l-23 67c65.333 24 126 36 182 36c62 0 108.333 -15.167 139 -45.5s46 -73.5 46 -129.5v-241c0 -21.333 3.66699 -37.166 11 -47.499zM357.999 138.999v121h-69c-97.333 0 -146 -36 -146 -108
c0 -31.333 7.66699 -55 23 -71s38 -24 68 -24c52.667 0 94 27.333 124 82zM196.499 751.499c11 -11 16.5 -24.5 16.5 -40.5s-5.5 -29.5 -16.5 -40.5s-24.5 -16.5 -40.5 -16.5c-16.667 0 -30.5 5.5 -41.5 16.5s-16.5 24.5 -16.5 40.5s5.5 29.5 16.5 40.5
s24.833 16.5 41.5 16.5c16 0 29.5 -5.5 40.5 -16.5zM406.499 751.499c11 -11 16.5 -24.5 16.5 -40.5s-5.5 -29.5 -16.5 -40.5s-24.833 -16.5 -41.5 -16.5c-16 0 -29.5 5.5 -40.5 16.5s-16.5 24.5 -16.5 40.5s5.5 29.5 16.5 40.5s24.5 16.5 40.5 16.5
c16.667 0 30.5 -5.5 41.5 -16.5z" />
    <glyph glyph-name="aring" unicode="&#xe5;" horiz-adv-x="544" 
d="M461 75.5c7.33301 -10.333 18.332 -18.167 32.999 -23.5l-21 -64c-27.333 3.33301 -49.333 11 -66 23s-29 30.667 -37 56c-35.333 -52.667 -87.666 -79 -156.999 -79c-52 0 -93 14.667 -123 44s-45 67.666 -45 114.999c0 56 20.167 99 60.5 129s97.5 45 171.5 45h81v39
c0 37.333 -9 64 -27 80s-45.667 24 -83 24c-38.667 0 -86 -9.33301 -142 -28l-23 67c65.333 24 126 36 182 36c62 0 108.333 -15.167 139 -45.5s46 -73.5 46 -129.5v-241c0 -21.333 3.66699 -37.166 11 -47.499zM357.999 138.999v121h-69c-97.333 0 -146 -36 -146 -108
c0 -31.333 7.66699 -55 23 -71s38 -24 68 -24c52.667 0 94 27.333 124 82zM342.999 805.499c21.333 -20.333 32 -45.5 32 -75.5s-10.667 -55.167 -32 -75.5s-48.666 -30.5 -81.999 -30.5s-60.666 10.167 -81.999 30.5s-32 45.5 -32 75.5s10.667 55.167 32 75.5
s48.666 30.5 81.999 30.5s60.666 -10.167 81.999 -30.5zM221.999 770.999c-9.33301 -10 -14 -23.667 -14 -41s4.66699 -31 14 -41s22.333 -15 39 -15c16 0 28.833 5 38.5 15s14.5 23.667 14.5 41s-4.66699 31 -14 41s-22.333 15 -39 15s-29.667 -5 -39 -15z" />
    <glyph glyph-name="ae" unicode="&#xe6;" horiz-adv-x="849" 
d="M795 232l-335.997 0.000976562c4 -58 18.667 -100.667 44 -128s58 -41 98 -41c25.333 0 48.666 3.66699 69.999 11s43.666 19 66.999 35l40 -55c-56 -44 -117.333 -66 -184 -66c-42 0 -79.167 8.33301 -111.5 25s-58.5 40.667 -78.5 72c-24 -34.667 -51 -59.5 -81 -74.5
s-65.667 -22.5 -107 -22.5c-52.667 0 -94.334 14.667 -125.001 44s-46 67.666 -46 114.999c0 56 20.667 99 62 129s99 45 173 45h81v39c0 37.333 -9 64 -27 80s-45.667 24 -83 24c-38.667 0 -86 -9.33301 -142 -28l-23 67c65.333 24 126 36 182 36c76 0 128.333 -28 157 -84
c38 56 91 84 159 84s120.5 -23 157.5 -69s55.5 -109.667 55.5 -191c0 -15.333 -0.666992 -31 -2 -47zM706.003 306.001c0 52 -10.333 91.667 -31 119s-51.667 41 -93 41c-75.333 0 -116.333 -55.333 -123 -166h247v6zM312.503 79.001c22.333 14.667 43.5 38 63.5 70
c-10 32 -15 68 -15 108v3h-69c-97.333 0 -146 -36 -146 -108c0 -31.333 7.66699 -55 23 -71s38 -24 68 -24c28 0 53.167 7.33301 75.5 22z" />
    <glyph glyph-name="ccedilla" unicode="&#xe7;" horiz-adv-x="478" 
d="M308 -11l0.00390625 -44.9951c32 -2.66699 55.5 -11.834 70.5 -27.501s22.5 -34.834 22.5 -57.501c0 -32 -11.667 -56.667 -35 -74s-53 -26 -89 -26c-18.667 0 -36 2.16699 -52 6.5s-29 10.166 -39 17.499l25 52c20 -10.667 41 -16 63 -16
c15.333 0 27.5 3.16699 36.5 9.5s13.5 16.5 13.5 30.5s-7 24.5 -21 31.5s-36.667 10.5 -68 10.5l11 90c-59.333 9.33301 -105.666 37.333 -138.999 84s-50 108 -50 184c0 56 9.33301 105 28 147s45.167 74.667 79.5 98s75.166 35 122.499 35c31.333 0 60 -4.5 86 -13.5
s51 -23.5 75 -43.5l-44 -58c-18.667 13.333 -36.834 23.166 -54.501 29.499s-37.167 9.5 -58.5 9.5c-42.667 0 -75.834 -17 -99.501 -51s-35.5 -84.333 -35.5 -151s11.667 -115.834 35 -147.501s56.666 -47.5 99.999 -47.5c20.667 0 39.667 3.16699 57 9.5
s36.666 16.5 57.999 30.5l42 -60c-42 -34 -88.667 -53 -140 -57z" />
    <glyph glyph-name="egrave" unicode="&#xe8;" horiz-adv-x="545" 
d="M491 232h-335.998c4 -58 18.667 -100.667 44 -128s58 -41 98 -41c25.333 0 48.666 3.66699 69.999 11s43.666 19 66.999 35l40 -55c-56 -44 -117.333 -66 -184 -66c-73.333 0 -130.5 24 -171.5 72s-61.5 114 -61.5 198c0 54.667 8.83301 103.167 26.5 145.5
s43 75.5 76 99.5s71.833 36 116.5 36c70 0 123.667 -23 161 -69s56 -109.667 56 -191c0 -15.333 -0.666992 -31 -2 -47zM402.002 306c0 52 -10.333 91.667 -31 119s-51.667 41 -93 41c-75.333 0 -116.333 -55.333 -123 -166h247v6zM210.002 801l199 -114l-28 -49l-212 86z
" />
    <glyph glyph-name="eacute" unicode="&#xe9;" horiz-adv-x="545" 
d="M491 232h-335.998c4 -58 18.667 -100.667 44 -128s58 -41 98 -41c25.333 0 48.666 3.66699 69.999 11s43.666 19 66.999 35l40 -55c-56 -44 -117.333 -66 -184 -66c-73.333 0 -130.5 24 -171.5 72s-61.5 114 -61.5 198c0 54.667 8.83301 103.167 26.5 145.5
s43 75.5 76 99.5s71.833 36 116.5 36c70 0 123.667 -23 161 -69s56 -109.667 56 -191c0 -15.333 -0.666992 -31 -2 -47zM402.002 306c0 52 -10.333 91.667 -31 119s-51.667 41 -93 41c-75.333 0 -116.333 -55.333 -123 -166h247v6zM358.002 801l41 -77l-212 -86l-28 49z" />
    <glyph glyph-name="ecircumflex" unicode="&#xea;" horiz-adv-x="545" 
d="M491 232h-335.998c4 -58 18.667 -100.667 44 -128s58 -41 98 -41c25.333 0 48.666 3.66699 69.999 11s43.666 19 66.999 35l40 -55c-56 -44 -117.333 -66 -184 -66c-73.333 0 -130.5 24 -171.5 72s-61.5 114 -61.5 198c0 54.667 8.83301 103.167 26.5 145.5
s43 75.5 76 99.5s71.833 36 116.5 36c70 0 123.667 -23 161 -69s56 -109.667 56 -191c0 -15.333 -0.666992 -31 -2 -47zM402.002 306c0 52 -10.333 91.667 -31 119s-51.667 41 -93 41c-75.333 0 -116.333 -55.333 -123 -166h247v6zM152.002 634l-39 45l135 113h61l136 -113
l-40 -45l-126 84z" />
    <glyph glyph-name="edieresis" unicode="&#xeb;" horiz-adv-x="545" 
d="M491 232h-335.998c4 -58 18.667 -100.667 44 -128s58 -41 98 -41c25.333 0 48.666 3.66699 69.999 11s43.666 19 66.999 35l40 -55c-56 -44 -117.333 -66 -184 -66c-73.333 0 -130.5 24 -171.5 72s-61.5 114 -61.5 198c0 54.667 8.83301 103.167 26.5 145.5
s43 75.5 76 99.5s71.833 36 116.5 36c70 0 123.667 -23 161 -69s56 -109.667 56 -191c0 -15.333 -0.666992 -31 -2 -47zM402.002 306c0 52 -10.333 91.667 -31 119s-51.667 41 -93 41c-75.333 0 -116.333 -55.333 -123 -166h247v6zM214.502 751.5
c11 -11 16.5 -24.5 16.5 -40.5s-5.5 -29.5 -16.5 -40.5s-24.5 -16.5 -40.5 -16.5c-16.667 0 -30.5 5.5 -41.5 16.5s-16.5 24.5 -16.5 40.5s5.5 29.5 16.5 40.5s24.833 16.5 41.5 16.5c16 0 29.5 -5.5 40.5 -16.5zM424.502 751.5c11 -11 16.5 -24.5 16.5 -40.5
s-5.5 -29.5 -16.5 -40.5s-24.833 -16.5 -41.5 -16.5c-16 0 -29.5 5.5 -40.5 16.5s-16.5 24.5 -16.5 40.5s5.5 29.5 16.5 40.5s24.5 16.5 40.5 16.5c16.667 0 30.5 -5.5 41.5 -16.5z" />
    <glyph glyph-name="igrave" unicode="&#xec;" horiz-adv-x="282" 
d="M187 527v-527h-92v527h92zM72 801l199 -114l-28 -49l-212 86z" />
    <glyph glyph-name="iacute" unicode="&#xed;" horiz-adv-x="282" 
d="M187 527v-527h-92v527h92zM220 801l41 -77l-212 -86l-28 49z" />
    <glyph glyph-name="icircumflex" unicode="&#xee;" horiz-adv-x="282" 
d="M187 527v-527h-92v527h92zM14 634l-39 45l135 113h61l136 -113l-40 -45l-126 84z" />
    <glyph glyph-name="idieresis" unicode="&#xef;" horiz-adv-x="282" 
d="M187 527v-527h-92v527h92zM76.5 751.5c11 -11 16.5 -24.5 16.5 -40.5s-5.5 -29.5 -16.5 -40.5s-24.5 -16.5 -40.5 -16.5c-16.667 0 -30.5 5.5 -41.5 16.5s-16.5 24.5 -16.5 40.5s5.5 29.5 16.5 40.5s24.833 16.5 41.5 16.5c16 0 29.5 -5.5 40.5 -16.5zM286.5 751.5
c11 -11 16.5 -24.5 16.5 -40.5s-5.5 -29.5 -16.5 -40.5s-24.833 -16.5 -41.5 -16.5c-16 0 -29.5 5.5 -40.5 16.5s-16.5 24.5 -16.5 40.5s5.5 29.5 16.5 40.5s24.5 16.5 40.5 16.5c16.667 0 30.5 -5.5 41.5 -16.5z" />
    <glyph glyph-name="eth" unicode="&#xf0;" horiz-adv-x="570" 
d="M470 500.5c25.333 -63.667 38.001 -142.166 38.001 -235.499c0 -55.333 -9.66699 -103.833 -29 -145.5s-46.333 -74 -81 -97s-74.667 -34.5 -120 -34.5c-41.333 0 -78.833 9.66699 -112.5 29s-60.167 47.666 -79.5 84.999s-29 81.666 -29 132.999
c0 41.333 7.5 80.333 22.5 117s37.667 66.334 68 89.001s67.166 34 110.499 34c60.667 0 109.667 -22.333 147 -67c-8 42 -21.5 79.167 -40.5 111.5s-45.167 61.5 -78.5 87.5l-72 -70l-63 32l74 75c-34.667 16 -72.334 28 -113.001 36l20 70
c56.667 -11.333 106.334 -27.333 149.001 -48l70 74l54 -47l-63 -65c60 -45.333 102.667 -99.833 128 -163.5zM377.501 114.001c25 35.333 37.499 86 37.499 152c0 14 -0.666992 33.667 -2 59c-17.333 26 -37.5 45.5 -60.5 58.5s-49.833 19.5 -80.5 19.5
c-80.667 0 -121 -54.667 -121 -164c0 -57.333 11.333 -101.333 34 -132s53.334 -46 92.001 -46c42 0 75.5 17.667 100.5 53z" />
    <glyph glyph-name="ntilde" unicode="&#xf1;" horiz-adv-x="586" 
d="M455.5 496c27 -28.667 40.499 -67.999 40.499 -117.999v-378h-92v365c0 37.333 -7 63.666 -21 78.999s-34.667 23 -62 23c-28 0 -52.667 -8 -74 -24s-41.333 -39 -60 -69v-374h-92v527h79l8 -78c18.667 28 41.834 50 69.501 66s58.167 24 91.5 24
c48 0 85.5 -14.333 112.5 -43zM321.499 663.001c-10.333 4.66699 -21.8281 11.334 -34.4951 20.001c-10 7.33301 -18.5 12.666 -25.5 15.999s-14.167 5 -21.5 5c-10.667 0 -20 -3.66699 -28 -11s-16.333 -19 -25 -35l-56 28c12.667 26.667 28.167 48 46.5 64
s39.166 24 62.499 24c14 0 26 -2.5 36 -7.5s21.333 -11.833 34 -20.5l12.5 -8c6.33301 -4 12.166 -7 17.499 -9s10.666 -3 15.999 -3c10 0 19 3.5 27 10.5s16.667 18.167 26 33.5l56 -28c-12.667 -28 -28.334 -49.333 -47.001 -64s-39.334 -22 -62.001 -22
c-12.667 0 -24.167 2.33301 -34.5 7z" />
    <glyph glyph-name="ograve" unicode="&#xf2;" horiz-adv-x="584" 
d="M465.5 465c41 -49.333 61.501 -116.333 61.501 -201c0 -54.667 -9.33301 -102.834 -28 -144.501s-45.667 -74 -81 -97s-77.333 -34.5 -126 -34.5c-74 0 -131.667 24.667 -173 74s-62 116.333 -62 201c0 54.667 9.33301 102.834 28 144.501s45.667 74 81 97
s77.666 34.5 126.999 34.5c74 0 131.5 -24.667 172.5 -74zM156.001 263c0 -134 45.333 -201 136 -201s136 67.333 136 202c0 134 -45 201 -135 201c-91.333 0 -137 -67.333 -137 -202zM223.001 801l199 -114l-28 -49l-212 86z" />
    <glyph glyph-name="oacute" unicode="&#xf3;" horiz-adv-x="584" 
d="M465.5 465c41 -49.333 61.501 -116.333 61.501 -201c0 -54.667 -9.33301 -102.834 -28 -144.501s-45.667 -74 -81 -97s-77.333 -34.5 -126 -34.5c-74 0 -131.667 24.667 -173 74s-62 116.333 -62 201c0 54.667 9.33301 102.834 28 144.501s45.667 74 81 97
s77.666 34.5 126.999 34.5c74 0 131.5 -24.667 172.5 -74zM156.001 263c0 -134 45.333 -201 136 -201s136 67.333 136 202c0 134 -45 201 -135 201c-91.333 0 -137 -67.333 -137 -202zM371.001 801l41 -77l-212 -86l-28 49z" />
    <glyph glyph-name="ocircumflex" unicode="&#xf4;" horiz-adv-x="584" 
d="M465.5 465c41 -49.333 61.501 -116.333 61.501 -201c0 -54.667 -9.33301 -102.834 -28 -144.501s-45.667 -74 -81 -97s-77.333 -34.5 -126 -34.5c-74 0 -131.667 24.667 -173 74s-62 116.333 -62 201c0 54.667 9.33301 102.834 28 144.501s45.667 74 81 97
s77.666 34.5 126.999 34.5c74 0 131.5 -24.667 172.5 -74zM156.001 263c0 -134 45.333 -201 136 -201s136 67.333 136 202c0 134 -45 201 -135 201c-91.333 0 -137 -67.333 -137 -202zM165.001 634l-39 45l135 113h61l136 -113l-40 -45l-126 84z" />
    <glyph glyph-name="otilde" unicode="&#xf5;" horiz-adv-x="584" 
d="M465.5 465c41 -49.333 61.501 -116.333 61.501 -201c0 -54.667 -9.33301 -102.834 -28 -144.501s-45.667 -74 -81 -97s-77.333 -34.5 -126 -34.5c-74 0 -131.667 24.667 -173 74s-62 116.333 -62 201c0 54.667 9.33301 102.834 28 144.501s45.667 74 81 97
s77.666 34.5 126.999 34.5c74 0 131.5 -24.667 172.5 -74zM156.001 263c0 -134 45.333 -201 136 -201s136 67.333 136 202c0 134 -45 201 -135 201c-91.333 0 -137 -67.333 -137 -202zM315.501 663c-10.333 4.66699 -21.8281 11.334 -34.4951 20.001
c-10 7.33301 -18.5 12.666 -25.5 15.999s-14.167 5 -21.5 5c-10.667 0 -20 -3.66699 -28 -11s-16.333 -19 -25 -35l-56 28c12.667 26.667 28.167 48 46.5 64s39.166 24 62.499 24c14 0 26 -2.5 36 -7.5s21.333 -11.833 34 -20.5l12.5 -8c6.33301 -4 12.166 -7 17.499 -9
s10.666 -3 15.999 -3c10 0 19 3.5 27 10.5s16.667 18.167 26 33.5l56 -28c-12.667 -28 -28.334 -49.333 -47.001 -64s-39.334 -22 -62.001 -22c-12.667 0 -24.167 2.33301 -34.5 7z" />
    <glyph glyph-name="odieresis" unicode="&#xf6;" horiz-adv-x="584" 
d="M465.5 465c41 -49.333 61.501 -116.333 61.501 -201c0 -54.667 -9.33301 -102.834 -28 -144.501s-45.667 -74 -81 -97s-77.333 -34.5 -126 -34.5c-74 0 -131.667 24.667 -173 74s-62 116.333 -62 201c0 54.667 9.33301 102.834 28 144.501s45.667 74 81 97
s77.666 34.5 126.999 34.5c74 0 131.5 -24.667 172.5 -74zM156.001 263c0 -134 45.333 -201 136 -201s136 67.333 136 202c0 134 -45 201 -135 201c-91.333 0 -137 -67.333 -137 -202zM227.501 751.5c11 -11 16.5 -24.5 16.5 -40.5s-5.5 -29.5 -16.5 -40.5
s-24.5 -16.5 -40.5 -16.5c-16.667 0 -30.5 5.5 -41.5 16.5s-16.5 24.5 -16.5 40.5s5.5 29.5 16.5 40.5s24.833 16.5 41.5 16.5c16 0 29.5 -5.5 40.5 -16.5zM437.501 751.5c11 -11 16.5 -24.5 16.5 -40.5s-5.5 -29.5 -16.5 -40.5s-24.833 -16.5 -41.5 -16.5
c-16 0 -29.5 5.5 -40.5 16.5s-16.5 24.5 -16.5 40.5s5.5 29.5 16.5 40.5s24.5 16.5 40.5 16.5c16.667 0 30.5 -5.5 41.5 -16.5z" />
    <glyph glyph-name="divide" unicode="&#xf7;" horiz-adv-x="500" 
d="M300 154c13.333 -13.333 20 -29.666 20 -48.999s-6.66699 -35.833 -20 -49.5s-30 -20.5 -50 -20.5c-19.333 0 -35.666 6.83301 -48.999 20.5s-20 30.167 -20 49.5s6.66699 35.666 20 48.999s29.666 20 48.999 20c20 0 36.667 -6.66699 50 -20zM300 611
c13.333 -13.333 20 -29.666 20 -48.999s-6.66699 -35.833 -20 -49.5s-30 -20.5 -50 -20.5c-19.333 0 -35.666 6.83301 -48.999 20.5s-20 30.167 -20 49.5s6.66699 35.666 20 48.999s29.666 20 48.999 20c20 0 36.667 -6.66699 50 -20zM62 294v77h376v-77h-376z" />
    <glyph glyph-name="oslash" unicode="&#xf8;" horiz-adv-x="584" 
d="M498.5 412.5c19 -41.667 28.501 -91.167 28.501 -148.5c0 -54.667 -9.33301 -102.834 -28 -144.501s-45.667 -74 -81 -97s-77.333 -34.5 -126 -34.5c-16 0 -33 1.66699 -51 5l-39 -123l-75 22l42 127c-36 22 -63.667 54 -83 96s-29 91.333 -29 148
c0 54.667 9.33301 102.834 28 144.501s45.667 74 81 97s77.666 34.5 126.999 34.5c16 0 33 -1.66699 51 -5l39 122l75 -22l-42 -126c36 -22 63.5 -53.833 82.5 -95.5zM156.001 263c0 -86 16 -144 48 -174l124 373c-11.333 2 -23 3 -35 3c-91.333 0 -137 -67.333 -137 -202z
M428.001 264c0 44.667 -3.83301 81 -11.5 109s-19.5 49.333 -35.5 64l-123 -372c10 -2 21.333 -3 34 -3c90.667 0 136 67.333 136 202z" />
    <glyph glyph-name="ugrave" unicode="&#xf9;" horiz-adv-x="582" 
d="M487 0h-79.001l-7 82c-20 -32.667 -43 -56.5 -69 -71.5s-57.667 -22.5 -95 -22.5c-46 0 -82 14 -108 42s-39 67.667 -39 119v378h92v-368c0 -36 6.33301 -61.5 19 -76.5s33.334 -22.5 62.001 -22.5c51.333 0 95.333 30.333 132 91v376h92v-527zM219.999 801l199 -114
l-28 -49l-212 86z" />
    <glyph glyph-name="uacute" unicode="&#xfa;" horiz-adv-x="582" 
d="M487 0h-79.001l-7 82c-20 -32.667 -43 -56.5 -69 -71.5s-57.667 -22.5 -95 -22.5c-46 0 -82 14 -108 42s-39 67.667 -39 119v378h92v-368c0 -36 6.33301 -61.5 19 -76.5s33.334 -22.5 62.001 -22.5c51.333 0 95.333 30.333 132 91v376h92v-527zM367.999 801l41 -77
l-212 -86l-28 49z" />
    <glyph glyph-name="ucircumflex" unicode="&#xfb;" horiz-adv-x="582" 
d="M487 0h-79.001l-7 82c-20 -32.667 -43 -56.5 -69 -71.5s-57.667 -22.5 -95 -22.5c-46 0 -82 14 -108 42s-39 67.667 -39 119v378h92v-368c0 -36 6.33301 -61.5 19 -76.5s33.334 -22.5 62.001 -22.5c51.333 0 95.333 30.333 132 91v376h92v-527zM161.999 634l-39 45
l135 113h61l136 -113l-40 -45l-126 84z" />
    <glyph glyph-name="udieresis" unicode="&#xfc;" horiz-adv-x="582" 
d="M487 0h-79.001l-7 82c-20 -32.667 -43 -56.5 -69 -71.5s-57.667 -22.5 -95 -22.5c-46 0 -82 14 -108 42s-39 67.667 -39 119v378h92v-368c0 -36 6.33301 -61.5 19 -76.5s33.334 -22.5 62.001 -22.5c51.333 0 95.333 30.333 132 91v376h92v-527zM224.499 751.5
c11 -11 16.5 -24.5 16.5 -40.5s-5.5 -29.5 -16.5 -40.5s-24.5 -16.5 -40.5 -16.5c-16.667 0 -30.5 5.5 -41.5 16.5s-16.5 24.5 -16.5 40.5s5.5 29.5 16.5 40.5s24.833 16.5 41.5 16.5c16 0 29.5 -5.5 40.5 -16.5zM434.499 751.5c11 -11 16.5 -24.5 16.5 -40.5
s-5.5 -29.5 -16.5 -40.5s-24.833 -16.5 -41.5 -16.5c-16 0 -29.5 5.5 -40.5 16.5s-16.5 24.5 -16.5 40.5s5.5 29.5 16.5 40.5s24.5 16.5 40.5 16.5c16.667 0 30.5 -5.5 41.5 -16.5z" />
    <glyph glyph-name="yacute" unicode="&#xfd;" horiz-adv-x="492" 
d="M306 -3c-20.667 -61.333 -49.501 -109.833 -86.501 -145.5s-89.833 -57.167 -158.5 -64.5l-10 72c34.667 6 62.334 14.667 83.001 26s37.167 25.833 49.5 43.5s23.833 41.5 34.5 71.5h-31l-177 527h98l141 -460l138 460h95zM324.999 801l41 -77l-212 -86l-28 49z" />
    <glyph glyph-name="thorn" unicode="&#xfe;" horiz-adv-x="594" 
d="M485 467c31.333 -48 47.001 -115.666 47.001 -202.999c0 -82.667 -18 -149.334 -54 -200.001s-87 -76 -153 -76c-58.667 0 -104.667 20 -138 60v-246l-92 -15v952l92 11v-287c18.667 24.667 41 43.5 67 56.5s53.667 19.5 83 19.5c67.333 0 116.666 -24 147.999 -72z
M433.001 264.001c0 134.667 -39.667 202 -119 202c-26 0 -49.667 -7.66699 -71 -23s-40 -35 -56 -59v-257c13.333 -20.667 30 -36.5 50 -47.5s42 -16.5 66 -16.5c86.667 0 130 67 130 201z" />
    <glyph glyph-name="ydieresis" unicode="&#xff;" horiz-adv-x="492" 
d="M306 -3c-20.667 -61.333 -49.501 -109.833 -86.501 -145.5s-89.833 -57.167 -158.5 -64.5l-10 72c34.667 6 62.334 14.667 83.001 26s37.167 25.833 49.5 43.5s23.833 41.5 34.5 71.5h-31l-177 527h98l141 -460l138 460h95zM181.499 751.5c11 -11 16.5 -24.5 16.5 -40.5
s-5.5 -29.5 -16.5 -40.5s-24.5 -16.5 -40.5 -16.5c-16.667 0 -30.5 5.5 -41.5 16.5s-16.5 24.5 -16.5 40.5s5.5 29.5 16.5 40.5s24.833 16.5 41.5 16.5c16 0 29.5 -5.5 40.5 -16.5zM391.499 751.5c11 -11 16.5 -24.5 16.5 -40.5s-5.5 -29.5 -16.5 -40.5
s-24.833 -16.5 -41.5 -16.5c-16 0 -29.5 5.5 -40.5 16.5s-16.5 24.5 -16.5 40.5s5.5 29.5 16.5 40.5s24.5 16.5 40.5 16.5c16.667 0 30.5 -5.5 41.5 -16.5z" />
    <glyph glyph-name="Amacron" unicode="&#x100;" horiz-adv-x="573" 
d="M467 0l-52 173h-261l-52 -173h-96l221 689h120l220 -689h-100zM177 250h215l-107 360zM423 793h-273v69h273v-69z" />
    <glyph glyph-name="amacron" unicode="&#x101;" horiz-adv-x="544" 
d="M461 75.5c7.33301 -10.333 18.332 -18.167 32.999 -23.5l-21 -64c-27.333 3.33301 -49.333 11 -66 23s-29 30.667 -37 56c-35.333 -52.667 -87.666 -79 -156.999 -79c-52 0 -93 14.667 -123 44s-45 67.666 -45 114.999c0 56 20.167 99 60.5 129s97.5 45 171.5 45h81v39
c0 37.333 -9 64 -27 80s-45.667 24 -83 24c-38.667 0 -86 -9.33301 -142 -28l-23 67c65.333 24 126 36 182 36c62 0 108.333 -15.167 139 -45.5s46 -73.5 46 -129.5v-241c0 -21.333 3.66699 -37.166 11 -47.499zM357.999 138.999v121h-69c-97.333 0 -146 -36 -146 -108
c0 -31.333 7.66699 -55 23 -71s38 -24 68 -24c52.667 0 94 27.333 124 82zM396.999 666.999h-273v69h273v-69z" />
    <glyph glyph-name="Abreve" unicode="&#x102;" horiz-adv-x="573" 
d="M467 0l-52 173h-261l-52 -173h-96l221 689h120l220 -689h-100zM177 250h215l-107 360zM183 792c-28 22.667 -44 52.333 -48 89l61 13c15.333 -44 45 -66 89 -66c22.667 0 41.834 5.83301 57.501 17.5s27.167 27.834 34.5 48.501l61 -13
c-4 -36.667 -20.333 -66.334 -49 -89.001s-63.334 -34 -104.001 -34c-40 0 -74 11.333 -102 34z" />
    <glyph glyph-name="abreve" unicode="&#x103;" horiz-adv-x="544" 
d="M461 75.5c7.33301 -10.333 18.332 -18.167 32.999 -23.5l-21 -64c-27.333 3.33301 -49.333 11 -66 23s-29 30.667 -37 56c-35.333 -52.667 -87.666 -79 -156.999 -79c-52 0 -93 14.667 -123 44s-45 67.666 -45 114.999c0 56 20.167 99 60.5 129s97.5 45 171.5 45h81v39
c0 37.333 -9 64 -27 80s-45.667 24 -83 24c-38.667 0 -86 -9.33301 -142 -28l-23 67c65.333 24 126 36 182 36c62 0 108.333 -15.167 139 -45.5s46 -73.5 46 -129.5v-241c0 -21.333 3.66699 -37.166 11 -47.499zM357.999 138.999v121h-69c-97.333 0 -146 -36 -146 -108
c0 -31.333 7.66699 -55 23 -71s38 -24 68 -24c52.667 0 94 27.333 124 82zM156.499 678.499c-27.667 23.667 -43.5 56.167 -47.5 97.5l61 13c14 -50.667 43.667 -76 89 -76c47.333 0 78 25.333 92 76l61 -13c-4 -41.333 -20.167 -73.833 -48.5 -97.5
s-63.166 -35.5 -104.499 -35.5c-40.667 0 -74.834 11.833 -102.501 35.5z" />
    <glyph glyph-name="Aogonek" unicode="&#x104;" horiz-adv-x="573" 
d="M430 -57.5c-17.333 -17.667 -26.002 -36.499 -26.002 -56.499c0 -32 18.667 -48 56 -48c18 0 38.333 2.33301 61 7l-9 -70c-23.333 -4.66699 -44.333 -7 -63 -7c-38 0 -68.333 9.5 -91 28.5s-34 43.167 -34 72.5c0 32 11.333 60 34 84s57.334 45 104.001 63l-47 157h-261
l-52 -173h-96l221 689h120l220 -689h-40c-47.333 -20.667 -79.666 -39.834 -96.999 -57.501zM176.998 250.001h215l-107 360z" />
    <glyph glyph-name="aogonek" unicode="&#x105;" horiz-adv-x="544" 
d="M376 -69.5c-17.333 -17.667 -26.002 -36.5 -26.002 -56.5c0 -32 18.667 -48 56 -48c18 0 38.333 2.33301 61 7l-9 -70c-23.333 -4.66699 -44.333 -7 -63 -7c-38 0 -68.333 9.5 -91 28.5s-34 43.167 -34 72.5c0 32.667 11.833 61.167 35.5 85.5s59.834 45.5 108.501 63.5
c-20.667 12.667 -35.334 33 -44.001 61c-35.333 -52.667 -87.666 -79 -156.999 -79c-52 0 -93 14.667 -123 44s-45 67.666 -45 114.999c0 56 20.167 99 60.5 129s97.5 45 171.5 45h81v39c0 37.333 -9 64 -27 80s-45.667 24 -83 24c-38.667 0 -86 -9.33301 -142 -28l-23 67
c65.333 24 126 36 182 36c62 0 108.333 -15.167 139 -45.5s46 -73.5 46 -129.5v-241c0 -21.333 3.66699 -37.166 11 -47.499s18.333 -18.166 33 -23.499l-21 -64c-47.333 -20.667 -79.666 -39.834 -96.999 -57.501zM357.998 139v121h-69c-97.333 0 -146 -36 -146 -108
c0 -31.333 7.66699 -55 23 -71s38 -24 68 -24c52.667 0 94 27.333 124 82z" />
    <glyph glyph-name="Cacute" unicode="&#x106;" 
d="M445.5 685c28.333 -10.667 57.168 -28.001 86.501 -52.001l-52 -61c-42 34 -86.333 51 -133 51c-57.333 0 -103.5 -22 -138.5 -66s-52.5 -114.667 -52.5 -212c0 -94.667 17.333 -164.5 52 -209.5s80.667 -67.5 138 -67.5c29.333 0 55 5 77 15s45.333 24 70 42l47 -60
c-21.333 -22 -48.666 -40.333 -81.999 -55s-71.666 -22 -114.999 -22c-56 0 -105.833 13.833 -149.5 41.5s-77.667 68.334 -102 122.001s-36.5 118.167 -36.5 193.5s12.667 139.833 38 193.5s59.666 94.167 102.999 121.5s91.666 41 144.999 41
c41.333 0 76.166 -5.33301 104.499 -16zM427.002 910.999l40 -77l-216 -79l-24 49z" />
    <glyph glyph-name="cacute" unicode="&#x107;" horiz-adv-x="478" 
d="M373 525.5c26 -9 51.0049 -23.498 75.0049 -43.498l-44 -58c-18.667 13.333 -36.834 23.166 -54.501 29.499s-37.167 9.5 -58.5 9.5c-42.667 0 -75.834 -17 -99.501 -51s-35.5 -84.333 -35.5 -151s11.667 -115.834 35 -147.501s56.666 -47.5 99.999 -47.5
c20.667 0 39.667 3.16699 57 9.5s36.666 16.5 57.999 30.5l42 -60c-48 -38.667 -101.667 -58 -161 -58c-71.333 0 -127.5 24 -168.5 72s-61.5 114.333 -61.5 199c0 56 9.33301 105 28 147s45.167 74.667 79.5 98s75.166 35 122.499 35c31.333 0 60 -4.5 86 -13.5z
M368.005 801.002l41 -77l-212 -86l-28 49z" />
    <glyph glyph-name="Ccircumflex" unicode="&#x108;" 
d="M445.5 685c28.333 -10.667 57.168 -28.001 86.501 -52.001l-52 -61c-42 34 -86.333 51 -133 51c-57.333 0 -103.5 -22 -138.5 -66s-52.5 -114.667 -52.5 -212c0 -94.667 17.333 -164.5 52 -209.5s80.667 -67.5 138 -67.5c29.333 0 55 5 77 15s45.333 24 70 42l47 -60
c-21.333 -22 -48.666 -40.333 -81.999 -55s-71.666 -22 -114.999 -22c-56 0 -105.833 13.833 -149.5 41.5s-77.667 68.334 -102 122.001s-36.5 118.167 -36.5 193.5s12.667 139.833 38 193.5s59.666 94.167 102.999 121.5s91.666 41 144.999 41
c41.333 0 76.166 -5.33301 104.499 -16zM220.002 758.999l-40 45l136 110h61l135 -110l-39 -45l-127 81z" />
    <glyph glyph-name="ccircumflex" unicode="&#x109;" horiz-adv-x="478" 
d="M373 525.5c26 -9 51.0049 -23.498 75.0049 -43.498l-44 -58c-18.667 13.333 -36.834 23.166 -54.501 29.499s-37.167 9.5 -58.5 9.5c-42.667 0 -75.834 -17 -99.501 -51s-35.5 -84.333 -35.5 -151s11.667 -115.834 35 -147.501s56.666 -47.5 99.999 -47.5
c20.667 0 39.667 3.16699 57 9.5s36.666 16.5 57.999 30.5l42 -60c-48 -38.667 -101.667 -58 -161 -58c-71.333 0 -127.5 24 -168.5 72s-61.5 114.333 -61.5 199c0 56 9.33301 105 28 147s45.167 74.667 79.5 98s75.166 35 122.499 35c31.333 0 60 -4.5 86 -13.5z
M162.005 634.002l-39 45l135 113h61l136 -113l-40 -45l-126 84z" />
    <glyph glyph-name="Cdotaccent" unicode="&#x10a;" 
d="M445.5 685c28.333 -10.667 57.168 -28.001 86.501 -52.001l-52 -61c-42 34 -86.333 51 -133 51c-57.333 0 -103.5 -22 -138.5 -66s-52.5 -114.667 -52.5 -212c0 -94.667 17.333 -164.5 52 -209.5s80.667 -67.5 138 -67.5c29.333 0 55 5 77 15s45.333 24 70 42l47 -60
c-21.333 -22 -48.666 -40.333 -81.999 -55s-71.666 -22 -114.999 -22c-56 0 -105.833 13.833 -149.5 41.5s-77.667 68.334 -102 122.001s-36.5 118.167 -36.5 193.5s12.667 139.833 38 193.5s59.666 94.167 102.999 121.5s91.666 41 144.999 41
c41.333 0 76.166 -5.33301 104.499 -16zM393.002 887.999c12 -12 18 -27 18 -45s-6 -32.833 -18 -44.5s-27.667 -17.5 -47 -17.5c-18.667 0 -34 5.83301 -46 17.5s-18 26.5 -18 44.5s6 33 18 45s27.333 18 46 18c19.333 0 35 -6 47 -18z" />
    <glyph glyph-name="cdotaccent" unicode="&#x10b;" horiz-adv-x="478" 
d="M373 525.5c26 -9 51.0049 -23.498 75.0049 -43.498l-44 -58c-18.667 13.333 -36.834 23.166 -54.501 29.499s-37.167 9.5 -58.5 9.5c-42.667 0 -75.834 -17 -99.501 -51s-35.5 -84.333 -35.5 -151s11.667 -115.834 35 -147.501s56.666 -47.5 99.999 -47.5
c20.667 0 39.667 3.16699 57 9.5s36.666 16.5 57.999 30.5l42 -60c-48 -38.667 -101.667 -58 -161 -58c-71.333 0 -127.5 24 -168.5 72s-61.5 114.333 -61.5 199c0 56 9.33301 105 28 147s45.167 74.667 79.5 98s75.166 35 122.499 35c31.333 0 60 -4.5 86 -13.5z
M335.005 762.002c12 -12 18 -27 18 -45s-6 -32.833 -18 -44.5s-27.667 -17.5 -47 -17.5c-18.667 0 -34 5.83301 -46 17.5s-18 26.5 -18 44.5s6 33 18 45s27.333 18 46 18c19.333 0 35 -6 47 -18z" />
    <glyph glyph-name="Ccaron" unicode="&#x10c;" 
d="M445.5 685c28.333 -10.667 57.168 -28.001 86.501 -52.001l-52 -61c-42 34 -86.333 51 -133 51c-57.333 0 -103.5 -22 -138.5 -66s-52.5 -114.667 -52.5 -212c0 -94.667 17.333 -164.5 52 -209.5s80.667 -67.5 138 -67.5c29.333 0 55 5 77 15s45.333 24 70 42l47 -60
c-21.333 -22 -48.666 -40.333 -81.999 -55s-71.666 -22 -114.999 -22c-56 0 -105.833 13.833 -149.5 41.5s-77.667 68.334 -102 122.001s-36.5 118.167 -36.5 193.5s12.667 139.833 38 193.5s59.666 94.167 102.999 121.5s91.666 41 144.999 41
c41.333 0 76.166 -5.33301 104.499 -16zM474.002 908.999l39 -45l-135 -110h-61l-136 110l40 45l126 -81z" />
    <glyph glyph-name="ccaron" unicode="&#x10d;" horiz-adv-x="478" 
d="M373 525.5c26 -9 51.0049 -23.498 75.0049 -43.498l-44 -58c-18.667 13.333 -36.834 23.166 -54.501 29.499s-37.167 9.5 -58.5 9.5c-42.667 0 -75.834 -17 -99.501 -51s-35.5 -84.333 -35.5 -151s11.667 -115.834 35 -147.501s56.666 -47.5 99.999 -47.5
c20.667 0 39.667 3.16699 57 9.5s36.666 16.5 57.999 30.5l42 -60c-48 -38.667 -101.667 -58 -161 -58c-71.333 0 -127.5 24 -168.5 72s-61.5 114.333 -61.5 199c0 56 9.33301 105 28 147s45.167 74.667 79.5 98s75.166 35 122.499 35c31.333 0 60 -4.5 86 -13.5z
M416.005 785.002l39 -45l-135 -113h-61l-136 113l40 45l126 -84z" />
    <glyph glyph-name="Dcaron" unicode="&#x10e;" horiz-adv-x="644" 
d="M494.5 616.5c63 -48.333 94.5 -137.834 94.5 -268.501c0 -127.333 -31.5 -217.166 -94.5 -269.499s-139.5 -78.5 -229.5 -78.5h-165v689h144c104 0 187.5 -24.167 250.5 -72.5zM195 612.999v-537.999h77c64 0 116 19.667 156 59s60 110.666 60 213.999
c0 72.667 -10.333 128.5 -31 167.5s-47 65 -79 78s-69.667 19.5 -113 19.5h-70zM430 909l39 -45l-135 -110h-61l-136 110l40 45l126 -81z" />
    <glyph glyph-name="dcaron" unicode="&#x10f;" horiz-adv-x="598" 
d="M503 739v-738.999h-81l-9 73c-17.333 -26.667 -39 -47.5 -65 -62.5s-55 -22.5 -87 -22.5c-62.667 0 -111.5 24.667 -146.5 74s-52.5 115.666 -52.5 198.999c0 54 8.33301 102 25 144s40.667 74.833 72 98.5s68 35.5 110 35.5c54 0 101.333 -21.667 142 -65v276z
M353 80.501c20 13 39.333 32.499 58 58.499v258c-17.333 22.667 -35.833 39.834 -55.5 51.501s-41.834 17.5 -66.501 17.5c-40.667 0 -72.167 -17 -94.5 -51s-33.5 -84.667 -33.5 -152c0 -68 10.333 -118.667 31 -152s50.334 -50 89.001 -50c28 0 52 6.5 72 19.5zM601 555
l50 184l-83 10l-20 -186z" />
    <glyph glyph-name="Dcroat" unicode="&#x110;" horiz-adv-x="656" 
d="M506.5 616.5c63 -48.333 94.5 -137.834 94.5 -268.501c0 -127.333 -31.5 -217.166 -94.5 -269.499s-139.5 -78.5 -229.5 -78.5h-165v318h-92v70h92v301h144c104 0 187.5 -24.167 250.5 -72.5zM440 133.999c40 39.333 60 110.667 60 214c0 72.667 -10.333 128.5 -31 167.5
s-47 65 -79 78s-69.667 19.5 -113 19.5h-70v-225h157v-70h-157v-243h77c64 0 116 19.667 156 59z" />
    <glyph glyph-name="dcroat" unicode="&#x111;" horiz-adv-x="604" 
d="M582 676v-69.999h-79v-606h-81l-9 73c-17.333 -26.667 -39 -47.5 -65 -62.5s-55 -22.5 -87 -22.5c-62.667 0 -111.5 24.667 -146.5 74s-52.5 115.666 -52.5 198.999c0 54 8.33301 102 25 144s40.667 74.833 72 98.5s68 35.5 110 35.5c54 0 101.333 -21.667 142 -65v132
h-158v70h158v74l92 -11v-63h79zM353 80.501c20 13 39.333 32.499 58 58.499v258c-17.333 22.667 -35.833 39.834 -55.5 51.501s-41.834 17.5 -66.501 17.5c-40.667 0 -72.167 -17 -94.5 -51s-33.5 -84.667 -33.5 -152c0 -68 10.333 -118.667 31 -152s50.334 -50 89.001 -50
c28 0 52 6.5 72 19.5z" />
    <glyph glyph-name="Emacron" unicode="&#x112;" horiz-adv-x="535" 
d="M473 689l-11 -76h-267v-225h232v-76h-232v-236h286v-76h-381v689h373zM426 793h-273v69h273v-69z" />
    <glyph glyph-name="emacron" unicode="&#x113;" horiz-adv-x="545" 
d="M491 232h-335.998c4 -58 18.667 -100.667 44 -128s58 -41 98 -41c25.333 0 48.666 3.66699 69.999 11s43.666 19 66.999 35l40 -55c-56 -44 -117.333 -66 -184 -66c-73.333 0 -130.5 24 -171.5 72s-61.5 114 -61.5 198c0 54.667 8.83301 103.167 26.5 145.5
s43 75.5 76 99.5s71.833 36 116.5 36c70 0 123.667 -23 161 -69s56 -109.667 56 -191c0 -15.333 -0.666992 -31 -2 -47zM402.002 306c0 52 -10.333 91.667 -31 119s-51.667 41 -93 41c-75.333 0 -116.333 -55.333 -123 -166h247v6zM415.002 667h-273v69h273v-69z" />
    <glyph glyph-name="Ebreve" unicode="&#x114;" horiz-adv-x="535" 
d="M473 689l-11 -76h-267v-225h232v-76h-232v-236h286v-76h-381v689h373zM186 792c-28 22.667 -44 52.333 -48 89l61 13c15.333 -44 45 -66 89 -66c22.667 0 41.834 5.83301 57.501 17.5s27.167 27.834 34.5 48.501l61 -13c-4 -36.667 -20.333 -66.334 -49 -89.001
s-63.334 -34 -104.001 -34c-40 0 -74 11.333 -102 34z" />
    <glyph glyph-name="ebreve" unicode="&#x115;" horiz-adv-x="545" 
d="M491 232h-335.998c4 -58 18.667 -100.667 44 -128s58 -41 98 -41c25.333 0 48.666 3.66699 69.999 11s43.666 19 66.999 35l40 -55c-56 -44 -117.333 -66 -184 -66c-73.333 0 -130.5 24 -171.5 72s-61.5 114 -61.5 198c0 54.667 8.83301 103.167 26.5 145.5
s43 75.5 76 99.5s71.833 36 116.5 36c70 0 123.667 -23 161 -69s56 -109.667 56 -191c0 -15.333 -0.666992 -31 -2 -47zM402.002 306c0 52 -10.333 91.667 -31 119s-51.667 41 -93 41c-75.333 0 -116.333 -55.333 -123 -166h247v6zM174.502 678.5
c-27.667 23.667 -43.5 56.167 -47.5 97.5l61 13c14 -50.667 43.667 -76 89 -76c47.333 0 78 25.333 92 76l61 -13c-4 -41.333 -20.167 -73.833 -48.5 -97.5s-63.166 -35.5 -104.499 -35.5c-40.667 0 -74.834 11.833 -102.501 35.5z" />
    <glyph glyph-name="Edotaccent" unicode="&#x116;" horiz-adv-x="535" 
d="M473 689l-11 -76h-267v-225h232v-76h-232v-236h286v-76h-381v689h373zM336 888c12 -12 18 -27 18 -45s-6 -32.833 -18 -44.5s-27.667 -17.5 -47 -17.5c-18.667 0 -34 5.83301 -46 17.5s-18 26.5 -18 44.5s6 33 18 45s27.333 18 46 18c19.333 0 35 -6 47 -18z" />
    <glyph glyph-name="edotaccent" unicode="&#x117;" horiz-adv-x="545" 
d="M491 232h-335.998c4 -58 18.667 -100.667 44 -128s58 -41 98 -41c25.333 0 48.666 3.66699 69.999 11s43.666 19 66.999 35l40 -55c-56 -44 -117.333 -66 -184 -66c-73.333 0 -130.5 24 -171.5 72s-61.5 114 -61.5 198c0 54.667 8.83301 103.167 26.5 145.5
s43 75.5 76 99.5s71.833 36 116.5 36c70 0 123.667 -23 161 -69s56 -109.667 56 -191c0 -15.333 -0.666992 -31 -2 -47zM402.002 306c0 52 -10.333 91.667 -31 119s-51.667 41 -93 41c-75.333 0 -116.333 -55.333 -123 -166h247v6zM325.002 762c12 -12 18 -27 18 -45
s-6 -32.833 -18 -44.5s-27.667 -17.5 -47 -17.5c-18.667 0 -34 5.83301 -46 17.5s-18 26.5 -18 44.5s6 33 18 45s27.333 18 46 18c19.333 0 35 -6 47 -18z" />
    <glyph glyph-name="Eogonek" unicode="&#x118;" horiz-adv-x="535" 
d="M481 76l-0.000976562 -75.9971h-40c-47.333 -20.667 -79.666 -39.834 -96.999 -57.501s-26 -36.5 -26 -56.5c0 -32 18.667 -48 56 -48c18 0 38.333 2.33301 61 7l-9 -70c-23.333 -4.66699 -44.333 -7 -63 -7c-38 0 -68.333 9.5 -91 28.5s-34 43.167 -34 72.5
c0 27.333 8.33301 51.666 25 72.999s42 40.666 76 57.999h-239v689h373l-11 -76h-267v-225h232v-76h-232v-236h286z" />
    <glyph glyph-name="eogonek" unicode="&#x119;" horiz-adv-x="545" 
d="M491 232l-335.998 -0.00292969c4 -58 18.667 -100.667 44 -128s58 -41 98 -41c25.333 0 48.666 3.66699 69.999 11s43.666 19 66.999 35l40 -55c-29.333 -23.333 -60.333 -40.666 -93 -51.999c-44 -19.333 -74.167 -37.666 -90.5 -54.999s-24.5 -35.666 -24.5 -54.999
c0 -32 18.667 -48 56 -48c18 0 38.333 2.33301 61 7l-9 -70c-23.333 -4.66699 -44.333 -7 -63 -7c-38 0 -68.333 9.5 -91 28.5s-34 43.167 -34 72.5c0 48 27.667 86 83 114c-66.667 4.66699 -118.667 30.667 -156 78s-56 111 -56 191c0 54.667 8.83301 103.167 26.5 145.5
s43 75.5 76 99.5s71.833 36 116.5 36c70 0 123.667 -23 161 -69s56 -109.667 56 -191c0 -15.333 -0.666992 -31 -2 -47zM402.002 305.997c0 52 -10.333 91.667 -31 119s-51.667 41 -93 41c-75.333 0 -116.333 -55.333 -123 -166h247v6z" />
    <glyph glyph-name="Ecaron" unicode="&#x11a;" horiz-adv-x="535" 
d="M473 689l-11 -76h-267v-225h232v-76h-232v-236h286v-76h-381v689h373zM417 909l39 -45l-135 -110h-61l-136 110l40 45l126 -81z" />
    <glyph glyph-name="ecaron" unicode="&#x11b;" horiz-adv-x="545" 
d="M491 232h-335.998c4 -58 18.667 -100.667 44 -128s58 -41 98 -41c25.333 0 48.666 3.66699 69.999 11s43.666 19 66.999 35l40 -55c-56 -44 -117.333 -66 -184 -66c-73.333 0 -130.5 24 -171.5 72s-61.5 114 -61.5 198c0 54.667 8.83301 103.167 26.5 145.5
s43 75.5 76 99.5s71.833 36 116.5 36c70 0 123.667 -23 161 -69s56 -109.667 56 -191c0 -15.333 -0.666992 -31 -2 -47zM402.002 306c0 52 -10.333 91.667 -31 119s-51.667 41 -93 41c-75.333 0 -116.333 -55.333 -123 -166h247v6zM406.002 785l39 -45l-135 -113h-61
l-136 113l40 45l126 -84z" />
    <glyph glyph-name="Gcircumflex" unicode="&#x11c;" horiz-adv-x="631" 
d="M466.5 682.5c31.667 -12.333 63.1689 -31.502 94.502 -57.502l-56 -58c-24.667 20 -48.334 34.333 -71.001 43s-49.334 13 -80.001 13c-35.333 0 -67.833 -9.5 -97.5 -28.5s-53.834 -49.333 -72.501 -91s-28 -94.5 -28 -158.5c0 -96.667 15.833 -167.334 47.5 -212.001
s78.5 -67 140.5 -67c50.667 0 94.334 10.333 131.001 31v208h-122l-11 77h227v-333c-71.333 -40.667 -146.333 -61 -225 -61c-90.667 0 -161.5 30.333 -212.5 91s-76.5 149.334 -76.5 266.001c0 74.667 13.5 138.834 40.5 192.501s63.333 94.334 109 122.001
s95.5 41.5 149.5 41.5c43.333 0 80.833 -6.16699 112.5 -18.5zM228.002 758.998l-40 45l136 110h61l135 -110l-39 -45l-127 81z" />
    <glyph glyph-name="gcircumflex" unicode="&#x11d;" horiz-adv-x="520" 
d="M520 503c-20 -6.66699 -41.999 -11.0029 -65.999 -13.0029s-53.333 -3 -88 -3c62 -28 93 -72.333 93 -133c0 -52.667 -18 -95.667 -54 -129s-85 -50 -147 -50c-24 0 -46.333 3.33301 -67 10c-8 -5.33301 -14.333 -12.5 -19 -21.5s-7 -18.167 -7 -27.5
c0 -28.667 23 -43 69 -43h84c35.333 0 66.666 -6.33301 93.999 -19s48.5 -30 63.5 -52s22.5 -47 22.5 -75c0 -51.333 -21 -90.833 -63 -118.5s-103.333 -41.5 -184 -41.5c-56.667 0 -101.5 5.83301 -134.5 17.5s-56.5 29.167 -70.5 52.5s-21 53.333 -21 90h83
c0 -21.333 4 -38.166 12 -50.499s22.333 -21.666 43 -27.999s50 -9.5 88 -9.5c55.333 0 94.833 6.83301 118.5 20.5s35.5 34.167 35.5 61.5c0 24.667 -9.33301 43.334 -28 56.001s-44.667 19 -78 19h-83c-44.667 0 -78.5 9.5 -101.5 28.5s-34.5 42.833 -34.5 71.5
c0 17.333 5 34 15 50s24.333 30.333 43 43c-30.667 16 -53.167 35.833 -67.5 59.5s-21.5 52.5 -21.5 86.5c0 35.333 8.83301 67 26.5 95s42 49.833 73 65.5s65.5 23.5 103.5 23.5c41.333 -0.666992 76 0.833008 104 4.5s51.167 8.66699 69.5 15s40.833 15.5 67.5 27.5z
M171.501 440.497c-19 -21.667 -28.499 -50.167 -28.499 -85.5c0 -36 9.66699 -64.833 29 -86.5s46.666 -32.5 81.999 -32.5c36 0 63.5 10.5 82.5 31.5s28.5 50.5 28.5 88.5c0 78 -37.667 117 -113 117c-34.667 0 -61.5 -10.833 -80.5 -32.5zM133.002 633.997l-39 45l135 113
h61l136 -113l-40 -45l-126 84z" />
    <glyph glyph-name="Gbreve" unicode="&#x11e;" horiz-adv-x="631" 
d="M466.5 682.5c31.667 -12.333 63.1689 -31.502 94.502 -57.502l-56 -58c-24.667 20 -48.334 34.333 -71.001 43s-49.334 13 -80.001 13c-35.333 0 -67.833 -9.5 -97.5 -28.5s-53.834 -49.333 -72.501 -91s-28 -94.5 -28 -158.5c0 -96.667 15.833 -167.334 47.5 -212.001
s78.5 -67 140.5 -67c50.667 0 94.334 10.333 131.001 31v208h-122l-11 77h227v-333c-71.333 -40.667 -146.333 -61 -225 -61c-90.667 0 -161.5 30.333 -212.5 91s-76.5 149.334 -76.5 266.001c0 74.667 13.5 138.834 40.5 192.501s63.333 94.334 109 122.001
s95.5 41.5 149.5 41.5c43.333 0 80.833 -6.16699 112.5 -18.5zM251.002 791.998c-28 22.667 -44 52.333 -48 89l61 13c15.333 -44 45 -66 89 -66c22.667 0 41.834 5.83301 57.501 17.5s27.167 27.834 34.5 48.501l61 -13c-4 -36.667 -20.333 -66.334 -49 -89.001
s-63.334 -34 -104.001 -34c-40 0 -74 11.333 -102 34z" />
    <glyph glyph-name="gbreve" unicode="&#x11f;" horiz-adv-x="520" 
d="M520 503c-20 -6.66699 -41.999 -11.0029 -65.999 -13.0029s-53.333 -3 -88 -3c62 -28 93 -72.333 93 -133c0 -52.667 -18 -95.667 -54 -129s-85 -50 -147 -50c-24 0 -46.333 3.33301 -67 10c-8 -5.33301 -14.333 -12.5 -19 -21.5s-7 -18.167 -7 -27.5
c0 -28.667 23 -43 69 -43h84c35.333 0 66.666 -6.33301 93.999 -19s48.5 -30 63.5 -52s22.5 -47 22.5 -75c0 -51.333 -21 -90.833 -63 -118.5s-103.333 -41.5 -184 -41.5c-56.667 0 -101.5 5.83301 -134.5 17.5s-56.5 29.167 -70.5 52.5s-21 53.333 -21 90h83
c0 -21.333 4 -38.166 12 -50.499s22.333 -21.666 43 -27.999s50 -9.5 88 -9.5c55.333 0 94.833 6.83301 118.5 20.5s35.5 34.167 35.5 61.5c0 24.667 -9.33301 43.334 -28 56.001s-44.667 19 -78 19h-83c-44.667 0 -78.5 9.5 -101.5 28.5s-34.5 42.833 -34.5 71.5
c0 17.333 5 34 15 50s24.333 30.333 43 43c-30.667 16 -53.167 35.833 -67.5 59.5s-21.5 52.5 -21.5 86.5c0 35.333 8.83301 67 26.5 95s42 49.833 73 65.5s65.5 23.5 103.5 23.5c41.333 -0.666992 76 0.833008 104 4.5s51.167 8.66699 69.5 15s40.833 15.5 67.5 27.5z
M171.501 440.497c-19 -21.667 -28.499 -50.167 -28.499 -85.5c0 -36 9.66699 -64.833 29 -86.5s46.666 -32.5 81.999 -32.5c36 0 63.5 10.5 82.5 31.5s28.5 50.5 28.5 88.5c0 78 -37.667 117 -113 117c-34.667 0 -61.5 -10.833 -80.5 -32.5zM155.502 678.497
c-27.667 23.667 -43.5 56.167 -47.5 97.5l61 13c14 -50.667 43.667 -76 89 -76c47.333 0 78 25.333 92 76l61 -13c-4 -41.333 -20.167 -73.833 -48.5 -97.5s-63.166 -35.5 -104.499 -35.5c-40.667 0 -74.834 11.833 -102.501 35.5z" />
    <glyph glyph-name="Gdotaccent" unicode="&#x120;" horiz-adv-x="631" 
d="M466.5 682.5c31.667 -12.333 63.1689 -31.502 94.502 -57.502l-56 -58c-24.667 20 -48.334 34.333 -71.001 43s-49.334 13 -80.001 13c-35.333 0 -67.833 -9.5 -97.5 -28.5s-53.834 -49.333 -72.501 -91s-28 -94.5 -28 -158.5c0 -96.667 15.833 -167.334 47.5 -212.001
s78.5 -67 140.5 -67c50.667 0 94.334 10.333 131.001 31v208h-122l-11 77h227v-333c-71.333 -40.667 -146.333 -61 -225 -61c-90.667 0 -161.5 30.333 -212.5 91s-76.5 149.334 -76.5 266.001c0 74.667 13.5 138.834 40.5 192.501s63.333 94.334 109 122.001
s95.5 41.5 149.5 41.5c43.333 0 80.833 -6.16699 112.5 -18.5zM401.002 887.998c12 -12 18 -27 18 -45s-6 -32.833 -18 -44.5s-27.667 -17.5 -47 -17.5c-18.667 0 -34 5.83301 -46 17.5s-18 26.5 -18 44.5s6 33 18 45s27.333 18 46 18c19.333 0 35 -6 47 -18z" />
    <glyph glyph-name="gdotaccent" unicode="&#x121;" horiz-adv-x="520" 
d="M520 503c-20 -6.66699 -41.999 -11.0029 -65.999 -13.0029s-53.333 -3 -88 -3c62 -28 93 -72.333 93 -133c0 -52.667 -18 -95.667 -54 -129s-85 -50 -147 -50c-24 0 -46.333 3.33301 -67 10c-8 -5.33301 -14.333 -12.5 -19 -21.5s-7 -18.167 -7 -27.5
c0 -28.667 23 -43 69 -43h84c35.333 0 66.666 -6.33301 93.999 -19s48.5 -30 63.5 -52s22.5 -47 22.5 -75c0 -51.333 -21 -90.833 -63 -118.5s-103.333 -41.5 -184 -41.5c-56.667 0 -101.5 5.83301 -134.5 17.5s-56.5 29.167 -70.5 52.5s-21 53.333 -21 90h83
c0 -21.333 4 -38.166 12 -50.499s22.333 -21.666 43 -27.999s50 -9.5 88 -9.5c55.333 0 94.833 6.83301 118.5 20.5s35.5 34.167 35.5 61.5c0 24.667 -9.33301 43.334 -28 56.001s-44.667 19 -78 19h-83c-44.667 0 -78.5 9.5 -101.5 28.5s-34.5 42.833 -34.5 71.5
c0 17.333 5 34 15 50s24.333 30.333 43 43c-30.667 16 -53.167 35.833 -67.5 59.5s-21.5 52.5 -21.5 86.5c0 35.333 8.83301 67 26.5 95s42 49.833 73 65.5s65.5 23.5 103.5 23.5c41.333 -0.666992 76 0.833008 104 4.5s51.167 8.66699 69.5 15s40.833 15.5 67.5 27.5z
M171.501 440.497c-19 -21.667 -28.499 -50.167 -28.499 -85.5c0 -36 9.66699 -64.833 29 -86.5s46.666 -32.5 81.999 -32.5c36 0 63.5 10.5 82.5 31.5s28.5 50.5 28.5 88.5c0 78 -37.667 117 -113 117c-34.667 0 -61.5 -10.833 -80.5 -32.5zM306.002 761.997
c12 -12 18 -27 18 -45s-6 -32.833 -18 -44.5s-27.667 -17.5 -47 -17.5c-18.667 0 -34 5.83301 -46 17.5s-18 26.5 -18 44.5s6 33 18 45s27.333 18 46 18c19.333 0 35 -6 47 -18z" />
    <glyph glyph-name="Gcommaaccent" unicode="&#x122;" horiz-adv-x="631" 
d="M466.5 682.5c31.667 -12.333 63.1689 -31.502 94.502 -57.502l-56 -58c-24.667 20 -48.334 34.333 -71.001 43s-49.334 13 -80.001 13c-35.333 0 -67.833 -9.5 -97.5 -28.5s-53.834 -49.333 -72.501 -91s-28 -94.5 -28 -158.5c0 -96.667 15.833 -167.334 47.5 -212.001
s78.5 -67 140.5 -67c50.667 0 94.334 10.333 131.001 31v208h-122l-11 77h227v-333c-71.333 -40.667 -146.333 -61 -225 -61c-90.667 0 -161.5 30.333 -212.5 91s-76.5 149.334 -76.5 266.001c0 74.667 13.5 138.834 40.5 192.501s63.333 94.334 109 122.001
s95.5 41.5 149.5 41.5c43.333 0 80.833 -6.16699 112.5 -18.5zM386.502 -93.002c11 -10.667 16.5 -23.999 16.5 -39.999c0 -8.66699 -1.83301 -18.334 -5.5 -29.001s-10.5 -26.667 -20.5 -48l-41 -86h-53l29 116c-16 14 -24 29.667 -24 47c0 16 5.66699 29.333 17 40
s25 16 41 16s29.5 -5.33301 40.5 -16z" />
    <glyph glyph-name="gcommaaccent" unicode="&#x123;" horiz-adv-x="520" 
d="M520 503c-20 -6.66699 -41.999 -11.0029 -65.999 -13.0029s-53.333 -3 -88 -3c62 -28 93 -72.333 93 -133c0 -52.667 -18 -95.667 -54 -129s-85 -50 -147 -50c-24 0 -46.333 3.33301 -67 10c-8 -5.33301 -14.333 -12.5 -19 -21.5s-7 -18.167 -7 -27.5
c0 -28.667 23 -43 69 -43h84c35.333 0 66.666 -6.33301 93.999 -19s48.5 -30 63.5 -52s22.5 -47 22.5 -75c0 -51.333 -21 -90.833 -63 -118.5s-103.333 -41.5 -184 -41.5c-56.667 0 -101.5 5.83301 -134.5 17.5s-56.5 29.167 -70.5 52.5s-21 53.333 -21 90h83
c0 -21.333 4 -38.166 12 -50.499s22.333 -21.666 43 -27.999s50 -9.5 88 -9.5c55.333 0 94.833 6.83301 118.5 20.5s35.5 34.167 35.5 61.5c0 24.667 -9.33301 43.334 -28 56.001s-44.667 19 -78 19h-83c-44.667 0 -78.5 9.5 -101.5 28.5s-34.5 42.833 -34.5 71.5
c0 17.333 5 34 15 50s24.333 30.333 43 43c-30.667 16 -53.167 35.833 -67.5 59.5s-21.5 52.5 -21.5 86.5c0 35.333 8.83301 67 26.5 95s42 49.833 73 65.5s65.5 23.5 103.5 23.5c41.333 -0.666992 76 0.833008 104 4.5s51.167 8.66699 69.5 15s40.833 15.5 67.5 27.5z
M171.501 440.497c-19 -21.667 -28.499 -50.167 -28.499 -85.5c0 -36 9.66699 -64.833 29 -86.5s46.666 -32.5 81.999 -32.5c36 0 63.5 10.5 82.5 31.5s28.5 50.5 28.5 88.5c0 78 -37.667 117 -113 117c-34.667 0 -61.5 -10.833 -80.5 -32.5zM220.502 598.997
c-11 10.667 -16.5 23.999 -16.5 39.999c0 8.66699 1.83301 18.334 5.5 29.001s10.5 26.667 20.5 48l41 86h53l-29 -116c16 -14 24 -29.667 24 -47c0 -16 -5.66699 -29.333 -17 -40s-25 -16 -41 -16s-29.5 5.33301 -40.5 16z" />
    <glyph glyph-name="Hcircumflex" unicode="&#x124;" horiz-adv-x="680" 
d="M485 0v323h-290v-323h-95v689h95v-288h290v288h95v-689h-95zM213 759l-40 45l136 110h61l135 -110l-39 -45l-127 81z" />
    <glyph glyph-name="hcircumflex" unicode="&#x125;" horiz-adv-x="586" 
d="M455.5 496c27 -28.667 40.498 -67.999 40.498 -117.999v-378h-92v365c0 37.333 -7.16699 63.666 -21.5 78.999s-35.166 23 -62.499 23s-51.666 -8 -72.999 -24s-41.333 -38.667 -60 -68v-375h-92v738l92 10v-294c41.333 56.667 93.333 85 156 85
c48 0 85.5 -14.333 112.5 -43zM164.998 809.001l-40 45l136 110h61l135 -110l-39 -45l-127 81z" />
    <glyph glyph-name="Hbar" unicode="&#x126;" horiz-adv-x="688" 
d="M653 577v-69h-69v-508h-95v323h-290v-323h-95v508h-69v69h69v112h95v-112h290v112h95v-112h69zM489 401v107h-290v-107h290z" />
    <glyph glyph-name="hbar" unicode="&#x127;" horiz-adv-x="592" 
d="M461.5 496c27 -28.667 40.498 -67.999 40.498 -117.999v-378h-92v365c0 37.333 -7.16699 63.666 -21.5 78.999s-35.166 23 -62.499 23s-51.666 -8 -72.999 -24s-41.333 -38.667 -60 -68v-375h-92v606h-79v70h79v62l92 10v-72h148v-70h-148v-152
c41.333 56.667 93.333 85 156 85c48 0 85.5 -14.333 112.5 -43z" />
    <glyph glyph-name="Itilde" unicode="&#x128;" horiz-adv-x="295" 
d="M195 689v-689h-95v689h95zM170.5 789c-10.333 4.66699 -21.8281 11.334 -34.4951 20.001c-10 7.33301 -18.5 12.666 -25.5 15.999s-14.167 5 -21.5 5c-10.667 0 -20 -3.66699 -28 -11s-16.333 -19 -25 -35l-56 28c12.667 26.667 28.167 48 46.5 64s39.166 24 62.499 24
c14 0 26 -2.5 36 -7.5s21.333 -11.833 34 -20.5l12.5 -8c6.33301 -4 12.166 -7 17.499 -9s10.666 -3 15.999 -3c10 0 19 3.5 27 10.5s16.667 18.167 26 33.5l56 -28c-12.667 -28 -28.334 -49.333 -47.001 -64s-39.334 -22 -62.001 -22c-12.667 0 -24.167 2.33301 -34.5 7z
" />
    <glyph glyph-name="itilde" unicode="&#x129;" horiz-adv-x="282" 
d="M187 527v-527h-92v527h92zM164.5 663c-10.333 4.66699 -21.8281 11.334 -34.4951 20.001c-10 7.33301 -18.5 12.666 -25.5 15.999s-14.167 5 -21.5 5c-10.667 0 -20 -3.66699 -28 -11s-16.333 -19 -25 -35l-56 28c12.667 26.667 28.167 48 46.5 64s39.166 24 62.499 24
c14 0 26 -2.5 36 -7.5s21.333 -11.833 34 -20.5l12.5 -8c6.33301 -4 12.166 -7 17.499 -9s10.666 -3 15.999 -3c10 0 19 3.5 27 10.5s16.667 18.167 26 33.5l56 -28c-12.667 -28 -28.334 -49.333 -47.001 -64s-39.334 -22 -62.001 -22c-12.667 0 -24.167 2.33301 -34.5 7z
" />
    <glyph glyph-name="Imacron" unicode="&#x12a;" horiz-adv-x="295" 
d="M195 689v-689h-95v689h95zM283 793h-273v69h273v-69z" />
    <glyph glyph-name="imacron" unicode="&#x12b;" horiz-adv-x="282" 
d="M187 527v-527h-92v527h92zM277 667h-273v69h273v-69z" />
    <glyph glyph-name="Ibreve" unicode="&#x12c;" horiz-adv-x="295" 
d="M195 689v-689h-95v689h95zM43 792c-28 22.667 -44 52.333 -48 89l61 13c15.333 -44 45 -66 89 -66c22.667 0 41.834 5.83301 57.501 17.5s27.167 27.834 34.5 48.501l61 -13c-4 -36.667 -20.333 -66.334 -49 -89.001s-63.334 -34 -104.001 -34c-40 0 -74 11.333 -102 34z
" />
    <glyph glyph-name="ibreve" unicode="&#x12d;" horiz-adv-x="282" 
d="M187 527v-527h-92v527h92zM36.5 678.5c-27.667 23.667 -43.5 56.167 -47.5 97.5l61 13c14 -50.667 43.667 -76 89 -76c47.333 0 78 25.333 92 76l61 -13c-4 -41.333 -20.167 -73.833 -48.5 -97.5s-63.166 -35.5 -104.499 -35.5c-40.667 0 -74.834 11.833 -102.501 35.5z
" />
    <glyph glyph-name="Iogonek" unicode="&#x12e;" horiz-adv-x="295" 
d="M98 -57.5c-17.333 -17.667 -26.001 -36.499 -26.001 -56.499c0 -32 18.667 -48 56 -48c18 0 38.333 2.33301 61 7l-9 -70c-23.333 -4.66699 -44.333 -7 -63 -7c-38 0 -68.333 9.5 -91 28.5s-34 43.167 -34 72.5c0 56 36 100.667 108 134v686h95v-689
c-47.333 -20.667 -79.666 -39.834 -96.999 -57.501z" />
    <glyph glyph-name="iogonek" unicode="&#x12f;" horiz-adv-x="282" 
d="M187 762c12 -12 18 -27 18 -45s-6 -32.833 -18 -44.5s-27.667 -17.5 -47 -17.5c-18.667 0 -34 5.83301 -46 17.5s-18 26.5 -18 44.5s6 33 18 45s27.333 18 46 18c19.333 0 35 -6 47 -18zM95 527l92 0.00195312v-527c-47.333 -20.667 -79.666 -39.834 -96.999 -57.501
s-26 -36.5 -26 -56.5c0 -32 18.667 -48 56 -48c18 0 38.333 2.33301 61 7l-9 -70c-23.333 -4.66699 -44.333 -7 -63 -7c-38 0 -68.333 9.5 -91 28.5s-34 43.167 -34 72.5c0 28.667 9.16699 54.167 27.5 76.5s46.166 42.166 83.499 59.499v522z" />
    <glyph glyph-name="Idotaccent" unicode="&#x130;" horiz-adv-x="295" 
d="M195 689v-689h-95v689h95zM193 888c12 -12 18 -27 18 -45s-6 -32.833 -18 -44.5s-27.667 -17.5 -47 -17.5c-18.667 0 -34 5.83301 -46 17.5s-18 26.5 -18 44.5s6 33 18 45s27.333 18 46 18c19.333 0 35 -6 47 -18z" />
    <glyph glyph-name="dotlessi" unicode="&#x131;" horiz-adv-x="282" 
d="M187 527v-527h-92v527h92z" />
    <glyph glyph-name="IJ" unicode="&#x132;" horiz-adv-x="600" 
d="M195 689v-689h-95v689h95zM505 96c0 -68 -14.832 -119 -44.499 -153s-74.834 -60.667 -135.501 -80l-25 69c30.667 12 53.667 25 69 39s26 31 32 51s9 46 9 78v589h95v-593z" />
    <glyph glyph-name="ij" unicode="&#x133;" horiz-adv-x="562" 
d="M187 527v-527h-92v527h92zM187 762c12 -12 18 -27 18 -45s-6 -32.833 -18 -44.5s-27.667 -17.5 -47 -17.5c-18.667 0 -34 5.83301 -46 17.5s-18 26.5 -18 44.5s6 33 18 45s27.333 18 46 18c19.333 0 35 -6 47 -18zM467 32c0 -48.667 -6 -87.668 -18 -117.001
s-29.5 -53.166 -52.5 -71.499s-55.167 -36.833 -96.5 -55.5l-27 67c26 12 46 23.833 60 35.5s24.5 28 31.5 49s10.5 49.833 10.5 86.5v501h92v-495zM468 761.999c12 -12 18 -27 18 -45s-6 -32.833 -18 -44.5s-27.667 -17.5 -47 -17.5c-18.667 0 -34 5.83301 -46 17.5
s-18 26.5 -18 44.5s6 33 18 45s27.333 18 46 18c19.333 0 35 -6 47 -18z" />
    <glyph glyph-name="Jcircumflex" unicode="&#x134;" horiz-adv-x="305" 
d="M210 96c0 -68 -14.832 -119 -44.499 -153s-74.834 -60.667 -135.501 -80l-25 69c30.667 12 53.667 25 69 39s26 31 32 51s9 46 9 78v589h95v-593zM36.001 759l-40 45l136 110h61l135 -110l-39 -45l-127 81z" />
    <glyph glyph-name="jcircumflex" unicode="&#x135;" horiz-adv-x="280" 
d="M185 32c0 -48.667 -6 -87.668 -18 -117.001s-29.5 -53.166 -52.5 -71.499s-55.167 -36.833 -96.5 -55.5l-27 67c26 12 46 23.833 60 35.5s24.5 28 31.5 49s10.5 49.833 10.5 86.5v501h92v-495zM13 633.999l-39 45l135 113h61l136 -113l-40 -45l-126 84z" />
    <glyph glyph-name="Kcommaaccent" unicode="&#x136;" horiz-adv-x="589" 
d="M195 689v-689h-95v689h95zM570 689l-261 -315l280 -374h-117l-272 368l262 321h108zM358.5 -93c11 -10.667 16.5 -23.999 16.5 -39.999c0 -8.66699 -1.83301 -18.334 -5.5 -29.001s-10.5 -26.667 -20.5 -48l-41 -86h-53l29 116c-16 14 -24 29.667 -24 47
c0 16 5.66699 29.333 17 40s25 16 41 16s29.5 -5.33301 40.5 -16z" />
    <glyph glyph-name="kcommaaccent" unicode="&#x137;" horiz-adv-x="512" 
d="M187 750v-750h-92v739zM490 527l-194 -233l216 -294h-110l-209 288l194 239h103zM298.5 -93c11 -10.667 16.5 -23.999 16.5 -39.999c0 -8.66699 -1.83301 -18.334 -5.5 -29.001s-10.5 -26.667 -20.5 -48l-41 -86h-53l29 116c-16 14 -24 29.667 -24 47
c0 16 5.66699 29.333 17 40s25 16 41 16s29.5 -5.33301 40.5 -16z" />
    <glyph glyph-name="kgreenlandic" unicode="&#x138;" horiz-adv-x="509" 
d="M187 527v-527h-92v527h92zM487 527l-194 -243l216 -284h-110l-209 278l194 249h103z" />
    <glyph glyph-name="Lacute" unicode="&#x139;" horiz-adv-x="498" 
d="M195 689v-606h283l-11 -83h-367v689h95zM228 911l40 -77l-216 -79l-24 49z" />
    <glyph glyph-name="lacute" unicode="&#x13a;" horiz-adv-x="293" 
d="M119.5 18.5c-19.667 20.333 -29.5 48.834 -29.5 85.501v635l92 11v-644c0 -14.667 2.5 -25.334 7.5 -32.001s13.5 -10 25.5 -10c12.667 0 24 2 34 6l24 -64c-22 -12 -46.333 -18 -73 -18c-34 0 -60.833 10.167 -80.5 30.5zM216 961.001l40 -77l-216 -79l-24 49z" />
    <glyph glyph-name="Lcommaaccent" unicode="&#x13b;" horiz-adv-x="498" 
d="M195 689v-606h283l-11 -83h-367v689h95zM327.5 -93c11 -10.667 16.5 -23.999 16.5 -39.999c0 -8.66699 -1.83301 -18.334 -5.5 -29.001s-10.5 -26.667 -20.5 -48l-41 -86h-53l29 116c-16 14 -24 29.667 -24 47c0 16 5.66699 29.333 17 40s25 16 41 16
s29.5 -5.33301 40.5 -16z" />
    <glyph glyph-name="lcommaaccent" unicode="&#x13c;" horiz-adv-x="293" 
d="M119.5 18.5c-19.667 20.333 -29.5 48.834 -29.5 85.501v635l92 11v-644c0 -14.667 2.5 -25.334 7.5 -32.001s13.5 -10 25.5 -10c12.667 0 24 2 34 6l24 -64c-22 -12 -46.333 -18 -73 -18c-34 0 -60.833 10.167 -80.5 30.5zM221.5 -92.999
c11 -10.667 16.5 -23.999 16.5 -39.999c0 -8.66699 -1.83301 -18.334 -5.5 -29.001s-10.5 -26.667 -20.5 -48l-41 -86h-53l29 116c-16 14 -24 29.667 -24 47c0 16 5.66699 29.333 17 40s25 16 41 16s29.5 -5.33301 40.5 -16z" />
    <glyph glyph-name="Lcaron" unicode="&#x13d;" horiz-adv-x="498" 
d="M195 689v-606h283l-11 -83h-367v689h95zM303 505l50 184l-83 10l-20 -186z" />
    <glyph glyph-name="lcaron" unicode="&#x13e;" horiz-adv-x="293" 
d="M119.5 18.5c-19.667 20.333 -29.5 48.834 -29.5 85.501v635l92 11v-644c0 -14.667 2.5 -25.334 7.5 -32.001s13.5 -10 25.5 -10c12.667 0 24 2 34 6l24 -64c-22 -12 -46.333 -18 -73 -18c-34 0 -60.833 10.167 -80.5 30.5zM281 555.001l50 184l-83 10l-20 -186z" />
    <glyph glyph-name="Ldot" unicode="&#x13f;" horiz-adv-x="498" 
d="M195 689v-606h283l-11 -83h-367v689h95zM437 432c12 -12 18 -27 18 -45s-6 -32.833 -18 -44.5s-27.667 -17.5 -47 -17.5c-18.667 0 -34 5.83301 -46 17.5s-18 26.5 -18 44.5s6 33 18 45s27.333 18 46 18c19.333 0 35 -6 47 -18z" />
    <glyph glyph-name="ldot" unicode="&#x140;" horiz-adv-x="332" 
d="M119.5 18.5c-19.667 20.333 -29.5 48.834 -29.5 85.501v635l92 11v-644c0 -14.667 2.5 -25.334 7.5 -32.001s13.5 -10 25.5 -10c12.667 0 24 2 34 6l24 -64c-22 -12 -46.333 -18 -73 -18c-34 0 -60.833 10.167 -80.5 30.5zM344 422.001c12 -12 18 -27 18 -45
s-6 -32.833 -18 -44.5s-27.667 -17.5 -47 -17.5c-18.667 0 -34 5.83301 -46 17.5s-18 26.5 -18 44.5s6 33 18 45s27.333 18 46 18c19.333 0 35 -6 47 -18z" />
    <glyph glyph-name="Lslash" unicode="&#x141;" horiz-adv-x="514" 
d="M211 83h283l-11 -83h-367v257l-56 -35l-38 60l94 58v349h95v-290l160 99l38 -60l-198 -123v-232z" />
    <glyph glyph-name="lslash" unicode="&#x142;" horiz-adv-x="312" 
d="M255 70l24 -63.999c-22 -12 -46.333 -18 -73 -18c-34 0 -60.833 10.167 -80.5 30.5s-29.5 48.833 -29.5 85.5v196l-51 -31l-35 59l86 54v357l92 11v-313l91 55l33 -60l-124 -76v-250c0 -14.667 2.5 -25.334 7.5 -32.001s13.5 -10 25.5 -10c12.667 0 24 2 34 6z" />
    <glyph glyph-name="Nacute" unicode="&#x143;" horiz-adv-x="683" 
d="M583 0l-127 0.000976562l-280 585c4 -46 7.16699 -88.5 9.5 -127.5s3.5 -86.167 3.5 -141.5v-316h-89v689h124l283 -586c-2 17.333 -4.66699 47.666 -8 90.999s-5 83 -5 119v376h89v-689zM433 911.001l40 -77l-216 -79l-24 49z" />
    <glyph glyph-name="nacute" unicode="&#x144;" horiz-adv-x="586" 
d="M455.5 496c27 -28.667 40.499 -67.999 40.499 -117.999v-378h-92v365c0 37.333 -7 63.666 -21 78.999s-34.667 23 -62 23c-28 0 -52.667 -8 -74 -24s-41.333 -39 -60 -69v-374h-92v527h79l8 -78c18.667 28 41.834 50 69.501 66s58.167 24 91.5 24
c48 0 85.5 -14.333 112.5 -43zM376.999 801.001l41 -77l-212 -86l-28 49z" />
    <glyph glyph-name="Ncommaaccent" unicode="&#x145;" horiz-adv-x="683" 
d="M583 0l-127 0.000976562l-280 585c4 -46 7.16699 -88.5 9.5 -127.5s3.5 -86.167 3.5 -141.5v-316h-89v689h124l283 -586c-2 17.333 -4.66699 47.666 -8 90.999s-5 83 -5 119v376h89v-689zM386.5 -92.999c11 -10.667 16.5 -23.999 16.5 -39.999
c0 -8.66699 -1.83301 -18.334 -5.5 -29.001s-10.5 -26.667 -20.5 -48l-41 -86h-53l29 116c-16 14 -24 29.667 -24 47c0 16 5.66699 29.333 17 40s25 16 41 16s29.5 -5.33301 40.5 -16z" />
    <glyph glyph-name="ncommaaccent" unicode="&#x146;" horiz-adv-x="586" 
d="M455.5 496c27 -28.667 40.499 -67.999 40.499 -117.999v-378h-92v365c0 37.333 -7 63.666 -21 78.999s-34.667 23 -62 23c-28 0 -52.667 -8 -74 -24s-41.333 -39 -60 -69v-374h-92v527h79l8 -78c18.667 28 41.834 50 69.501 66s58.167 24 91.5 24
c48 0 85.5 -14.333 112.5 -43zM336.499 -92.999c11 -10.667 16.5 -23.999 16.5 -39.999c0 -8.66699 -1.83301 -18.334 -5.5 -29.001s-10.5 -26.667 -20.5 -48l-41 -86h-53l29 116c-16 14 -24 29.667 -24 47c0 16 5.66699 29.333 17 40s25 16 41 16s29.5 -5.33301 40.5 -16z
" />
    <glyph glyph-name="Ncaron" unicode="&#x147;" horiz-adv-x="683" 
d="M583 0l-127 0.000976562l-280 585c4 -46 7.16699 -88.5 9.5 -127.5s3.5 -86.167 3.5 -141.5v-316h-89v689h124l283 -586c-2 17.333 -4.66699 47.666 -8 90.999s-5 83 -5 119v376h89v-689zM480 909.001l39 -45l-135 -110h-61l-136 110l40 45l126 -81z" />
    <glyph glyph-name="ncaron" unicode="&#x148;" horiz-adv-x="586" 
d="M455.5 496c27 -28.667 40.499 -67.999 40.499 -117.999v-378h-92v365c0 37.333 -7 63.666 -21 78.999s-34.667 23 -62 23c-28 0 -52.667 -8 -74 -24s-41.333 -39 -60 -69v-374h-92v527h79l8 -78c18.667 28 41.834 50 69.501 66s58.167 24 91.5 24
c48 0 85.5 -14.333 112.5 -43zM424.999 785.001l39 -45l-135 -113h-61l-136 113l40 45l126 -84z" />
    <glyph glyph-name="napostrophe" unicode="&#x149;" horiz-adv-x="695" 
d="M143.5 737c11 -10.667 16.5 -23.999 16.5 -39.999c0 -8.66699 -1.83301 -18.334 -5.5 -29.001s-10.5 -26.667 -20.5 -48l-41 -86h-53l29 116c-16 14 -24 29.667 -24 47c0 16 5.66699 29.333 17 40s25 16 41 16s29.5 -5.33301 40.5 -16zM564.5 496.001
c27 -28.667 40.499 -67.999 40.499 -117.999v-378h-92v365c0 37.333 -7 63.666 -21 78.999s-34.667 23 -62 23c-28 0 -52.667 -8 -74 -24s-41.333 -39 -60 -69v-374h-92v527h79l8 -78c18.667 28 41.834 50 69.501 66s58.167 24 91.5 24c48 0 85.5 -14.333 112.5 -43z" />
    <glyph glyph-name="Eng" unicode="&#x14a;" horiz-adv-x="683" 
d="M583 689v-745.998c0 -50.667 -13.333 -89.334 -40 -116.001s-63.667 -40 -111 -40c-43.333 0 -81.666 12.667 -114.999 38l37 60c12.667 -7.33301 24.167 -12.833 34.5 -16.5s23.166 -5.5 38.499 -5.5c40.667 0 61 24.667 61 74v63h-32l-280 585
c4 -46 7.16699 -88.5 9.5 -127.5s3.5 -86.167 3.5 -141.5v-316h-89v689h124l283 -586c-2 17.333 -4.66699 47.666 -8 90.999s-5 83 -5 119v376h89z" />
    <glyph glyph-name="eng" unicode="&#x14b;" horiz-adv-x="586" 
d="M455.5 496c27 -28.667 40.5 -67.998 40.5 -117.998v-435c0 -50.667 -13.5 -89.334 -40.5 -116.001s-63.833 -40 -110.5 -40c-43.333 0 -81.666 12.667 -114.999 38l36 58c13.333 -8 25.166 -13.667 35.499 -17s23.166 -5 38.499 -5c42.667 0 64 24.667 64 74v430
c0 37.333 -7 63.666 -21 78.999s-34.667 23 -62 23c-28 0 -52.667 -8 -74 -24s-41.333 -39 -60 -69v-374h-92v527h79l8 -78c18.667 28 41.834 50 69.501 66s58.167 24 91.5 24c48 0 85.5 -14.333 112.5 -43z" />
    <glyph glyph-name="Omacron" unicode="&#x14c;" horiz-adv-x="692" 
d="M498.5 659.5c43.667 -27.667 77.667 -68.165 102 -121.498s36.5 -118 36.5 -194c0 -74.667 -12.167 -138.667 -36.5 -192s-58.333 -94 -102 -122s-94.5 -42 -152.5 -42s-108.833 13.667 -152.5 41s-77.667 67.666 -102 120.999s-36.5 117.666 -36.5 192.999
c0 74 12.167 138 36.5 192s58.5 95.167 102.5 123.5s94.667 42.5 152 42.5c58 0 108.833 -13.833 152.5 -41.5zM206 555.002c-33.333 -45.333 -50 -116 -50 -212c0 -95.333 16.833 -165.333 50.5 -210s80.167 -67 139.5 -67c126.667 0 190 92.667 190 278
c0 186 -63.333 279 -190 279c-60 0 -106.667 -22.667 -140 -68zM482 793.002h-273v69h273v-69z" />
    <glyph glyph-name="omacron" unicode="&#x14d;" horiz-adv-x="584" 
d="M465.5 465c41 -49.333 61.501 -116.333 61.501 -201c0 -54.667 -9.33301 -102.834 -28 -144.501s-45.667 -74 -81 -97s-77.333 -34.5 -126 -34.5c-74 0 -131.667 24.667 -173 74s-62 116.333 -62 201c0 54.667 9.33301 102.834 28 144.501s45.667 74 81 97
s77.666 34.5 126.999 34.5c74 0 131.5 -24.667 172.5 -74zM156.001 263c0 -134 45.333 -201 136 -201s136 67.333 136 202c0 134 -45 201 -135 201c-91.333 0 -137 -67.333 -137 -202zM428.001 667h-273v69h273v-69z" />
    <glyph glyph-name="Obreve" unicode="&#x14e;" horiz-adv-x="692" 
d="M498.5 659.5c43.667 -27.667 77.667 -68.165 102 -121.498s36.5 -118 36.5 -194c0 -74.667 -12.167 -138.667 -36.5 -192s-58.333 -94 -102 -122s-94.5 -42 -152.5 -42s-108.833 13.667 -152.5 41s-77.667 67.666 -102 120.999s-36.5 117.666 -36.5 192.999
c0 74 12.167 138 36.5 192s58.5 95.167 102.5 123.5s94.667 42.5 152 42.5c58 0 108.833 -13.833 152.5 -41.5zM206 555.002c-33.333 -45.333 -50 -116 -50 -212c0 -95.333 16.833 -165.333 50.5 -210s80.167 -67 139.5 -67c126.667 0 190 92.667 190 278
c0 186 -63.333 279 -190 279c-60 0 -106.667 -22.667 -140 -68zM242 792.002c-28 22.667 -44 52.333 -48 89l61 13c15.333 -44 45 -66 89 -66c22.667 0 41.834 5.83301 57.501 17.5s27.167 27.834 34.5 48.501l61 -13c-4 -36.667 -20.333 -66.334 -49 -89.001
s-63.334 -34 -104.001 -34c-40 0 -74 11.333 -102 34z" />
    <glyph glyph-name="obreve" unicode="&#x14f;" horiz-adv-x="584" 
d="M465.5 465c41 -49.333 61.501 -116.333 61.501 -201c0 -54.667 -9.33301 -102.834 -28 -144.501s-45.667 -74 -81 -97s-77.333 -34.5 -126 -34.5c-74 0 -131.667 24.667 -173 74s-62 116.333 -62 201c0 54.667 9.33301 102.834 28 144.501s45.667 74 81 97
s77.666 34.5 126.999 34.5c74 0 131.5 -24.667 172.5 -74zM156.001 263c0 -134 45.333 -201 136 -201s136 67.333 136 202c0 134 -45 201 -135 201c-91.333 0 -137 -67.333 -137 -202zM187.501 678.5c-27.667 23.667 -43.5 56.167 -47.5 97.5l61 13
c14 -50.667 43.667 -76 89 -76c47.333 0 78 25.333 92 76l61 -13c-4 -41.333 -20.167 -73.833 -48.5 -97.5s-63.166 -35.5 -104.499 -35.5c-40.667 0 -74.834 11.833 -102.501 35.5z" />
    <glyph glyph-name="Ohungarumlaut" unicode="&#x150;" horiz-adv-x="692" 
d="M498.5 659.5c43.667 -27.667 77.667 -68.165 102 -121.498s36.5 -118 36.5 -194c0 -74.667 -12.167 -138.667 -36.5 -192s-58.333 -94 -102 -122s-94.5 -42 -152.5 -42s-108.833 13.667 -152.5 41s-77.667 67.666 -102 120.999s-36.5 117.666 -36.5 192.999
c0 74 12.167 138 36.5 192s58.5 95.167 102.5 123.5s94.667 42.5 152 42.5c58 0 108.833 -13.833 152.5 -41.5zM206 555.002c-33.333 -45.333 -50 -116 -50 -212c0 -95.333 16.833 -165.333 50.5 -210s80.167 -67 139.5 -67c126.667 0 190 92.667 190 278
c0 186 -63.333 279 -190 279c-60 0 -106.667 -22.667 -140 -68zM309 958.002l78 -41l-96 -152l-58 25zM461 958.002l78 -41l-106 -157l-58 25z" />
    <glyph glyph-name="ohungarumlaut" unicode="&#x151;" horiz-adv-x="584" 
d="M465.5 465c41 -49.333 61.501 -116.333 61.501 -201c0 -54.667 -9.33301 -102.834 -28 -144.501s-45.667 -74 -81 -97s-77.333 -34.5 -126 -34.5c-74 0 -131.667 24.667 -173 74s-62 116.333 -62 201c0 54.667 9.33301 102.834 28 144.501s45.667 74 81 97
s77.666 34.5 126.999 34.5c74 0 131.5 -24.667 172.5 -74zM156.001 263c0 -134 45.333 -201 136 -201s136 67.333 136 202c0 134 -45 201 -135 201c-91.333 0 -137 -67.333 -137 -202zM263.001 832l78 -41l-96 -152l-58 25zM415.001 832l78 -41l-106 -157l-58 25z" />
    <glyph glyph-name="OE" unicode="&#x152;" horiz-adv-x="897" 
d="M843 0l-437 -0.000976562c-22.667 -8 -47 -12 -73 -12c-53.333 0 -101 13.667 -143 41s-75 67.666 -99 120.999s-36 117.666 -36 192.999c0 74 12 138 36 192s57 95.167 99 123.5s89.667 42.5 143 42.5c26.667 0 52.334 -4 77.001 -12h425l-11 -76h-298
c25.333 -25.333 45.666 -57.166 60.999 -95.499s24.666 -81.5 27.999 -129.5h174v-76h-173c-3.33301 -49.333 -13.166 -94.166 -29.499 -134.499s-38.833 -74.166 -67.5 -101.499h324v-76zM205 133.499c32.667 -45 76.333 -67.499 131 -67.499c56 0 100 22.333 132 67
s48 115 48 211c0 95.333 -15.833 165.666 -47.5 210.999s-75.834 68 -132.501 68c-55.333 0 -99.166 -22.833 -131.499 -68.5s-48.5 -116.167 -48.5 -211.5c0 -94.667 16.333 -164.5 49 -209.5z" />
    <glyph glyph-name="oe" unicode="&#x153;" horiz-adv-x="916" 
d="M862 232l-335.998 -0.000976562c4 -58 18.667 -100.667 44 -128s58 -41 98 -41c25.333 0 48.666 3.66699 69.999 11s43.666 19 66.999 35l40 -55c-56 -44 -117.333 -66 -184 -66c-83.333 0 -145 36.333 -185 109c-41.333 -72.667 -102.666 -109 -183.999 -109
c-74 0 -131.667 24.667 -173 74s-62 116.333 -62 201c0 54.667 9.33301 102.834 28 144.501s45.667 74 81 97s77.666 34.5 126.999 34.5c84 0 145.667 -35.333 185 -106c39.333 70.667 97.333 106 174 106c68 0 120.333 -23 157 -69s55 -109.667 55 -191
c0 -15.333 -0.666992 -31 -2 -47zM773.002 305.999c0 52 -10.166 91.667 -30.499 119s-49.833 41 -88.5 41c-78.667 0 -121.334 -55.333 -128.001 -166h247v6zM428.003 263.999c0 134 -45 201 -135 201c-91.333 0 -137 -67.333 -137 -202c0 -134 45.333 -201 136 -201
s136 67.333 136 202z" />
    <glyph glyph-name="Racute" unicode="&#x154;" horiz-adv-x="605" 
d="M302 292l-107 0.000976562v-292h-95v689h181c86 0 151.167 -16.333 195.5 -49s66.5 -81.334 66.5 -146.001c0 -48 -12.333 -87 -37 -117s-62 -52.667 -112 -68l186 -309h-113zM291 365.001c50 0 87.668 10.168 113.001 30.501s38 53.166 38 98.499
c0 42.667 -12.833 73.5 -38.5 92.5s-66.834 28.5 -123.501 28.5h-85v-250h96zM379.001 911.002l40 -77l-216 -79l-24 49z" />
    <glyph glyph-name="racute" unicode="&#x155;" horiz-adv-x="386" 
d="M376 533l-17 -90c-16 4 -31.333 6 -46 6c-32.667 0 -59 -12 -79 -36s-35.667 -61.333 -47 -112v-301h-92v527h79l9 -107c14 39.333 33 69 57 89s52 30 84 30c18.667 0 36 -2 52 -6zM317 801l41 -77l-212 -86l-28 49z" />
    <glyph glyph-name="Rcommaaccent" unicode="&#x156;" horiz-adv-x="605" 
d="M302 292l-107 0.000976562v-292h-95v689h181c86 0 151.167 -16.333 195.5 -49s66.5 -81.334 66.5 -146.001c0 -48 -12.333 -87 -37 -117s-62 -52.667 -112 -68l186 -309h-113zM291 365.001c50 0 87.668 10.168 113.001 30.501s38 53.166 38 98.499
c0 42.667 -12.833 73.5 -38.5 92.5s-66.834 28.5 -123.501 28.5h-85v-250h96zM352.501 -92.998c11 -10.667 16.5 -23.999 16.5 -39.999c0 -8.66699 -1.83301 -18.334 -5.5 -29.001s-10.5 -26.667 -20.5 -48l-41 -86h-53l29 116c-16 14 -24 29.667 -24 47
c0 16 5.66699 29.333 17 40s25 16 41 16s29.5 -5.33301 40.5 -16z" />
    <glyph glyph-name="rcommaaccent" unicode="&#x157;" horiz-adv-x="386" 
d="M376 533l-17 -90c-16 4 -31.333 6 -46 6c-32.667 0 -59 -12 -79 -36s-35.667 -61.333 -47 -112v-301h-92v527h79l9 -107c14 39.333 33 69 57 89s52 30 84 30c18.667 0 36 -2 52 -6zM184.5 -93c11 -10.667 16.5 -23.999 16.5 -39.999
c0 -8.66699 -1.83301 -18.334 -5.5 -29.001s-10.5 -26.667 -20.5 -48l-41 -86h-53l29 116c-16 14 -24 29.667 -24 47c0 16 5.66699 29.333 17 40s25 16 41 16s29.5 -5.33301 40.5 -16z" />
    <glyph glyph-name="Rcaron" unicode="&#x158;" horiz-adv-x="605" 
d="M302 292l-107 0.000976562v-292h-95v689h181c86 0 151.167 -16.333 195.5 -49s66.5 -81.334 66.5 -146.001c0 -48 -12.333 -87 -37 -117s-62 -52.667 -112 -68l186 -309h-113zM291 365.001c50 0 87.668 10.168 113.001 30.501s38 53.166 38 98.499
c0 42.667 -12.833 73.5 -38.5 92.5s-66.834 28.5 -123.501 28.5h-85v-250h96zM426.001 909.002l39 -45l-135 -110h-61l-136 110l40 45l126 -81z" />
    <glyph glyph-name="rcaron" unicode="&#x159;" horiz-adv-x="386" 
d="M376 533l-17 -90c-16 4 -31.333 6 -46 6c-32.667 0 -59 -12 -79 -36s-35.667 -61.333 -47 -112v-301h-92v527h79l9 -107c14 39.333 33 69 57 89s52 30 84 30c18.667 0 36 -2 52 -6zM365 785l39 -45l-135 -113h-61l-136 113l40 45l126 -84z" />
    <glyph glyph-name="Sacute" unicode="&#x15a;" horiz-adv-x="545" 
d="M388 681.5c32.667 -13 64.333 -33.167 95 -60.5l-52 -58c-26 20.667 -51.5 35.834 -76.5 45.501s-51.833 14.5 -80.5 14.5c-36 0 -65.667 -8.33301 -89 -25s-35 -41 -35 -73c0 -20 4 -36.833 12 -50.5s22.833 -26.167 44.5 -37.5s53.167 -23.333 94.5 -36
c43.333 -13.333 79.333 -27.666 108 -42.999s51.834 -36.5 69.501 -63.5s26.5 -61.167 26.5 -102.5c0 -40 -9.83301 -75.333 -29.5 -106s-48 -54.667 -85 -72s-80.833 -26 -131.5 -26c-95.333 0 -173.333 29.667 -234 89l52 58c28 -22.667 56.333 -39.834 85 -51.501
s60.667 -17.5 96 -17.5c42.667 0 78 10.5 106 31.5s42 51.5 42 91.5c0 22.667 -4.33301 41.5 -13 56.5s-23.5 28.5 -44.5 40.5s-51.5 24 -91.5 36c-70.667 21.333 -122.334 47 -155.001 77s-49 70.667 -49 122c0 34.667 9.16699 65.667 27.5 93s44 48.666 77 63.999
s70.5 23 112.5 23c46 0 85.333 -6.5 118 -19.5zM355.999 911l40 -77l-216 -79l-24 49z" />
    <glyph glyph-name="sacute" unicode="&#x15b;" horiz-adv-x="467" 
d="M335 524c28.667 -10 56 -24.998 82 -44.998l-39 -58c-24 15.333 -46.833 26.666 -68.5 33.999s-44.5 11 -68.5 11c-30 0 -53.667 -6.16699 -71 -18.5s-26 -29.166 -26 -50.499s8.16699 -38 24.5 -50s45.833 -23.667 88.5 -35c58.667 -14.667 102.5 -34.667 131.5 -60
s43.5 -60 43.5 -104c0 -52 -20.167 -91.667 -60.5 -119s-89.5 -41 -147.5 -41c-80 0 -146.333 23 -199 69l49 56c44.667 -34 94 -51 148 -51c34.667 0 62.167 7.16699 82.5 21.5s30.5 33.833 30.5 58.5c0 18 -3.66699 32.5 -11 43.5s-20 20.667 -38 29
s-44.333 17.166 -79 26.499c-56 14.667 -96.5 34.334 -121.5 59.001s-37.5 56 -37.5 94c0 27.333 8.16699 52.166 24.5 74.499s39 39.666 68 51.999s61.5 18.5 97.5 18.5s68.333 -5 97 -15zM324 801.002l41 -77l-212 -86l-28 49z" />
    <glyph glyph-name="Scircumflex" unicode="&#x15c;" horiz-adv-x="545" 
d="M388 681.5c32.667 -13 64.333 -33.167 95 -60.5l-52 -58c-26 20.667 -51.5 35.834 -76.5 45.501s-51.833 14.5 -80.5 14.5c-36 0 -65.667 -8.33301 -89 -25s-35 -41 -35 -73c0 -20 4 -36.833 12 -50.5s22.833 -26.167 44.5 -37.5s53.167 -23.333 94.5 -36
c43.333 -13.333 79.333 -27.666 108 -42.999s51.834 -36.5 69.501 -63.5s26.5 -61.167 26.5 -102.5c0 -40 -9.83301 -75.333 -29.5 -106s-48 -54.667 -85 -72s-80.833 -26 -131.5 -26c-95.333 0 -173.333 29.667 -234 89l52 58c28 -22.667 56.333 -39.834 85 -51.501
s60.667 -17.5 96 -17.5c42.667 0 78 10.5 106 31.5s42 51.5 42 91.5c0 22.667 -4.33301 41.5 -13 56.5s-23.5 28.5 -44.5 40.5s-51.5 24 -91.5 36c-70.667 21.333 -122.334 47 -155.001 77s-49 70.667 -49 122c0 34.667 9.16699 65.667 27.5 93s44 48.666 77 63.999
s70.5 23 112.5 23c46 0 85.333 -6.5 118 -19.5zM148.999 759l-40 45l136 110h61l135 -110l-39 -45l-127 81z" />
    <glyph glyph-name="scircumflex" unicode="&#x15d;" horiz-adv-x="467" 
d="M335 524c28.667 -10 56 -24.998 82 -44.998l-39 -58c-24 15.333 -46.833 26.666 -68.5 33.999s-44.5 11 -68.5 11c-30 0 -53.667 -6.16699 -71 -18.5s-26 -29.166 -26 -50.499s8.16699 -38 24.5 -50s45.833 -23.667 88.5 -35c58.667 -14.667 102.5 -34.667 131.5 -60
s43.5 -60 43.5 -104c0 -52 -20.167 -91.667 -60.5 -119s-89.5 -41 -147.5 -41c-80 0 -146.333 23 -199 69l49 56c44.667 -34 94 -51 148 -51c34.667 0 62.167 7.16699 82.5 21.5s30.5 33.833 30.5 58.5c0 18 -3.66699 32.5 -11 43.5s-20 20.667 -38 29
s-44.333 17.166 -79 26.499c-56 14.667 -96.5 34.334 -121.5 59.001s-37.5 56 -37.5 94c0 27.333 8.16699 52.166 24.5 74.499s39 39.666 68 51.999s61.5 18.5 97.5 18.5s68.333 -5 97 -15zM118 634.002l-39 45l135 113h61l136 -113l-40 -45l-126 84z" />
    <glyph glyph-name="Scedilla" unicode="&#x15e;" horiz-adv-x="545" 
d="M450 53.5c-36.667 -36.333 -87.668 -57.4971 -153.001 -63.4971v-46c32 -2.66699 55.5 -11.834 70.5 -27.501s22.5 -34.834 22.5 -57.501c0 -32 -11.667 -56.667 -35 -74s-53 -26 -89 -26c-18.667 0 -36 2.16699 -52 6.5s-29 10.166 -39 17.499l25 52
c20 -10.667 41 -16 63 -16c15.333 0 27.5 3.16699 36.5 9.5s13.5 16.5 13.5 30.5s-7 24.5 -21 31.5s-36.667 10.5 -68 10.5l11 88c-85.333 4.66699 -155.333 34 -210 88l52 58c28 -22.667 56.333 -39.834 85 -51.501s60.667 -17.5 96 -17.5c42.667 0 78 10.5 106 31.5
s42 51.5 42 91.5c0 22.667 -4.33301 41.5 -13 56.5s-23.5 28.5 -44.5 40.5s-51.5 24 -91.5 36c-70.667 21.333 -122.334 47 -155.001 77s-49 70.667 -49 122c0 34.667 9.16699 65.667 27.5 93s44 48.666 77 63.999s70.5 23 112.5 23c46 0 85.333 -6.5 118 -19.5
s64.334 -33.167 95.001 -60.5l-52 -58c-26 20.667 -51.5 35.834 -76.5 45.501s-51.833 14.5 -80.5 14.5c-36 0 -65.667 -8.33301 -89 -25s-35 -41 -35 -73c0 -20 4 -36.833 12 -50.5s22.833 -26.167 44.5 -37.5s53.167 -23.333 94.5 -36
c43.333 -13.333 79.333 -27.666 108 -42.999s51.834 -36.5 69.501 -63.5s26.5 -61.167 26.5 -102.5c0 -56 -18.333 -102.167 -55 -138.5z" />
    <glyph glyph-name="scedilla" unicode="&#x15f;" horiz-adv-x="467" 
d="M383 38c-32.667 -26.667 -74 -42.6621 -124 -47.9951v-46c32 -2.66699 55.5 -11.834 70.5 -27.501s22.5 -34.834 22.5 -57.501c0 -32 -11.667 -56.667 -35 -74s-53 -26 -89 -26c-18.667 0 -36 2.16699 -52 6.5s-29 10.166 -39 17.499l25 52c20 -10.667 41 -16 63 -16
c15.333 0 27.5 3.16699 36.5 9.5s13.5 16.5 13.5 30.5s-7 24.5 -21 31.5s-36.667 10.5 -68 10.5l11 88c-68 4.66699 -125.333 27.334 -172 68.001l49 56c44.667 -34 94 -51 148 -51c34.667 0 62.167 7.16699 82.5 21.5s30.5 33.833 30.5 58.5c0 18 -3.66699 32.5 -11 43.5
s-20 20.667 -38 29s-44.333 17.166 -79 26.499c-56 14.667 -96.5 34.334 -121.5 59.001s-37.5 56 -37.5 94c0 27.333 8.16699 52.166 24.5 74.499s39 39.666 68 51.999s61.5 18.5 97.5 18.5s68.333 -5 97 -15s56 -25 82 -45l-39 -58c-24 15.333 -46.833 26.666 -68.5 33.999
s-44.5 11 -68.5 11c-30 0 -53.667 -6.16699 -71 -18.5s-26 -29.166 -26 -50.499s8.16699 -38 24.5 -50s45.833 -23.667 88.5 -35c58.667 -14.667 102.5 -34.667 131.5 -60s43.5 -60 43.5 -104c0 -46.667 -16.333 -83.334 -49 -110.001z" />
    <glyph glyph-name="Scaron" unicode="&#x160;" horiz-adv-x="545" 
d="M388 681.5c32.667 -13 64.333 -33.167 95 -60.5l-52 -58c-26 20.667 -51.5 35.834 -76.5 45.501s-51.833 14.5 -80.5 14.5c-36 0 -65.667 -8.33301 -89 -25s-35 -41 -35 -73c0 -20 4 -36.833 12 -50.5s22.833 -26.167 44.5 -37.5s53.167 -23.333 94.5 -36
c43.333 -13.333 79.333 -27.666 108 -42.999s51.834 -36.5 69.501 -63.5s26.5 -61.167 26.5 -102.5c0 -40 -9.83301 -75.333 -29.5 -106s-48 -54.667 -85 -72s-80.833 -26 -131.5 -26c-95.333 0 -173.333 29.667 -234 89l52 58c28 -22.667 56.333 -39.834 85 -51.501
s60.667 -17.5 96 -17.5c42.667 0 78 10.5 106 31.5s42 51.5 42 91.5c0 22.667 -4.33301 41.5 -13 56.5s-23.5 28.5 -44.5 40.5s-51.5 24 -91.5 36c-70.667 21.333 -122.334 47 -155.001 77s-49 70.667 -49 122c0 34.667 9.16699 65.667 27.5 93s44 48.666 77 63.999
s70.5 23 112.5 23c46 0 85.333 -6.5 118 -19.5zM402.999 909l39 -45l-135 -110h-61l-136 110l40 45l126 -81z" />
    <glyph glyph-name="scaron" unicode="&#x161;" horiz-adv-x="467" 
d="M335 524c28.667 -10 56 -24.998 82 -44.998l-39 -58c-24 15.333 -46.833 26.666 -68.5 33.999s-44.5 11 -68.5 11c-30 0 -53.667 -6.16699 -71 -18.5s-26 -29.166 -26 -50.499s8.16699 -38 24.5 -50s45.833 -23.667 88.5 -35c58.667 -14.667 102.5 -34.667 131.5 -60
s43.5 -60 43.5 -104c0 -52 -20.167 -91.667 -60.5 -119s-89.5 -41 -147.5 -41c-80 0 -146.333 23 -199 69l49 56c44.667 -34 94 -51 148 -51c34.667 0 62.167 7.16699 82.5 21.5s30.5 33.833 30.5 58.5c0 18 -3.66699 32.5 -11 43.5s-20 20.667 -38 29
s-44.333 17.166 -79 26.499c-56 14.667 -96.5 34.334 -121.5 59.001s-37.5 56 -37.5 94c0 27.333 8.16699 52.166 24.5 74.499s39 39.666 68 51.999s61.5 18.5 97.5 18.5s68.333 -5 97 -15zM372 785.002l39 -45l-135 -113h-61l-136 113l40 45l126 -84z" />
    <glyph glyph-name="uni0162" unicode="&#x162;" horiz-adv-x="517" 
d="M378 -84c16 -16 23.999 -35 23.999 -57c0 -32 -12.167 -56.667 -36.5 -74s-54.833 -26 -91.5 -26s-65.667 8 -87 24l25 52c10.667 -5.33301 20.334 -9.33301 29.001 -12s18.667 -4 30 -4c16 0 29 3.16699 39 9.5s15 16.5 15 30.5s-7 24.5 -21 31.5s-36.667 10.5 -68 10.5
l12 99h-37v608h-196v81h492l-10 -81h-191v-664c32 -2.66699 56 -12 72 -28z" />
    <glyph glyph-name="uni0163" unicode="&#x163;" horiz-adv-x="361" 
d="M328.5 -83.5c15 -15.667 22.498 -34.832 22.498 -57.499c0 -32 -11.667 -56.667 -35 -74s-53 -26 -89 -26c-18.667 0 -36 2.16699 -52 6.5s-29 10.166 -39 17.499l25 52c20 -10.667 41 -16 63 -16c15.333 0 27.5 3.16699 36.5 9.5s13.5 16.5 13.5 30.5s-7 24.5 -21 31.5
s-36.667 10.5 -68 10.5l11 93c-30 7.33301 -53.333 23.333 -70 48s-25 56.667 -25 96v318h-92v71h92v119l92 11v-130h125l-10 -71h-115v-314c0 -27.333 4.83301 -47.166 14.5 -59.499s25.834 -18.5 48.501 -18.5c20.667 0 44 7 70 21l35 -61
c-31.333 -21.333 -65.666 -33.333 -102.999 -36v-44c32 -2.66699 55.5 -11.834 70.5 -27.501z" />
    <glyph glyph-name="Tcaron" unicode="&#x164;" horiz-adv-x="517" 
d="M507 689l-10 -81h-191v-608h-95v608h-196v81h492zM386 909l39 -45l-135 -110h-61l-136 110l40 45l126 -81z" />
    <glyph glyph-name="tcaron" unicode="&#x165;" horiz-adv-x="361" 
d="M327 748l-50 -184l-53 8l20 186zM361 24c-34.667 -24 -74.001 -36.002 -118.001 -36.002c-44.667 0 -79.5 12.833 -104.5 38.5s-37.5 62.834 -37.5 111.501v318h-92v71h92v119l92 11v-130h125l-10 -71h-115v-314c0 -27.333 4.83301 -47.166 14.5 -59.499
s25.834 -18.5 48.501 -18.5c20.667 0 44 7 70 21z" />
    <glyph glyph-name="Tbar" unicode="&#x166;" horiz-adv-x="517" 
d="M497 606h-191v-219h125v-70h-125v-319h-95v319h-123v70h123v219h-196v81h492z" />
    <glyph glyph-name="tbar" unicode="&#x167;" horiz-adv-x="361" 
d="M361 24c-34.667 -24 -74.001 -36.002 -118.001 -36.002c-44.667 0 -79.5 12.833 -104.5 38.5s-37.5 62.834 -37.5 111.501v148h-81v71h81v99h-92v71h92v119l92 11v-130h125l-10 -71h-115v-99h110v-71h-110v-144c0 -27.333 4.83301 -47.166 14.5 -59.499
s25.834 -18.5 48.501 -18.5c20.667 0 44 7 70 21z" />
    <glyph glyph-name="Utilde" unicode="&#x168;" horiz-adv-x="662" 
d="M572 221c0 -46 -9.49902 -86.5 -28.499 -121.5s-46.667 -62.333 -83 -82s-79.833 -29.5 -130.5 -29.5c-76.667 0 -135.834 21.167 -177.501 63.5s-62.5 98.833 -62.5 169.5v468h95v-461c0 -53.333 12 -93.333 36 -120s60.333 -40 109 -40c49.333 0 86 13.167 110 39.5
s36 66.5 36 120.5v461h96v-468zM354.501 789c-10.333 4.66699 -21.8281 11.334 -34.4951 20.001c-10 7.33301 -18.5 12.666 -25.5 15.999s-14.167 5 -21.5 5c-10.667 0 -20 -3.66699 -28 -11s-16.333 -19 -25 -35l-56 28c12.667 26.667 28.167 48 46.5 64
s39.166 24 62.499 24c14 0 26 -2.5 36 -7.5s21.333 -11.833 34 -20.5l12.5 -8c6.33301 -4 12.166 -7 17.499 -9s10.666 -3 15.999 -3c10 0 19 3.5 27 10.5s16.667 18.167 26 33.5l56 -28c-12.667 -28 -28.334 -49.333 -47.001 -64s-39.334 -22 -62.001 -22
c-12.667 0 -24.167 2.33301 -34.5 7z" />
    <glyph glyph-name="utilde" unicode="&#x169;" horiz-adv-x="582" 
d="M487 0h-79.001l-7 82c-20 -32.667 -43 -56.5 -69 -71.5s-57.667 -22.5 -95 -22.5c-46 0 -82 14 -108 42s-39 67.667 -39 119v378h92v-368c0 -36 6.33301 -61.5 19 -76.5s33.334 -22.5 62.001 -22.5c51.333 0 95.333 30.333 132 91v376h92v-527zM312.499 663
c-10.333 4.66699 -21.8281 11.334 -34.4951 20.001c-10 7.33301 -18.5 12.666 -25.5 15.999s-14.167 5 -21.5 5c-10.667 0 -20 -3.66699 -28 -11s-16.333 -19 -25 -35l-56 28c12.667 26.667 28.167 48 46.5 64s39.166 24 62.499 24c14 0 26 -2.5 36 -7.5
s21.333 -11.833 34 -20.5l12.5 -8c6.33301 -4 12.166 -7 17.499 -9s10.666 -3 15.999 -3c10 0 19 3.5 27 10.5s16.667 18.167 26 33.5l56 -28c-12.667 -28 -28.334 -49.333 -47.001 -64s-39.334 -22 -62.001 -22c-12.667 0 -24.167 2.33301 -34.5 7z" />
    <glyph glyph-name="Umacron" unicode="&#x16a;" horiz-adv-x="662" 
d="M572 221c0 -46 -9.49902 -86.5 -28.499 -121.5s-46.667 -62.333 -83 -82s-79.833 -29.5 -130.5 -29.5c-76.667 0 -135.834 21.167 -177.501 63.5s-62.5 98.833 -62.5 169.5v468h95v-461c0 -53.333 12 -93.333 36 -120s60.333 -40 109 -40c49.333 0 86 13.167 110 39.5
s36 66.5 36 120.5v461h96v-468zM467.001 793h-273v69h273v-69z" />
    <glyph glyph-name="umacron" unicode="&#x16b;" horiz-adv-x="582" 
d="M487 0h-79.001l-7 82c-20 -32.667 -43 -56.5 -69 -71.5s-57.667 -22.5 -95 -22.5c-46 0 -82 14 -108 42s-39 67.667 -39 119v378h92v-368c0 -36 6.33301 -61.5 19 -76.5s33.334 -22.5 62.001 -22.5c51.333 0 95.333 30.333 132 91v376h92v-527zM424.999 667h-273v69h273
v-69z" />
    <glyph glyph-name="Ubreve" unicode="&#x16c;" horiz-adv-x="662" 
d="M572 221c0 -46 -9.49902 -86.5 -28.499 -121.5s-46.667 -62.333 -83 -82s-79.833 -29.5 -130.5 -29.5c-76.667 0 -135.834 21.167 -177.501 63.5s-62.5 98.833 -62.5 169.5v468h95v-461c0 -53.333 12 -93.333 36 -120s60.333 -40 109 -40c49.333 0 86 13.167 110 39.5
s36 66.5 36 120.5v461h96v-468zM227.001 792c-28 22.667 -44 52.333 -48 89l61 13c15.333 -44 45 -66 89 -66c22.667 0 41.834 5.83301 57.501 17.5s27.167 27.834 34.5 48.501l61 -13c-4 -36.667 -20.333 -66.334 -49 -89.001s-63.334 -34 -104.001 -34
c-40 0 -74 11.333 -102 34z" />
    <glyph glyph-name="ubreve" unicode="&#x16d;" horiz-adv-x="582" 
d="M487 0h-79.001l-7 82c-20 -32.667 -43 -56.5 -69 -71.5s-57.667 -22.5 -95 -22.5c-46 0 -82 14 -108 42s-39 67.667 -39 119v378h92v-368c0 -36 6.33301 -61.5 19 -76.5s33.334 -22.5 62.001 -22.5c51.333 0 95.333 30.333 132 91v376h92v-527zM184.499 678.5
c-27.667 23.667 -43.5 56.167 -47.5 97.5l61 13c14 -50.667 43.667 -76 89 -76c47.333 0 78 25.333 92 76l61 -13c-4 -41.333 -20.167 -73.833 -48.5 -97.5s-63.166 -35.5 -104.499 -35.5c-40.667 0 -74.834 11.833 -102.501 35.5z" />
    <glyph glyph-name="Uring" unicode="&#x16e;" horiz-adv-x="662" 
d="M572 221c0 -46 -9.49902 -86.5 -28.499 -121.5s-46.667 -62.333 -83 -82s-79.833 -29.5 -130.5 -29.5c-76.667 0 -135.834 21.167 -177.501 63.5s-62.5 98.833 -62.5 169.5v468h95v-461c0 -53.333 12 -93.333 36 -120s60.333 -40 109 -40c49.333 0 86 13.167 110 39.5
s36 66.5 36 120.5v461h96v-468zM413.001 931.5c21.333 -20.333 32 -45.5 32 -75.5s-10.667 -55.167 -32 -75.5s-48.666 -30.5 -81.999 -30.5s-60.666 10.167 -81.999 30.5s-32 45.5 -32 75.5s10.667 55.167 32 75.5s48.666 30.5 81.999 30.5s60.666 -10.167 81.999 -30.5z
M292.001 897c-9.33301 -10 -14 -23.667 -14 -41s4.66699 -31 14 -41s22.333 -15 39 -15c16 0 28.833 5 38.5 15s14.5 23.667 14.5 41s-4.66699 31 -14 41s-22.333 15 -39 15s-29.667 -5 -39 -15z" />
    <glyph glyph-name="uring" unicode="&#x16f;" horiz-adv-x="582" 
d="M487 0h-79.001l-7 82c-20 -32.667 -43 -56.5 -69 -71.5s-57.667 -22.5 -95 -22.5c-46 0 -82 14 -108 42s-39 67.667 -39 119v378h92v-368c0 -36 6.33301 -61.5 19 -76.5s33.334 -22.5 62.001 -22.5c51.333 0 95.333 30.333 132 91v376h92v-527zM370.999 805.5
c21.333 -20.333 32 -45.5 32 -75.5s-10.667 -55.167 -32 -75.5s-48.666 -30.5 -81.999 -30.5s-60.666 10.167 -81.999 30.5s-32 45.5 -32 75.5s10.667 55.167 32 75.5s48.666 30.5 81.999 30.5s60.666 -10.167 81.999 -30.5zM249.999 771c-9.33301 -10 -14 -23.667 -14 -41
s4.66699 -31 14 -41s22.333 -15 39 -15c16 0 28.833 5 38.5 15s14.5 23.667 14.5 41s-4.66699 31 -14 41s-22.333 15 -39 15s-29.667 -5 -39 -15z" />
    <glyph glyph-name="Uhungarumlaut" unicode="&#x170;" horiz-adv-x="662" 
d="M572 221c0 -46 -9.49902 -86.5 -28.499 -121.5s-46.667 -62.333 -83 -82s-79.833 -29.5 -130.5 -29.5c-76.667 0 -135.834 21.167 -177.501 63.5s-62.5 98.833 -62.5 169.5v468h95v-461c0 -53.333 12 -93.333 36 -120s60.333 -40 109 -40c49.333 0 86 13.167 110 39.5
s36 66.5 36 120.5v461h96v-468zM294.001 958l78 -41l-96 -152l-58 25zM446.001 958l78 -41l-106 -157l-58 25z" />
    <glyph glyph-name="uhungarumlaut" unicode="&#x171;" horiz-adv-x="582" 
d="M487 0h-79.001l-7 82c-20 -32.667 -43 -56.5 -69 -71.5s-57.667 -22.5 -95 -22.5c-46 0 -82 14 -108 42s-39 67.667 -39 119v378h92v-368c0 -36 6.33301 -61.5 19 -76.5s33.334 -22.5 62.001 -22.5c51.333 0 95.333 30.333 132 91v376h92v-527zM259.999 832l78 -41
l-96 -152l-58 25zM411.999 832l78 -41l-106 -157l-58 25z" />
    <glyph glyph-name="Uogonek" unicode="&#x172;" horiz-adv-x="662" 
d="M572 689l-0.000976562 -467.999c0 -54.667 -13.333 -101.5 -40 -140.5s-64.667 -65.833 -114 -80.5c-47.333 -20.667 -79.666 -39.834 -96.999 -57.501s-26 -36.5 -26 -56.5c0 -32 18.667 -48 56 -48c18 0 38.333 2.33301 61 7l-9 -70
c-23.333 -4.66699 -44.333 -7 -63 -7c-38 0 -68.333 9.5 -91 28.5s-34 43.167 -34 72.5c0 51.333 31.667 91.333 95 120c-70.667 3.33301 -125 26 -163 68s-57 96.667 -57 164v468h95v-461c0 -53.333 12 -93.333 36 -120s60.333 -40 109 -40c49.333 0 86 13.167 110 39.5
s36 66.5 36 120.5v461h96z" />
    <glyph glyph-name="uogonek" unicode="&#x173;" horiz-adv-x="582" 
d="M390 -57.5c-17.333 -17.667 -26.002 -36.498 -26.002 -56.498c0 -32 18.667 -48 56 -48c18 0 38.333 2.33301 61 7l-9 -70c-23.333 -4.66699 -44.333 -7 -63 -7c-38 0 -68.333 9.5 -91 28.5s-34 43.167 -34 72.5c0 30 10 56.667 30 80s51 43.666 93 60.999l-6 72
c-20 -32.667 -43 -56.5 -69 -71.5s-57.667 -22.5 -95 -22.5c-46 0 -82 14 -108 42s-39 67.667 -39 119v378h92v-368c0 -36 6.33301 -61.5 19 -76.5s33.334 -22.5 62.001 -22.5c51.333 0 95.333 30.333 132 91v376h92v-527c-47.333 -20.667 -79.666 -39.834 -96.999 -57.501z
" />
    <glyph glyph-name="Wcircumflex" unicode="&#x174;" horiz-adv-x="826" 
d="M801 689l-140 -689h-122l-127 577l-128 -577h-119l-140 689h93l111 -606l133 606h101l136 -606l115 606h87zM286 759l-40 45l136 110h61l135 -110l-39 -45l-127 81z" />
    <glyph glyph-name="wcircumflex" unicode="&#x175;" horiz-adv-x="717" 
d="M697 527l-120 -527h-125l-92 444l-95 -444h-122l-123 527h92l95 -463l104 463h103l99 -463l96 463h88zM232 634l-39 45l135 113h61l136 -113l-40 -45l-126 84z" />
    <glyph glyph-name="Ycircumflex" unicode="&#x176;" horiz-adv-x="550" 
d="M545 689l-222 -424v-265h-96v264l-222 425h105l168 -341l168 341h99zM148 759l-40 45l136 110h61l135 -110l-39 -45l-127 81z" />
    <glyph glyph-name="ycircumflex" unicode="&#x177;" horiz-adv-x="492" 
d="M306 -3c-20.667 -61.333 -49.501 -109.833 -86.501 -145.5s-89.833 -57.167 -158.5 -64.5l-10 72c34.667 6 62.334 14.667 83.001 26s37.167 25.833 49.5 43.5s23.833 41.5 34.5 71.5h-31l-177 527h98l141 -460l138 460h95zM118.999 634l-39 45l135 113h61l136 -113
l-40 -45l-126 84z" />
    <glyph glyph-name="Ydieresis" unicode="&#x178;" horiz-adv-x="550" 
d="M545 689l-222 -424v-265h-96v264l-222 425h105l168 -341l168 341h99zM210.5 877.5c11 -11 16.5 -24.5 16.5 -40.5s-5.5 -29.5 -16.5 -40.5s-24.5 -16.5 -40.5 -16.5c-16.667 0 -30.5 5.5 -41.5 16.5s-16.5 24.5 -16.5 40.5s5.5 29.5 16.5 40.5s24.833 16.5 41.5 16.5
c16 0 29.5 -5.5 40.5 -16.5zM420.5 877.5c11 -11 16.5 -24.5 16.5 -40.5s-5.5 -29.5 -16.5 -40.5s-24.833 -16.5 -41.5 -16.5c-16 0 -29.5 5.5 -40.5 16.5s-16.5 24.5 -16.5 40.5s5.5 29.5 16.5 40.5s24.5 16.5 40.5 16.5c16.667 0 30.5 -5.5 41.5 -16.5z" />
    <glyph glyph-name="Zacute" unicode="&#x179;" horiz-adv-x="522" 
d="M477 689v-77l-341 -531h341l-11 -81h-436v76l344 533h-308v80h411zM352 911l40 -77l-216 -79l-24 49z" />
    <glyph glyph-name="zacute" unicode="&#x17a;" horiz-adv-x="437" 
d="M404 527v-70l-275 -380h278l-11 -77h-371v69l274 380h-251v78h356zM298 801l41 -77l-212 -86l-28 49z" />
    <glyph glyph-name="Zdotaccent" unicode="&#x17b;" horiz-adv-x="522" 
d="M477 689v-77l-341 -531h341l-11 -81h-436v76l344 533h-308v80h411zM318 888c12 -12 18 -27 18 -45s-6 -32.833 -18 -44.5s-27.667 -17.5 -47 -17.5c-18.667 0 -34 5.83301 -46 17.5s-18 26.5 -18 44.5s6 33 18 45s27.333 18 46 18c19.333 0 35 -6 47 -18z" />
    <glyph glyph-name="zdotaccent" unicode="&#x17c;" horiz-adv-x="437" 
d="M404 527v-70l-275 -380h278l-11 -77h-371v69l274 380h-251v78h356zM265 762c12 -12 18 -27 18 -45s-6 -32.833 -18 -44.5s-27.667 -17.5 -47 -17.5c-18.667 0 -34 5.83301 -46 17.5s-18 26.5 -18 44.5s6 33 18 45s27.333 18 46 18c19.333 0 35 -6 47 -18z" />
    <glyph glyph-name="Zcaron" unicode="&#x17d;" horiz-adv-x="522" 
d="M477 689v-77l-341 -531h341l-11 -81h-436v76l344 533h-308v80h411zM399 909l39 -45l-135 -110h-61l-136 110l40 45l126 -81z" />
    <glyph glyph-name="zcaron" unicode="&#x17e;" horiz-adv-x="437" 
d="M404 527v-70l-275 -380h278l-11 -77h-371v69l274 380h-251v78h356zM346 785l39 -45l-135 -113h-61l-136 113l40 45l126 -84z" />
    <glyph glyph-name="longs" unicode="&#x17f;" horiz-adv-x="335" 
d="M333.5 743.5c19 -4.33301 39.5 -11.167 61.5 -20.5l-29 -67c-30 13.333 -60.667 20 -92 20c-28 0 -48 -6.16699 -60 -18.5s-18 -31.5 -18 -57.5v-600h-92v456h-94v71h94v72c0 45.333 14.5 81.833 43.5 109.5s69.5 41.5 121.5 41.5c24 0 45.5 -2.16699 64.5 -6.5z" />
    <glyph glyph-name="uni0180" unicode="&#x180;" horiz-adv-x="600" 
d="M485 466.5c35.333 -48.333 53 -115.832 53 -202.499c0 -54.667 -8.33301 -102.834 -25 -144.501s-40.667 -74 -72 -97s-68 -34.5 -110 -34.5c-55.333 0 -102 23.333 -140 70l-9 -58h-81v606h-79v70h79v63l92 11v-74h148v-70h-148v-145c38 52 87.667 78 149 78
c60 0 107.667 -24.167 143 -72.5zM404.5 110.501c23 33 34.499 84.167 34.499 153.5c0 71.333 -10.667 122.833 -32 154.5s-51.666 47.5 -90.999 47.5c-46.667 0 -87.667 -27.333 -123 -82v-252c14 -22 31.167 -39.333 51.5 -52s41.833 -19 64.5 -19
c40.667 0 72.5 16.5 95.5 49.5z" />
    <glyph glyph-name="uni0181" unicode="&#x181;" horiz-adv-x="691" 
d="M602 314c29.333 -25.333 44.002 -64.667 44.002 -118c0 -130.667 -91 -196 -273 -196h-190v614h-32c-36 0 -54 -16.667 -54 -50c0 -11.333 1.5 -22.5 4.5 -33.5s7.5 -24.167 13.5 -39.5l-64 -32c-12.667 18.667 -22.667 36.334 -30 53.001s-11 35 -11 55
c0 36.667 12.667 66.167 38 88.5s61.333 33.5 108 33.5h190c87.333 0 154.166 -14.333 200.499 -43s69.5 -72.334 69.5 -131.001c0 -40 -12.5 -73.333 -37.5 -100s-55.5 -43.667 -91.5 -51c47.333 -8 85.666 -24.667 114.999 -50zM278.002 613.999v-216.999h104
c40 0 72.833 9.66699 98.5 29s38.5 46.666 38.5 81.999c0 40 -13.5 67.667 -40.5 83s-67.833 23 -122.5 23h-78zM501.502 101c29.667 16.667 44.5 48.333 44.5 95c0 45.333 -14.333 78 -43 98s-66 30 -112 30h-113v-248h95c56 0 98.833 8.33301 128.5 25z" />
    <glyph glyph-name="uni0182" unicode="&#x182;" horiz-adv-x="579" 
d="M479.5 377c46.333 -35.333 69.501 -87.667 69.501 -157c0 -76 -23.833 -131.667 -71.5 -167s-112.834 -53 -195.501 -53h-182v689h375l-12 -78h-268v-181h91c82.667 0 147.167 -17.667 193.5 -53zM407.001 106.999c27.333 20.667 41 57.668 41 111.001
c0 49.333 -13.667 84.666 -41 105.999s-67.333 32 -120 32h-92v-280h95c50.667 0 89.667 10.333 117 31z" />
    <glyph glyph-name="uni0183" unicode="&#x183;" horiz-adv-x="594" 
d="M479 466.5c35.333 -48.333 53 -115.832 53 -202.499c0 -54.667 -8.33301 -102.834 -25 -144.501s-40.667 -74 -72 -97s-68 -34.5 -110 -34.5c-55.333 0 -102 23.333 -140 70l-9 -58h-81v739h316l-12 -70h-212v-208c38 52 87.667 78 149 78
c60 0 107.667 -24.167 143 -72.5zM398.5 110.501c23 33 34.499 84.167 34.499 153.5c0 71.333 -10.667 122.833 -32 154.5s-51.666 47.5 -90.999 47.5c-46.667 0 -87.667 -27.333 -123 -82v-252c14 -22 31.167 -39.333 51.5 -52s41.833 -19 64.5 -19
c40.667 0 72.5 16.5 95.5 49.5z" />
    <glyph glyph-name="uni0184" unicode="&#x184;" horiz-adv-x="573" 
d="M478.5 382.5c46.333 -35.667 69.501 -88.833 69.501 -159.5c0 -77.333 -23.833 -133.833 -71.5 -169.5s-112.834 -53.5 -195.501 -53.5h-182v524l-69 42c30.667 32.667 57 73.667 79 123h85v-253h91c82.667 0 147.167 -17.833 193.5 -53.5zM406.001 107.501
c27.333 21 41 58.832 41 113.499c0 50.667 -13.5 86.834 -40.5 108.501s-67.167 32.5 -120.5 32.5h-92v-286h95c50.667 0 89.667 10.5 117 31.5z" />
    <glyph glyph-name="uni0185" unicode="&#x185;" horiz-adv-x="520" 
d="M432 311c35.333 -30.667 53.002 -74.334 53.002 -131.001c0 -59.333 -19.833 -104.166 -59.5 -134.499s-88.834 -45.5 -147.501 -45.5h-179v372l-69 42c31.333 32 57.666 69.667 78.999 113h82v-170h70c78.667 0 135.667 -15.333 171 -46zM356.502 97
c20.333 16.667 30.501 44.333 30.501 83c0 36.667 -9.5 63.667 -28.5 81s-51.833 26 -98.5 26h-69v-215h79c37.333 0 66.166 8.33301 86.499 25z" />
    <glyph glyph-name="uni0186" unicode="&#x186;" 
d="M434 609c47.333 -61.333 70.998 -148.999 70.998 -262.999c0 -76 -12.167 -140.833 -36.5 -194.5s-58.333 -94.334 -102 -122.001s-93.5 -41.5 -149.5 -41.5c-76 0 -141.667 25.667 -197 77l49 59c24.667 -18 47.667 -31.833 69 -41.5s46.666 -14.5 75.999 -14.5
c57.333 0 103.333 22.5 138 67.5s52 114.833 52 209.5c0 97.333 -15.667 168 -47 212s-72.666 66 -123.999 66c-56 0 -108.333 -16.667 -157 -50l-48 60c30.667 22.667 62.834 39.667 96.501 51s71.834 17 114.501 17c82.667 0 147.667 -30.667 195 -92z" />
    <glyph glyph-name="uni0187" unicode="&#x187;" 
d="M706 794l-35.9951 -59.001c-13.333 8 -25.166 13.833 -35.499 17.5s-23.166 5.5 -38.499 5.5c-42.667 0 -64 -24.667 -64 -74v-51l-44 -52c-48 28 -95 42 -141 42c-57.333 0 -103.5 -22 -138.5 -66s-52.5 -114.667 -52.5 -212c0 -94.667 17.333 -164.5 52 -209.5
s80.667 -67.5 138 -67.5c29.333 0 54.666 5 75.999 15s44.666 24.333 69.999 43l48 -61c-20.667 -22 -47.834 -40.333 -81.501 -55s-72.167 -22 -115.5 -22c-56 0 -105.833 13.833 -149.5 41.5s-77.667 68.334 -102 122.001s-36.5 118.167 -36.5 193.5
s12.667 139.833 38 193.5s59.666 94.167 102.999 121.5s91.666 41 144.999 41c36.667 0 69.667 -6 99 -18c0.666992 47.333 14.167 84 40.5 110s63.166 39 110.499 39c43.333 0 81.666 -12.667 114.999 -38z" />
    <glyph glyph-name="uni0188" unicode="&#x188;" horiz-adv-x="478" 
d="M622 712l-35.9971 -59c-13.333 8 -25.166 13.833 -35.499 17.5s-23.166 5.5 -38.499 5.5c-42.667 0 -64 -24.667 -64 -74v-120l-38 -50c-18 10 -36 17.667 -54 23s-39.667 8 -65 8c-42.667 0 -75.834 -17 -99.501 -51s-35.5 -84.333 -35.5 -151
s11.667 -115.834 35 -147.501s56.666 -47.5 99.999 -47.5c20.667 0 39.667 3.16699 57 9.5s36.666 16.5 57.999 30.5l42 -60c-48 -38.667 -101.667 -58 -161 -58c-71.333 0 -127.5 24 -168.5 72s-61.5 114.333 -61.5 199c0 56 9.33301 105 28 147s45.167 74.667 79.5 98
s75.166 35 122.499 35c26 0 49 -4 69 -12v67c0 50.667 13.333 89.334 40 116.001s63.667 40 111 40c43.333 0 81.666 -12.667 114.999 -38z" />
    <glyph glyph-name="uni0189" unicode="&#x189;" horiz-adv-x="656" 
d="M506.5 616.5c63 -48.333 94.5 -137.834 94.5 -268.501c0 -127.333 -31.5 -217.166 -94.5 -269.499s-139.5 -78.5 -229.5 -78.5h-165v318h-92v70h92v301h144c104 0 187.5 -24.167 250.5 -72.5zM440 133.999c40 39.333 60 110.667 60 214c0 72.667 -10.333 128.5 -31 167.5
s-47 65 -79 78s-69.667 19.5 -113 19.5h-70v-225h157v-70h-157v-243h77c64 0 116 19.667 156 59z" />
    <glyph glyph-name="uni018A" unicode="&#x18a;" horiz-adv-x="727" 
d="M577.5 616.5c63 -48.333 94.5 -137.835 94.5 -268.502c0 -127.333 -31.5 -217.166 -94.5 -269.499s-139.5 -78.5 -229.5 -78.5h-165v614h-32c-36 0 -54 -16.667 -54 -50c0 -11.333 1.5 -22.5 4.5 -33.5s7.5 -24.167 13.5 -39.5l-64 -32
c-12.667 18.667 -22.667 36.334 -30 53.001s-11 35 -11 55c0 36.667 12.667 66.167 38 88.5s61.333 33.5 108 33.5h171c104 0 187.5 -24.167 250.5 -72.5zM511 133.998c40 39.333 60 110.667 60 214c0 72.667 -10.333 128.5 -31 167.5s-47 65 -79 78s-69.667 19.5 -113 19.5
h-70v-538h77c64 0 116 19.667 156 59z" />
    <glyph glyph-name="uni018B" unicode="&#x18b;" horiz-adv-x="579" 
d="M479 0h-192c-78.667 0 -141.167 17 -187.5 51s-69.5 87.667 -69.5 161c0 70.667 23.333 124.667 70 162s111 56 193 56h91v181h-275v78h370v-689zM384 76v280.001h-92c-52.667 0 -92.667 -11.333 -120 -34s-41 -59.334 -41 -110.001c0 -52 13.5 -87.667 40.5 -107
s66.167 -29 117.5 -29h95z" />
    <glyph glyph-name="uni018C" unicode="&#x18c;" horiz-adv-x="598" 
d="M503 0l-81 0.000976562l-9 73c-17.333 -26.667 -39 -47.5 -65 -62.5s-55 -22.5 -87 -22.5c-62.667 0 -111.5 24.667 -146.5 74s-52.5 115.666 -52.5 198.999c0 54 8.33301 102 25 144s40.667 74.833 72 98.5s68 35.5 110 35.5c54 0 101.333 -21.667 142 -65v195h-218v70
h310v-739zM353 80.501c20 13 39.333 32.499 58 58.499v258c-17.333 22.667 -35.833 39.834 -55.5 51.501s-41.834 17.5 -66.501 17.5c-40.667 0 -72.167 -17 -94.5 -51s-33.5 -84.667 -33.5 -152c0 -68 10.333 -118.667 31 -152s50.334 -50 89.001 -50c28 0 52 6.5 72 19.5z
" />
    <glyph glyph-name="uni018D" unicode="&#x18d;" horiz-adv-x="579" 
d="M445.5 3.5c14.333 -21.667 21.5039 -47.501 21.5039 -77.501c0 -25.333 -6.83301 -48.833 -20.5 -70.5s-33.834 -39 -60.501 -52s-58.334 -19.5 -95.001 -19.5s-69 4.5 -97 13.5s-55 22.5 -81 40.5l47 57c20.667 -14 40.167 -24 58.5 -30s38.833 -9 61.5 -9
c31.333 0 54.5 6.5 69.5 19.5s22.5 29.833 22.5 50.5c0 15.333 -3.33301 28.333 -10 39s-18.334 21 -35.001 31s-42 22.333 -76 37c-66.667 28.667 -115.667 61.834 -147 99.501s-47 88.167 -47 151.5c0 46 9.33301 88.5 28 127.5s45.5 70 80.5 93s76.5 34.5 124.5 34.5
c46 0 86.5 -10 121.5 -30s62.167 -49 81.5 -87s29 -83 29 -135s-13.333 -96.5 -40 -133.5s-63.667 -67.167 -111 -90.5c35.333 -18 60.166 -37.833 74.499 -59.5zM170.504 198.499c9.66699 -23 25.832 -43.1689 48.499 -60.502s54.334 -34 95.001 -50
c36 22.667 63.167 49.834 81.5 81.501s27.5 70.834 27.5 117.501c0 58 -11 102.167 -33 132.5s-55.333 45.5 -100 45.5c-43.333 0 -76.5 -15.5 -99.5 -46.5s-34.5 -75.833 -34.5 -134.5c0 -34 4.83301 -62.5 14.5 -85.5z" />
    <glyph glyph-name="uni018E" unicode="&#x18e;" horiz-adv-x="535" 
d="M60 689h375v-689h-381v76h286v236h-232v76h232v225h-280v76z" />
    <glyph glyph-name="uni018F" unicode="&#x18f;" horiz-adv-x="649" 
d="M520.5 614c49 -58 73.501 -144.001 73.501 -258.001c0 -82 -11.833 -150.5 -35.5 -205.5s-56.167 -95.833 -97.5 -122.5s-89 -40 -143 -40c-88.667 0 -156.334 29.833 -203.001 89.5s-70 145.5 -70 257.5c0 16 1 33 3 51h447
c-2.66699 82.667 -19.667 142.834 -51 180.501s-75.666 56.5 -132.999 56.5c-62 0 -121.667 -21.667 -179 -65l-48 58c33.333 28.667 68.666 50 105.999 64s79 21 125 21c88 0 156.5 -29 205.5 -87zM495.001 309.999h-356c2.66699 -164 61 -246 175 -246
c112 0 172.333 82 181 246z" />
    <glyph glyph-name="uni0190" unicode="&#x190;" horiz-adv-x="521" 
d="M494 616l-52.0029 -56.999c-48 42.667 -100 64 -156 64c-40 0 -69.833 -9.83301 -89.5 -29.5s-29.5 -45.167 -29.5 -76.5c0 -35.333 11.833 -63.166 35.5 -83.499s55.5 -30.5 95.5 -30.5h66l-13 -78h-52c-50 0 -87.833 -10.833 -113.5 -32.5s-38.5 -52.834 -38.5 -93.501
s13 -72.667 39 -96s62.667 -35 110 -35c63.333 0 116.333 22.333 159 67l56 -54c-28 -30.667 -60.833 -53.834 -98.5 -69.501s-78.167 -23.5 -121.5 -23.5c-47.333 0 -89.666 8.83301 -126.999 26.5s-66.5 42.334 -87.5 74.001s-31.5 68.167 -31.5 109.5
c0 50.667 15 90.667 45 120s67.667 46.333 113 51c-42 9.33301 -75 27.166 -99 53.499s-36 60.5 -36 102.5c0 33.333 8.16699 63.333 24.5 90s40.333 47.667 72 63s69.834 23 114.501 23c82.667 0 154.334 -28.333 215.001 -85z" />
    <glyph glyph-name="uni0191" unicode="&#x191;" horiz-adv-x="491" 
d="M195 613v-234.999h225v-75h-225v-360c0 -50.667 -13.333 -89.334 -40 -116.001s-63.667 -40 -111 -40c-43.333 0 -81.666 12.667 -114.999 38l37 60c12.667 -7.33301 24.167 -12.833 34.5 -16.5s23.166 -5.5 38.499 -5.5c40.667 0 61 24.667 61 74v752h366l-11 -76h-260z
" />
    <glyph glyph-name="florin" unicode="&#x192;" horiz-adv-x="341" 
d="M220 657.5c-12 -12.333 -18 -31.502 -18 -57.502v-73h128l-10 -71h-118v-424c0 -48.667 -6 -87.667 -18 -117s-29.5 -53.166 -52.5 -71.499s-55.167 -36.833 -96.5 -55.5l-27 67c26 12 46 23.833 60 35.5s24.5 28 31.5 49s10.5 49.833 10.5 86.5v430h-84v71h84v72
c0 45.333 14.5 81.833 43.5 109.5s69.5 41.5 121.5 41.5c24 0 45.5 -2.16699 64.5 -6.5s39.5 -11.166 61.5 -20.499l-29 -67c-30 13.333 -60.667 20 -92 20c-28 0 -48 -6.16699 -60 -18.5z" />
    <glyph glyph-name="uni0193" unicode="&#x193;" horiz-adv-x="589" 
d="M735 794l-36 -59c-13.333 8 -25.166 13.833 -35.499 17.5s-23.166 5.5 -38.499 5.5c-42.667 0 -64 -24.667 -64 -74v-59l-49 -52c-26 16.667 -51.667 29.167 -77 37.5s-52.333 12.5 -81 12.5c-35.333 0 -67.833 -9.5 -97.5 -28.5s-53.834 -49.333 -72.501 -91
s-28 -94.5 -28 -158.5c0 -96.667 15.833 -167.334 47.5 -212.001s78.5 -67 140.5 -67c51.333 0 95 10.667 131 32v207h-122l-11 77h227v-333c-33.333 -20 -68.833 -35.167 -106.5 -45.5s-79.5 -15.5 -125.5 -15.5c-87.333 0 -156.166 30.333 -206.499 91
s-75.5 149.334 -75.5 266.001c0 74 13.5 138 40.5 192s62.5 94.833 106.5 122.5s90.667 41.5 140 41.5c51.333 0 93.666 -9 126.999 -27v2c0 50 13.167 88.5 39.5 115.5s63.5 40.5 111.5 40.5c43.333 0 81.666 -12.667 114.999 -38z" />
    <glyph glyph-name="uni0194" unicode="&#x194;" horiz-adv-x="554" 
d="M335 69c23.333 -43.333 39.6641 -77.499 48.9971 -102.499s14 -50.833 14 -77.5c0 -32.667 -10.167 -57.834 -30.5 -75.501s-50.166 -26.5 -89.499 -26.5s-69.166 8.83301 -89.499 26.5s-30.5 42.5 -30.5 74.5c0 22.667 4.83301 47 14.5 73s25.834 62 48.501 108
l-215 620h102l171 -554l173 554h96zM277.998 7.00098c-21.333 -50.667 -32 -87.667 -32 -111c0 -24 10.667 -36 32 -36s32 12 32 36c0 23.333 -10.667 60.333 -32 111z" />
    <glyph glyph-name="uni0195" unicode="&#x195;" horiz-adv-x="885" 
d="M815 255c0 -60 -11.1689 -109.998 -33.502 -149.998s-51 -69.5 -86 -88.5s-72.5 -28.5 -112.5 -28.5c-51.333 0 -94 15.333 -128 46s-51 73.667 -51 129v202c0 37.333 -7.16699 63.666 -21.5 78.999s-35.166 23 -62.499 23s-51.666 -8 -72.999 -24
s-41.333 -38.667 -60 -68v-375h-92v738l92 10v-294c41.333 56.667 93.333 85 156 85c48 0 85.5 -14.333 112.5 -43s40.5 -68 40.5 -118v-207c0 -36.667 7.83301 -64 23.5 -82s38.167 -27 67.5 -27c36 0 67.5 15.667 94.5 47s40.5 82.666 40.5 153.999
c0 86 -8.66699 174 -26 264h93c17.333 -94 26 -184.667 26 -272z" />
    <glyph glyph-name="uni0196" unicode="&#x196;" horiz-adv-x="366" 
d="M356 26c-33.333 -25.333 -71.666 -38.001 -114.999 -38.001c-47.333 0 -84.333 13.333 -111 40s-40 65.334 -40 116.001v545h95v-551c0 -49.333 20.333 -74 61 -74c15.333 0 28.166 1.83301 38.499 5.5s21.833 9.16699 34.5 16.5z" />
    <glyph glyph-name="uni0197" unicode="&#x197;" horiz-adv-x="313" 
d="M298 396v-74h-94v-322h-95v322h-94v74h94v293h95v-293h94z" />
    <glyph glyph-name="uni0198" unicode="&#x198;" horiz-adv-x="617" 
d="M200 368l168.998 242c22.667 32.667 44.834 56 66.501 70s48.834 21 81.501 21c21.333 0 39.833 -3 55.5 -9s30.5 -14.667 44.5 -26l-34 -61c-9.33301 6 -18.333 10.667 -27 14s-19.667 5 -33 5c-16.667 0 -31 -3.66699 -43 -11s-26 -23 -42 -47l-130 -192l281 -374h-117
zM194.998 689v-689h-95v689h95z" />
    <glyph glyph-name="uni0199" unicode="&#x199;" horiz-adv-x="512" 
d="M205 657.5c-12 -12.333 -18 -31.501 -18 -57.501v-600h-92v599c0 45.333 14.5 81.833 43.5 109.5s69.5 41.5 121.5 41.5c24 0 45.5 -2.16699 64.5 -6.5s39.5 -11.166 61.5 -20.499l-29 -67c-30 13.333 -60.667 20 -92 20c-28 0 -48 -6.16699 -60 -18.5zM296 293.999
l216 -294h-110l-209 288l194 239h103z" />
    <glyph glyph-name="uni019A" unicode="&#x19a;" horiz-adv-x="313" 
d="M203 337v-231c0 -14 2.5 -24.5 7.5 -31.5s13.5 -10.5 25.5 -10.5c12.667 0 24 2 34 6l24 -64c-22 -12 -46.333 -18 -73 -18c-34 0 -60.833 10.167 -80.5 30.5s-29.5 48.833 -29.5 85.5v233h-96v70h96v332l92 11v-343h95v-70h-95z" />
    <glyph glyph-name="uni019B" unicode="&#x19b;" horiz-adv-x="490" 
d="M387 250.5c17.333 -55 34.833 -99.1689 52.5 -132.502s39.5 -65.333 65.5 -96l-86 -34c-26 35.333 -48.167 70.333 -66.5 105s-35.833 78.834 -52.5 132.501s-34 122.834 -52 207.501l-139 -445l-89 22l165 487h48c-8.66699 42.667 -20 77 -34 103l-65 -63l-63 32l81 83
c-20.667 13.333 -48.667 23 -84 29l14 71c54 -10.667 95.333 -25.667 124 -45l65 69l54 -47l-69 -71c14.667 -20 27.667 -44.833 39 -74.5s22.333 -66.5 33 -110.5c22 -93.333 41.667 -167.5 59 -222.5z" />
    <glyph glyph-name="uni019C" unicode="&#x19c;" horiz-adv-x="933" 
d="M833 689l-0.000976562 -688.999h-82l-8 79c-22 -30.667 -46.167 -53.5 -72.5 -68.5s-55.833 -22.5 -88.5 -22.5c-36 0 -66.667 8.66699 -92 26s-44.666 41.666 -57.999 72.999c-26 -34 -53 -59 -81 -75s-59 -24 -93 -24c-52.667 0 -93.834 18.5 -123.501 55.5
s-44.5 85.5 -44.5 145.5v500h95v-498c0 -40 7.83301 -70.833 23.5 -92.5s37.834 -32.5 66.501 -32.5s53.167 7 73.5 21s42.5 38 66.5 72c-0.666992 6.66699 -1 16.667 -1 30v500h95v-498c0 -40 7.83301 -70.833 23.5 -92.5s37.834 -32.5 66.501 -32.5s53.167 7 73.5 21
s42.166 38 65.499 72v530h95z" />
    <glyph glyph-name="uni019D" unicode="&#x19d;" horiz-adv-x="683" 
d="M583 689l0.000976562 -688.999h-127l-280 585c4 -46 7.16699 -88.5 9.5 -127.5s3.5 -86.167 3.5 -141.5v-375c0 -50 -13.333 -88.167 -40 -114.5s-62.667 -39.5 -108 -39.5c-43.333 0 -81.666 12.667 -114.999 38l36 59c13.333 -8 25.166 -13.833 35.499 -17.5
s23.166 -5.5 38.499 -5.5c42.667 0 64 24.667 64 74v754h124l283 -586c-2 17.333 -4.66699 47.666 -8 90.999s-5 83 -5 119v376h89z" />
    <glyph glyph-name="uni019E" unicode="&#x19e;" horiz-adv-x="586" 
d="M455.5 496c27 -28.667 40.499 -67.999 40.499 -117.999v-591l-92 11v567c0 37.333 -7 63.666 -21 78.999s-34.667 23 -62 23c-28 0 -52.667 -8 -74 -24s-41.333 -39 -60 -69v-374h-92v527h79l8 -78c18.667 28 41.834 50 69.501 66s58.167 24 91.5 24
c48 0 85.5 -14.333 112.5 -43z" />
    <glyph glyph-name="uni019F" unicode="&#x19f;" horiz-adv-x="692" 
d="M498.5 659.5c43.667 -27.667 77.667 -68.165 102 -121.498s36.5 -118 36.5 -194c0 -74.667 -12.167 -138.667 -36.5 -192s-58.333 -94 -102 -122s-94.5 -42 -152.5 -42s-108.833 13.667 -152.5 41s-77.667 67.666 -102 120.999s-36.5 117.666 -36.5 192.999
c0 74 12.167 138 36.5 192s58.5 95.167 102.5 123.5s94.667 42.5 152 42.5c58 0 108.833 -13.833 152.5 -41.5zM212 565.002c-34 -38.667 -53.665 -98.332 -58.998 -178.999h386c-4.66699 81.333 -23.834 141.166 -57.501 179.499s-78.834 57.5 -135.501 57.5
c-55.333 0 -100 -19.333 -134 -58zM483.502 126.504c33.667 40.333 52.168 103.5 55.501 189.5h-386c3.33301 -85.333 22.166 -148.333 56.499 -189s79.833 -61 136.5 -61c58 0 103.833 20.167 137.5 60.5z" />
    <glyph glyph-name="Ohorn" unicode="&#x1a0;" horiz-adv-x="703" 
d="M574 587c42 -62 63 -142.997 63 -242.997c0 -74.667 -12.167 -138.667 -36.5 -192s-58.333 -94 -102 -122s-94.5 -42 -152.5 -42s-108.833 13.667 -152.5 41s-77.667 67.666 -102 120.999s-36.5 117.666 -36.5 192.999c0 74 12.167 138 36.5 192s58.5 95.167 102.5 123.5
s94.667 42.5 152 42.5c75.333 0 137 -22 185 -66c36.667 4.66699 55 21.667 55 51c0 15.333 -1.16699 28.166 -3.5 38.499s-5.83301 21.5 -10.5 33.5l72 15c12.667 -22 19 -49.333 19 -82c0 -58 -29.667 -92.667 -89 -104zM536 344.003c0 186 -63.333 279 -190 279
c-60 0 -106.667 -22.667 -140 -68s-50 -116 -50 -212c0 -95.333 16.833 -165.333 50.5 -210s80.167 -67 139.5 -67c126.667 0 190 92.667 190 278z" />
    <glyph glyph-name="ohorn" unicode="&#x1a1;" horiz-adv-x="595" 
d="M495 420c21.333 -44 32 -96 32 -156c0 -54.667 -9.33301 -102.834 -28 -144.501s-45.667 -74 -81 -97s-77.333 -34.5 -126 -34.5c-74 0 -131.667 24.667 -173 74s-62 116.333 -62 201c0 54.667 9.33301 102.834 28 144.501s45.667 74 81 97s77.666 34.5 126.999 34.5
c70 0 125.333 -22.333 166 -67c18.667 2.66699 32.334 7.83398 41.001 15.501s13 18.5 13 32.5c0 15.333 -1.16699 28.166 -3.5 38.499s-5.83301 21.5 -10.5 33.5l72 15c12.667 -22 19 -49.333 19 -82c0 -60 -31.667 -95 -95 -105zM428 264c0 134 -45 201 -135 201
c-91.333 0 -137 -67.333 -137 -202c0 -134 45.333 -201 136 -201s136 67.333 136 202z" />
    <glyph glyph-name="uni01A2" unicode="&#x1a2;" horiz-adv-x="926" 
d="M784.5 662c27.667 -27.333 41.499 -66.9961 41.499 -118.996v-745h-95v748c0 55.333 -25 83 -75 83c-18 0 -34.333 -2 -49 -6s-30.334 -10.667 -47.001 -20c24.667 -30.667 43.667 -67.834 57 -111.501s20 -92.834 20 -147.501c0 -74.667 -12.167 -138.667 -36.5 -192
s-58.333 -94 -102 -122s-94.5 -42 -152.5 -42s-108.833 13.667 -152.5 41s-77.667 67.666 -102 120.999s-36.5 117.666 -36.5 192.999c0 74 12.167 138 36.5 192s58.5 95.167 102.5 123.5s94.667 42.5 152 42.5c62.667 0 117.334 -16.667 164.001 -50
c26 18 50.833 31.167 74.5 39.5s49.834 12.5 78.501 12.5c53.333 0 93.833 -13.667 121.5 -41zM535.999 344.004c0 186 -63.333 279 -190 279c-60 0 -106.667 -22.667 -140 -68s-50 -116 -50 -212c0 -95.333 16.833 -165.333 50.5 -210s80.167 -67 139.5 -67
c126.667 0 190 92.667 190 278z" />
    <glyph glyph-name="uni01A3" unicode="&#x1a3;" horiz-adv-x="792" 
d="M657.5 498c26.333 -27.333 39.5 -67.001 39.5 -119.001v-592l-92 11v584c0 28 -6.16699 48.833 -18.5 62.5s-30.166 20.5 -53.499 20.5c-20 0 -40.333 -3.66699 -61 -11c36.667 -49.333 55 -112.666 55 -189.999c0 -54.667 -9.33301 -102.834 -28 -144.501
s-45.667 -74 -81 -97s-77.333 -34.5 -126 -34.5c-74 0 -131.667 24.667 -173 74s-62 116.333 -62 201c0 54.667 9.33301 102.834 28 144.501s45.667 74 81 97s77.666 34.5 126.999 34.5c47.333 0 89 -11.333 125 -34c40 22.667 81.333 34 124 34
c50.667 0 89.167 -13.667 115.5 -41zM428 263.999c0 134 -45 201 -135 201c-91.333 0 -137 -67.333 -137 -202c0 -134 45.333 -201 136 -201s136 67.333 136 202z" />
    <glyph glyph-name="uni01A4" unicode="&#x1a4;" horiz-adv-x="664" 
d="M562 635.5c46.667 -35.667 70.001 -88.834 70.001 -159.501c0 -75.333 -24.333 -131.333 -73 -168s-113.334 -55 -194.001 -55h-87v-253h-95v614h-32c-36 0 -54 -16.667 -54 -50c0 -11.333 1.5 -22.5 4.5 -33.5s7.5 -24.167 13.5 -39.5l-64 -32
c-12.667 18.667 -22.667 36.334 -30 53.001s-11 35 -11 55c0 36.667 12.667 66.167 38 88.5s61.333 33.5 108 33.5h208c85.333 0 151.333 -17.833 198 -53.5zM487.501 360c29 21.333 43.5 59.667 43.5 115c0 49.333 -14.5 85 -43.5 107s-70.5 33 -124.5 33h-85v-287h83
c55.333 0 97.5 10.667 126.5 32z" />
    <glyph glyph-name="uni01A5" unicode="&#x1a5;" horiz-adv-x="594" 
d="M485 467c31.333 -48 47.001 -115.668 47.001 -203.001c0 -82.667 -18 -149.334 -54 -200.001s-87 -76 -153 -76c-58.667 0 -104.667 20 -138 60v-250l-92 -11v812c0 45.333 14.5 81.833 43.5 109.5s69.5 41.5 121.5 41.5c24 0 45.5 -2.16699 64.5 -6.5
s39.5 -11.166 61.5 -20.499l-29 -67c-30 13.333 -60.667 20 -92 20c-28 0 -48 -6.16699 -60 -18.5s-18 -31.5 -18 -57.5v-142c19.333 26.667 41.833 46.834 67.5 60.501s53.167 20.5 82.5 20.5c67.333 0 116.666 -24 147.999 -72zM433.001 263.999
c0 134.667 -39.667 202 -119 202c-26 0 -49.667 -7.66699 -71 -23s-40 -35 -56 -59v-257c13.333 -20.667 30 -36.5 50 -47.5s42 -16.5 66 -16.5c86.667 0 130 67 130 201z" />
    <glyph glyph-name="uni01A6" unicode="&#x1a6;" horiz-adv-x="605" 
d="M302 170l-107 0.000976562v-170h-95v689h95v-122h86c86 0 151.167 -16.333 195.5 -49s66.5 -81.334 66.5 -146.001c0 -48 -12.333 -87 -37 -117s-62 -52.667 -112 -68l186 -309h-113zM291 243.001c50 0 87.668 10.168 113.001 30.501s38 53.166 38 98.499
c0 42.667 -12.833 73.5 -38.5 92.5s-66.834 28.5 -123.501 28.5h-85v-250h96z" />
    <glyph glyph-name="uni01A7" unicode="&#x1a7;" horiz-adv-x="537" 
d="M433.5 653.5c39 -31.667 58.5029 -73.5 58.5029 -125.5s-16.5 -93 -49.5 -123s-84.5 -56 -154.5 -78c-56.667 -17.333 -95.667 -36.833 -117 -58.5s-32 -49.5 -32 -83.5c0 -38 13.333 -67.333 40 -88s60 -31 100 -31c65.333 0 125.666 22.667 180.999 68l52 -57
c-61.333 -59.333 -140 -89 -236 -89c-47.333 0 -88.833 8.5 -124.5 25.5s-63.167 40.5 -82.5 70.5s-29 63.667 -29 101c0 58.667 17.667 103.5 53 134.5s85.666 56.5 150.999 76.5c40.667 12.667 71.667 25 93 37s36 25.333 44 40s12 33 12 55
c0 32.667 -10.5 56.667 -31.5 72s-49.5 23 -85.5 23c-30.667 0 -58.834 -4.66699 -84.501 -14s-51.5 -24.333 -77.5 -45l-52 57c32 26.667 65.333 46.667 100 60s74 20 118 20c63.333 0 114.5 -15.833 153.5 -47.5z" />
    <glyph glyph-name="uni01A8" unicode="&#x1a8;" horiz-adv-x="457" 
d="M369.5 499c33 -26.667 49.501 -60.6709 49.501 -102.004c0 -39.333 -12.333 -70.666 -37 -93.999s-65.334 -42.666 -122.001 -57.999c-34 -9.33301 -60 -18.5 -78 -27.5s-30.5 -19.167 -37.5 -30.5s-10.5 -26 -10.5 -44c0 -25.333 9.33301 -45.166 28 -59.499
s43 -21.5 73 -21.5c52.667 0 102.667 16.667 150 50l47 -55c-52.667 -46 -119 -69 -199 -69c-34 0 -66 5.83301 -96 17.5s-54.5 29.5 -73.5 53.5s-28.5 53 -28.5 87c0 44.667 14.333 79.167 43 103.5s72.667 43.833 132 58.5c43.333 10.667 72.833 22.834 88.5 36.501
s23.5 32.167 23.5 55.5c0 20 -8 36 -24 48s-38.667 18 -68 18c-25.333 0 -49 -3.5 -71 -10.5s-45.667 -18.167 -71 -33.5l-38 57c56 40 118.333 60 187 60c55.333 0 99.5 -13.333 132.5 -40z" />
    <glyph glyph-name="uni01A9" unicode="&#x1a9;" horiz-adv-x="503" 
d="M463 689v-78h-316l200 -239v-62l-200 -232h316v-78h-423v78l222 261l-222 272v78h423z" />
    <glyph glyph-name="uni01AA" unicode="&#x1aa;" horiz-adv-x="308" 
d="M387 -175c-33.333 -25.333 -71.666 -38 -114.999 -38c-46.667 0 -83.5 13.333 -110.5 40s-40.5 65.334 -40.5 116.001v543c-18 -6.66699 -36.667 -10 -56 -10c-37.333 0 -68.333 12.333 -93 37s-37 57.667 -37 99s13 74.666 39 99.999s58.667 38 98 38
c42.667 0 76.834 -12.167 102.501 -36.5s38.5 -60.833 38.5 -109.5v-669c0 -49.333 21.333 -74 64 -74c15.333 0 28.166 1.66699 38.499 5s22.166 9 35.499 17zM121 555v57c0 22 -4.16699 38.5 -12.5 49.5s-19.833 16.5 -34.5 16.5c-15.333 0 -27 -5.66699 -35 -17
s-12 -27 -12 -47c0 -44 18 -66 54 -66c12.667 0 26 2.33301 40 7z" />
    <glyph glyph-name="uni01AB" unicode="&#x1ab;" horiz-adv-x="361" 
d="M361 24l-0.000976562 -81c0 -50.667 -13.333 -89.334 -40 -116.001s-63.667 -40 -111 -40c-43.333 0 -81.666 12.667 -114.999 38l36 59c13.333 -8 25.166 -13.833 35.499 -17.5s23.166 -5.5 38.499 -5.5c44.667 0 67 24.667 67 74v60
c-11.333 -4.66699 -24.333 -7 -39 -7c-39.333 0 -71.166 13 -95.499 39s-36.5 63 -36.5 111v318h-92v71h92v119l92 11v-130h125l-10 -71h-115v-318c0 -27.333 4.83301 -47.166 14.5 -59.499s25.834 -18.5 48.501 -18.5c23.333 0 49 4.66699 77 14z" />
    <glyph glyph-name="uni01AC" unicode="&#x1ac;" horiz-adv-x="555" 
d="M535 608h-191v-608h-95v608h-96c-18 0 -31.5 -4.16699 -40.5 -12.5s-13.5 -19.5 -13.5 -33.5c0 -11.333 1.66699 -21.833 5 -31.5s8.33301 -21.834 15 -36.501l-71 -36c-25.333 38.667 -38 74.334 -38 107.001c0 37.333 13 67.333 39 90s62.667 34 110 34h386z" />
    <glyph glyph-name="uni01AD" unicode="&#x1ad;" horiz-adv-x="361" 
d="M326 87l35 -63.0029c-34.667 -24 -74 -36 -118 -36c-44.667 0 -79.5 12.833 -104.5 38.5s-37.5 62.834 -37.5 111.501v318h-92v71h92v67c0 50.667 13.167 89.334 39.5 116.001s62.5 40 108.5 40c41.333 0 78.666 -12.667 111.999 -38l-36 -59
c-13.333 8 -25 13.833 -35 17.5s-22 5.5 -36 5.5c-18.667 0 -33.5 -6 -44.5 -18s-16.5 -30.667 -16.5 -56v-75h125l-10 -71h-115v-314c0 -27.333 4.83301 -47.166 14.5 -59.499s25.834 -18.5 48.501 -18.5c22 0 45.333 7.66699 70 23z" />
    <glyph glyph-name="uni01AE" unicode="&#x1ae;" horiz-adv-x="517" 
d="M367 -137c15.333 0 28.166 1.83203 38.499 5.49902s21.833 9.16699 34.5 16.5l37 -60c-33.333 -25.333 -71.666 -38 -114.999 -38c-47.333 0 -84.333 13.333 -111 40s-40 65.334 -40 116.001v665h-196v81h492l-10 -81h-191v-671c0 -49.333 20.333 -74 61 -74z" />
    <glyph glyph-name="Uhorn" unicode="&#x1af;" horiz-adv-x="676" 
d="M696 691c0 -34 -10.499 -60.167 -31.499 -78.5s-51.833 -28.166 -92.5 -29.499v-362c0 -46 -9.5 -86.5 -28.5 -121.5s-46.667 -62.333 -83 -82s-79.833 -29.5 -130.5 -29.5c-76.667 0 -135.834 21.167 -177.501 63.5s-62.5 98.833 -62.5 169.5v468h95v-461
c0 -53.333 12 -93.333 36 -120s60.333 -40 109 -40c49.333 0 86 13.167 110 39.5s36 66.5 36 120.5v461h96v-53c31.333 6 47 22.667 47 50c0 15.333 -1.16699 28.166 -3.5 38.499s-5.83301 21.5 -10.5 33.5l72 15c12.667 -22 19 -49.333 19 -82z" />
    <glyph glyph-name="uhorn" unicode="&#x1b0;" horiz-adv-x="601" 
d="M611 525c0 -34 -10.501 -60.167 -31.501 -78.5s-51.833 -28.166 -92.5 -29.499v-417h-79l-7 82c-20 -32.667 -43 -56.5 -69 -71.5s-57.667 -22.5 -95 -22.5c-46 0 -82 14 -108 42s-39 67.667 -39 119v378h92v-368c0 -36 6.33301 -61.5 19 -76.5
s33.334 -22.5 62.001 -22.5c51.333 0 95.333 30.333 132 91v376h92v-54c31.333 6 47 21.667 47 47c0 15.333 -1.16699 28.166 -3.5 38.499s-5.83301 21.5 -10.5 33.5l72 15c12.667 -22 19 -49.333 19 -82z" />
    <glyph glyph-name="uni01B1" unicode="&#x1b1;" horiz-adv-x="692" 
d="M192 27.5c-44 26.333 -77.833 64.1689 -101.5 113.502s-35.5 107.333 -35.5 174c0 72.667 11.333 131.334 34 176.001s54.334 84.667 95.001 120h-107v78h202v-78c-42.667 -34 -73.834 -73.5 -93.501 -118.5s-29.5 -104.167 -29.5 -177.5
c0 -82.667 16.667 -144.834 50 -186.501s80 -62.5 140 -62.5c59.333 0 105.833 21 139.5 63s50.5 104.333 50.5 187c0 70.667 -10.333 128.667 -31 174s-51 85.666 -91 120.999v78h202v-78h-107c39.333 -29.333 70.5 -66.833 93.5 -112.5s34.5 -106.5 34.5 -182.5
c0 -64.667 -12.333 -121.834 -37 -171.501s-59 -88.167 -103 -115.5s-94.333 -41 -151 -41c-58.667 0 -110 13.167 -154 39.5z" />
    <glyph glyph-name="uni01B2" unicode="&#x1b2;" horiz-adv-x="662" 
d="M541.5 669.5c20.333 -21 30.4971 -52.8359 30.4971 -95.5029v-273c0 -63.333 -10.667 -118.5 -32 -165.5s-51.666 -83.333 -90.999 -109s-85 -38.5 -137 -38.5c-45.333 0 -84.666 9.66699 -117.999 29s-59 45.833 -77 79.5s-27 71.834 -27 114.501v478h95v-473
c0 -47.333 11 -83.833 33 -109.5s53.333 -38.5 94 -38.5c53.333 0 94 20.333 122 61s42 100.334 42 179.001v265c0 18.667 -2.83301 31.834 -8.5 39.501s-15.5 11.5 -29.5 11.5c-13.333 0 -25.666 -2.33301 -36.999 -7l-24 66c22 12 47.333 18 76 18
c38.667 0 68.167 -10.5 88.5 -31.5z" />
    <glyph glyph-name="uni01B3" unicode="&#x1b3;" horiz-adv-x="586" 
d="M227 264l-221.999 424.999h105l168 -341l110 239c18.667 40.667 39.167 69.834 61.5 87.501s51.166 26.5 86.499 26.5c20.667 0 39.334 -3.5 56.001 -10.5s33 -16.833 49 -29.5l-36 -54c-19.333 14.667 -40.333 22 -63 22c-16 0 -29.333 -4.83301 -40 -14.5
s-22.334 -27.5 -35.001 -53.5l-144 -296v-265h-96v264z" />
    <glyph glyph-name="uni01B4" unicode="&#x1b4;" horiz-adv-x="496" 
d="M51 -141c34.667 6 62.332 14.667 82.999 26s37.167 25.833 49.5 43.5s23.833 41.5 34.5 71.5h-31l-177 527h98l141 -460l105 397c10.667 40 24.834 68.333 42.501 85s42.5 25 74.5 25c24.667 0 48 -6 70 -18l-24 -62c-10 4 -21.333 6 -34 6
c-11.333 0 -20.166 -3.16699 -26.499 -9.5s-11.833 -17.833 -16.5 -34.5l-130 -450c-18.667 -64.667 -47.334 -115.5 -86.001 -152.5s-93 -59.167 -163 -66.5z" />
    <glyph glyph-name="uni01B5" unicode="&#x1b5;" horiz-adv-x="522" 
d="M477 689v-77l-148 -228h105v-74h-153l-149 -229h345l-11 -81h-436v76l153 234h-89v74h137l147 225h-312v80h411z" />
    <glyph glyph-name="uni01B6" unicode="&#x1b6;" horiz-adv-x="437" 
d="M126 77h281l-11 -77h-371v69l117 160h-81v70h132l109 150h-254v78h356v-70l-116 -158h84v-70h-135z" />
    <glyph glyph-name="uni01B7" unicode="&#x1b7;" horiz-adv-x="516" 
d="M411.5 345c39.667 -34.667 59.5 -83.6689 59.5 -147.002c0 -40.667 -9.83301 -77 -29.5 -109s-48 -56.833 -85 -74.5s-80.5 -26.5 -130.5 -26.5c-48 0 -89.5 7.33301 -124.5 22s-65.5 37.334 -91.5 68.001l55 54c21.333 -23.333 44.5 -40.166 69.5 -50.499
s54.5 -15.5 88.5 -15.5c48 0 84.833 11.833 110.5 35.5s38.5 56.5 38.5 98.5c0 45.333 -12.667 78 -38 98s-65 30 -119 30h-88v67l208 216h-294v78h406v-77l-213 -215h1c78 0 136.833 -17.333 176.5 -52z" />
    <glyph glyph-name="uni01B8" unicode="&#x1b8;" horiz-adv-x="516" 
d="M506 78c-26 -30.667 -56.832 -53.332 -92.499 -67.999s-79.167 -22 -130.5 -22c-46.667 0 -88.167 8.66699 -124.5 26s-64.333 41.333 -84 72s-29.5 65.667 -29.5 105c0 62 20.5 111.833 61.5 149.5s99.167 56.5 174.5 56.5h1l-213 215v77h406v-78h-294l208 -216v-67h-88
c-104.667 0 -157 -45 -157 -135c0 -38.667 12.5 -69.5 37.5 -92.5s59.833 -34.5 104.5 -34.5c37.333 0 68.666 5.16699 93.999 15.5s49 27.166 71 50.499z" />
    <glyph glyph-name="uni01B9" unicode="&#x1b9;" horiz-adv-x="481" 
d="M481 -123c-28 -30 -59.001 -52.5 -93.001 -67.5s-74.333 -22.5 -121 -22.5c-46 0 -87 8.83301 -123 26.5s-64 42.167 -84 73.5s-30 67 -30 107c0 66.667 20.667 118.667 62 156s99 56 173 56h3l-214 251v70h396v-76h-289l203 -246v-67h-79
c-54.667 0 -94.334 -11.5 -119.001 -34.5s-37 -58.833 -37 -107.5c0 -42 12.167 -74.833 36.5 -98.5s58.833 -35.5 103.5 -35.5c32.667 0 61.334 5 86.001 15s49.334 26.333 74.001 49z" />
    <glyph glyph-name="uni01BA" unicode="&#x1ba;" horiz-adv-x="470" 
d="M61 -152.5c-22 23 -32.999 48.8311 -32.999 77.498c0 33.333 13.333 59.333 40 78s68.667 31.334 126 38.001c54 6.66699 92.833 16.667 116.5 30s35.5 35 35.5 65c0 22.667 -7.33301 39.667 -22 51s-35.334 17 -62.001 17h-151v67l193 180h-279v76h391v-70l-204 -185h55
c55.333 0 98.833 -11.833 130.5 -35.5s47.5 -57.5 47.5 -101.5c0 -48.667 -18 -86.5 -54 -113.5s-85 -44.167 -147 -51.5c-33.333 -4 -58.5 -8.16699 -75.5 -12.5s-29 -9.66602 -36 -15.999s-10.5 -14.5 -10.5 -24.5c0 -12.667 6 -24.667 18 -36s30.333 -23.333 55 -36
l-34 -60c-44.667 18.667 -78 39.5 -100 62.5z" />
    <glyph glyph-name="uni01BB" unicode="&#x1bb;" horiz-adv-x="495" 
d="M445 77l-10.998 -77.002h-395v73l168 179h-134v74h196c24 32 40.667 60.5 50 85.5s14 51.833 14 80.5c0 34.667 -10 61.834 -30 81.501s-46.667 29.5 -80 29.5c-27.333 0 -51.333 -5.66699 -72 -17s-42.667 -30 -66 -56l-60 48c27.333 34 57.666 59.333 90.999 76
s70.666 25 111.999 25c40 0 75.167 -8 105.5 -24s53.833 -37.833 70.5 -65.5s25 -58.834 25 -93.501c0 -29.333 -4.66699 -57.666 -14 -84.999s-24.333 -55.666 -45 -84.999h71v-74h-129c-33.333 -38 -89.333 -96.333 -168 -175h301z" />
    <glyph glyph-name="uni01BC" unicode="&#x1bc;" horiz-adv-x="511" 
d="M430 617l-269.998 -0.000976562v-210c36 19.333 75 29 117 29c57.333 0 103.166 -19.167 137.499 -57.5s51.5 -91.5 51.5 -159.5c0 -45.333 -9.66699 -85.5 -29 -120.5s-47 -62.167 -83 -81.5s-77.667 -29 -125 -29c-78.667 0 -146.334 28.333 -203.001 85l54 53
c43.333 -42 92.666 -63 147.999 -63c44.667 0 79.5 13.5 104.5 40.5s37.5 66.167 37.5 117.5c0 50.667 -10.833 87.334 -32.5 110.001s-51.167 34 -88.5 34c-18 0 -34.667 -1.83301 -50 -5.5s-33.666 -9.5 -54.999 -17.5h-72v347h371z" />
    <glyph glyph-name="uni01BD" unicode="&#x1bd;" horiz-adv-x="452" 
d="M365 451l-208 -0.000976562v-125c13.333 6.66699 26.666 11.667 39.999 15s30.333 5 51 5c30.667 0 58.5 -7.16699 83.5 -21.5s44.667 -34.666 59 -60.999s21.5 -56.833 21.5 -91.5c0 -36 -8.5 -68 -25.5 -96s-41 -49.667 -72 -65s-67.167 -23 -108.5 -23
c-38 0 -70.667 6 -98 18s-53.333 29.667 -78 53l50 55c22 -17.333 41.667 -29.5 59 -36.5s39.333 -10.5 66 -10.5c32 0 58 9.16699 78 27.5s30 44.833 30 79.5c0 33.333 -8.33301 57.833 -25 73.5s-38.667 23.5 -66 23.5c-18.667 0 -34.167 -1.5 -46.5 -4.5
s-27.166 -8.5 -44.499 -16.5h-65v277h315z" />
    <glyph glyph-name="uni01BE" unicode="&#x1be;" horiz-adv-x="513" 
d="M404.5 364c34.333 -36 51.5 -86.668 51.5 -152.001c0 -42.667 -9.33301 -80.834 -28 -114.501s-45.167 -60.167 -79.5 -79.5s-74.166 -29 -119.499 -29c-39.333 0 -74.833 6.83301 -106.5 20.5s-62.5 35.167 -92.5 64.5l50 52c24 -21.333 47.667 -37.166 71 -47.499
s48.666 -15.5 75.999 -15.5c44 0 76.833 13.333 98.5 40s32.5 63.667 32.5 111s-10.167 83.333 -30.5 108s-51.833 42.334 -94.5 53.001l-71 16v154h-78v70h78v123l92 10v-133h108v-70h-108v-108l24 -3c50 -10.667 92.167 -34 126.5 -70z" />
    <glyph glyph-name="uni01BF" unicode="&#x1bf;" horiz-adv-x="589" 
d="M483 489.5c32.667 -33 48.999 -78.167 48.999 -135.5c0 -52.667 -11.167 -98.334 -33.5 -137.001s-52.833 -72.167 -91.5 -100.5s-88.334 -58.166 -149.001 -89.499l-71 -37v-192l-92 -11v740h79l8 -76c23.333 28.667 48.833 50.5 76.5 65.5s60.834 22.5 99.501 22.5
c50.667 0 92.334 -16.5 125.001 -49.5zM387.999 207.5c30 38.333 44.999 86.5 44.999 144.5c0 37.333 -8.16699 65.5 -24.5 84.5s-40.166 28.5 -71.499 28.5c-55.333 0 -105.333 -26.667 -150 -80v-319l59 32c64.667 34.667 112 71.167 142 109.5z" />
    <glyph glyph-name="uni01C0" unicode="&#x1c0;" horiz-adv-x="286" 
d="M186 749v-749h-86v739z" />
    <glyph glyph-name="uni01C1" unicode="&#x1c1;" horiz-adv-x="458" 
d="M186 749v-749h-86v739zM358 749v-749h-86v739z" />
    <glyph glyph-name="uni01C2" unicode="&#x1c2;" horiz-adv-x="313" 
d="M298 408h-98v-86h98v-63h-98v-259h-86v259h-99v63h99v86h-99v63h99v268l86 10v-278h98v-63z" />
    <glyph glyph-name="uni01C3" unicode="&#x1c3;" horiz-adv-x="339" 
d="M212 749v-539h-86v529zM219 107c13.333 -13.333 20 -29.666 20 -48.999s-6.66699 -35.833 -20 -49.5s-30 -20.5 -50 -20.5c-19.333 0 -35.666 6.83301 -48.999 20.5s-20 30.167 -20 49.5s6.66699 35.666 20 48.999s29.666 20 48.999 20c20 0 36.667 -6.66699 50 -20z" />
    <glyph glyph-name="uni01C4" unicode="&#x1c4;" horiz-adv-x="1141" 
d="M494.5 616.5c63 -48.333 94.5 -137.834 94.5 -268.501c0 -127.333 -31.5 -217.166 -94.5 -269.499s-139.5 -78.5 -229.5 -78.5h-165v689h144c104 0 187.5 -24.167 250.5 -72.5zM195 612.999v-537.999h77c64 0 116 19.667 156 59s60 110.666 60 213.999
c0 72.667 -10.333 128.5 -31 167.5s-47 65 -79 78s-69.667 19.5 -113 19.5h-70zM1096 689v-77l-341 -531h341l-11 -81h-436v76l344 533h-308v80h411zM1018 909l39 -45l-135 -110h-61l-136 110l40 45l126 -81z" />
    <glyph glyph-name="uni01C5" unicode="&#x1c5;" horiz-adv-x="1071" 
d="M494.5 616.5c63 -48.333 94.5 -137.834 94.5 -268.501c0 -127.333 -31.5 -217.166 -94.5 -269.499s-139.5 -78.5 -229.5 -78.5h-165v689h144c104 0 187.5 -24.167 250.5 -72.5zM195 612.999v-537.999h77c64 0 116 19.667 156 59s60 110.666 60 213.999
c0 72.667 -10.333 128.5 -31 167.5s-47 65 -79 78s-69.667 19.5 -113 19.5h-70zM1038 527v-70l-275 -380h278l-11 -77h-371v69l274 380h-251v78h356zM980 785l39 -45l-135 -113h-61l-136 113l40 45l126 -84z" />
    <glyph glyph-name="uni01C6" unicode="&#x1c6;" horiz-adv-x="1035" 
d="M503 739v-738.999h-81l-9 73c-17.333 -26.667 -39 -47.5 -65 -62.5s-55 -22.5 -87 -22.5c-62.667 0 -111.5 24.667 -146.5 74s-52.5 115.666 -52.5 198.999c0 54 8.33301 102 25 144s40.667 74.833 72 98.5s68 35.5 110 35.5c54 0 101.333 -21.667 142 -65v276z
M353 80.501c20 13 39.333 32.499 58 58.499v258c-17.333 22.667 -35.833 39.834 -55.5 51.501s-41.834 17.5 -66.501 17.5c-40.667 0 -72.167 -17 -94.5 -51s-33.5 -84.667 -33.5 -152c0 -68 10.333 -118.667 31 -152s50.334 -50 89.001 -50c28 0 52 6.5 72 19.5zM1002 527
v-70l-275 -380h278l-11 -77h-371v69l274 380h-251v78h356zM944 785l39 -45l-135 -113h-61l-136 113l40 45l126 -84z" />
    <glyph glyph-name="uni01C7" unicode="&#x1c7;" horiz-adv-x="784" 
d="M195 689v-606h283l-11 -83h-367v689h95zM689 96c0 -68 -14.832 -119 -44.499 -153s-74.834 -60.667 -135.501 -80l-25 69c30.667 12 53.667 25 69 39s26 31 32 51s9 46 9 78v589h95v-593z" />
    <glyph glyph-name="uni01C8" unicode="&#x1c8;" horiz-adv-x="763" 
d="M195 689v-606h283l-11 -83h-367v689h95zM668 32c0 -48.667 -6 -87.668 -18 -117.001s-29.5 -53.166 -52.5 -71.499s-55.167 -36.833 -96.5 -55.5l-27 67c26 12 46 23.833 60 35.5s24.5 28 31.5 49s10.5 49.833 10.5 86.5v501h92v-495zM669 761.999c12 -12 18 -27 18 -45
s-6 -32.833 -18 -44.5s-27.667 -17.5 -47 -17.5c-18.667 0 -34 5.83301 -46 17.5s-18 26.5 -18 44.5s6 33 18 45s27.333 18 46 18c19.333 0 35 -6 47 -18z" />
    <glyph glyph-name="uni01C9" unicode="&#x1c9;" horiz-adv-x="573" 
d="M119.5 18.5c-19.667 20.333 -29.5 48.834 -29.5 85.501v635l92 11v-644c0 -14.667 2.5 -25.334 7.5 -32.001s13.5 -10 25.5 -10c12.667 0 24 2 34 6l24 -64c-22 -12 -46.333 -18 -73 -18c-34 0 -60.833 10.167 -80.5 30.5zM478 32.001c0 -48.667 -6 -87.668 -18 -117.001
s-29.5 -53.166 -52.5 -71.499s-55.167 -36.833 -96.5 -55.5l-27 67c26 12 46 23.833 60 35.5s24.5 28 31.5 49s10.5 49.833 10.5 86.5v501h92v-495zM479 762c12 -12 18 -27 18 -45s-6 -32.833 -18 -44.5s-27.667 -17.5 -47 -17.5c-18.667 0 -34 5.83301 -46 17.5
s-18 26.5 -18 44.5s6 33 18 45s27.333 18 46 18c19.333 0 35 -6 47 -18z" />
    <glyph glyph-name="uni01CA" unicode="&#x1ca;" horiz-adv-x="988" 
d="M583 0l-127 0.000976562l-280 585c4 -46 7.16699 -88.5 9.5 -127.5s3.5 -86.167 3.5 -141.5v-316h-89v689h124l283 -586c-2 17.333 -4.66699 47.666 -8 90.999s-5 83 -5 119v376h89v-689zM893 96.001c0 -68 -14.832 -119 -44.499 -153s-74.834 -60.667 -135.501 -80
l-25 69c30.667 12 53.667 25 69 39s26 31 32 51s9 46 9 78v589h95v-593z" />
    <glyph glyph-name="uni01CB" unicode="&#x1cb;" horiz-adv-x="963" 
d="M583 0l-127 0.000976562l-280 585c4 -46 7.16699 -88.5 9.5 -127.5s3.5 -86.167 3.5 -141.5v-316h-89v689h124l283 -586c-2 17.333 -4.66699 47.666 -8 90.999s-5 83 -5 119v376h89v-689zM868 32.001c0 -48.667 -6 -87.668 -18 -117.001s-29.5 -53.166 -52.5 -71.499
s-55.167 -36.833 -96.5 -55.5l-27 67c26 12 46 23.833 60 35.5s24.5 28 31.5 49s10.5 49.833 10.5 86.5v501h92v-495zM869 762c12 -12 18 -27 18 -45s-6 -32.833 -18 -44.5s-27.667 -17.5 -47 -17.5c-18.667 0 -34 5.83301 -46 17.5s-18 26.5 -18 44.5s6 33 18 45
s27.333 18 46 18c19.333 0 35 -6 47 -18z" />
    <glyph glyph-name="uni01CC" unicode="&#x1cc;" horiz-adv-x="866" 
d="M455.5 496c27 -28.667 40.499 -67.999 40.499 -117.999v-378h-92v365c0 37.333 -7 63.666 -21 78.999s-34.667 23 -62 23c-28 0 -52.667 -8 -74 -24s-41.333 -39 -60 -69v-374h-92v527h79l8 -78c18.667 28 41.834 50 69.501 66s58.167 24 91.5 24
c48 0 85.5 -14.333 112.5 -43zM770.999 32.001c0 -48.667 -6 -87.668 -18 -117.001s-29.5 -53.166 -52.5 -71.499s-55.167 -36.833 -96.5 -55.5l-27 67c26 12 46 23.833 60 35.5s24.5 28 31.5 49s10.5 49.833 10.5 86.5v501h92v-495zM771.999 762c12 -12 18 -27 18 -45
s-6 -32.833 -18 -44.5s-27.667 -17.5 -47 -17.5c-18.667 0 -34 5.83301 -46 17.5s-18 26.5 -18 44.5s6 33 18 45s27.333 18 46 18c19.333 0 35 -6 47 -18z" />
    <glyph glyph-name="uni01CD" unicode="&#x1cd;" horiz-adv-x="573" 
d="M467 0l-52 173h-261l-52 -173h-96l221 689h120l220 -689h-100zM177 250h215l-107 360zM414 909l39 -45l-135 -110h-61l-136 110l40 45l126 -81z" />
    <glyph glyph-name="uni01CE" unicode="&#x1ce;" horiz-adv-x="544" 
d="M461 75.5c7.33301 -10.333 18.332 -18.167 32.999 -23.5l-21 -64c-27.333 3.33301 -49.333 11 -66 23s-29 30.667 -37 56c-35.333 -52.667 -87.666 -79 -156.999 -79c-52 0 -93 14.667 -123 44s-45 67.666 -45 114.999c0 56 20.167 99 60.5 129s97.5 45 171.5 45h81v39
c0 37.333 -9 64 -27 80s-45.667 24 -83 24c-38.667 0 -86 -9.33301 -142 -28l-23 67c65.333 24 126 36 182 36c62 0 108.333 -15.167 139 -45.5s46 -73.5 46 -129.5v-241c0 -21.333 3.66699 -37.166 11 -47.499zM357.999 138.999v121h-69c-97.333 0 -146 -36 -146 -108
c0 -31.333 7.66699 -55 23 -71s38 -24 68 -24c52.667 0 94 27.333 124 82zM387.999 784.999l39 -45l-135 -113h-61l-136 113l40 45l126 -84z" />
    <glyph glyph-name="uni01CF" unicode="&#x1cf;" horiz-adv-x="295" 
d="M195 689v-689h-95v689h95zM274 909l39 -45l-135 -110h-61l-136 110l40 45l126 -81z" />
    <glyph glyph-name="uni01D0" unicode="&#x1d0;" horiz-adv-x="282" 
d="M187 527v-527h-92v527h92zM268 785l39 -45l-135 -113h-61l-136 113l40 45l126 -84z" />
    <glyph glyph-name="uni01D1" unicode="&#x1d1;" horiz-adv-x="692" 
d="M498.5 659.5c43.667 -27.667 77.667 -68.165 102 -121.498s36.5 -118 36.5 -194c0 -74.667 -12.167 -138.667 -36.5 -192s-58.333 -94 -102 -122s-94.5 -42 -152.5 -42s-108.833 13.667 -152.5 41s-77.667 67.666 -102 120.999s-36.5 117.666 -36.5 192.999
c0 74 12.167 138 36.5 192s58.5 95.167 102.5 123.5s94.667 42.5 152 42.5c58 0 108.833 -13.833 152.5 -41.5zM206 555.002c-33.333 -45.333 -50 -116 -50 -212c0 -95.333 16.833 -165.333 50.5 -210s80.167 -67 139.5 -67c126.667 0 190 92.667 190 278
c0 186 -63.333 279 -190 279c-60 0 -106.667 -22.667 -140 -68zM473 909.002l39 -45l-135 -110h-61l-136 110l40 45l126 -81z" />
    <glyph glyph-name="uni01D2" unicode="&#x1d2;" horiz-adv-x="584" 
d="M465.5 465c41 -49.333 61.501 -116.333 61.501 -201c0 -54.667 -9.33301 -102.834 -28 -144.501s-45.667 -74 -81 -97s-77.333 -34.5 -126 -34.5c-74 0 -131.667 24.667 -173 74s-62 116.333 -62 201c0 54.667 9.33301 102.834 28 144.501s45.667 74 81 97
s77.666 34.5 126.999 34.5c74 0 131.5 -24.667 172.5 -74zM156.001 263c0 -134 45.333 -201 136 -201s136 67.333 136 202c0 134 -45 201 -135 201c-91.333 0 -137 -67.333 -137 -202zM419.001 785l39 -45l-135 -113h-61l-136 113l40 45l126 -84z" />
    <glyph glyph-name="uni01D3" unicode="&#x1d3;" horiz-adv-x="662" 
d="M572 221c0 -46 -9.49902 -86.5 -28.499 -121.5s-46.667 -62.333 -83 -82s-79.833 -29.5 -130.5 -29.5c-76.667 0 -135.834 21.167 -177.501 63.5s-62.5 98.833 -62.5 169.5v468h95v-461c0 -53.333 12 -93.333 36 -120s60.333 -40 109 -40c49.333 0 86 13.167 110 39.5
s36 66.5 36 120.5v461h96v-468zM458.001 909l39 -45l-135 -110h-61l-136 110l40 45l126 -81z" />
    <glyph glyph-name="uni01D4" unicode="&#x1d4;" horiz-adv-x="582" 
d="M487 0h-79.001l-7 82c-20 -32.667 -43 -56.5 -69 -71.5s-57.667 -22.5 -95 -22.5c-46 0 -82 14 -108 42s-39 67.667 -39 119v378h92v-368c0 -36 6.33301 -61.5 19 -76.5s33.334 -22.5 62.001 -22.5c51.333 0 95.333 30.333 132 91v376h92v-527zM415.999 785l39 -45
l-135 -113h-61l-136 113l40 45l126 -84z" />
    <glyph glyph-name="uni01D5" unicode="&#x1d5;" horiz-adv-x="662" 
d="M572 221c0 -46 -9.49902 -86.5 -28.499 -121.5s-46.667 -62.333 -83 -82s-79.833 -29.5 -130.5 -29.5c-76.667 0 -135.834 21.167 -177.501 63.5s-62.5 98.833 -62.5 169.5v468h95v-461c0 -53.333 12 -93.333 36 -120s60.333 -40 109 -40c49.333 0 86 13.167 110 39.5
s36 66.5 36 120.5v461h96v-468zM266.501 843.5c11 -11 16.5 -24.5 16.5 -40.5s-5.5 -29.5 -16.5 -40.5s-24.5 -16.5 -40.5 -16.5c-16.667 0 -30.5 5.5 -41.5 16.5s-16.5 24.5 -16.5 40.5s5.5 29.5 16.5 40.5s24.833 16.5 41.5 16.5c16 0 29.5 -5.5 40.5 -16.5z
M476.501 843.5c11 -11 16.5 -24.5 16.5 -40.5s-5.5 -29.5 -16.5 -40.5s-24.833 -16.5 -41.5 -16.5c-16 0 -29.5 5.5 -40.5 16.5s-16.5 24.5 -16.5 40.5s5.5 29.5 16.5 40.5s24.5 16.5 40.5 16.5c16.667 0 30.5 -5.5 41.5 -16.5zM469.001 903h-273v69h273v-69z" />
    <glyph glyph-name="uni01D6" unicode="&#x1d6;" horiz-adv-x="582" 
d="M487 0h-79.001l-7 82c-20 -32.667 -43 -56.5 -69 -71.5s-57.667 -22.5 -95 -22.5c-46 0 -82 14 -108 42s-39 67.667 -39 119v378h92v-368c0 -36 6.33301 -61.5 19 -76.5s33.334 -22.5 62.001 -22.5c51.333 0 95.333 30.333 132 91v376h92v-527zM224.499 721.5
c11 -11 16.5 -24.5 16.5 -40.5s-5.5 -29.5 -16.5 -40.5s-24.5 -16.5 -40.5 -16.5c-16.667 0 -30.5 5.5 -41.5 16.5s-16.5 24.5 -16.5 40.5s5.5 29.5 16.5 40.5s24.833 16.5 41.5 16.5c16 0 29.5 -5.5 40.5 -16.5zM434.499 721.5c11 -11 16.5 -24.5 16.5 -40.5
s-5.5 -29.5 -16.5 -40.5s-24.833 -16.5 -41.5 -16.5c-16 0 -29.5 5.5 -40.5 16.5s-16.5 24.5 -16.5 40.5s5.5 29.5 16.5 40.5s24.5 16.5 40.5 16.5c16.667 0 30.5 -5.5 41.5 -16.5zM424.999 791h-273v69h273v-69z" />
    <glyph glyph-name="uni01D7" unicode="&#x1d7;" horiz-adv-x="662" 
d="M572 221c0 -46 -9.49902 -86.5 -28.499 -121.5s-46.667 -62.333 -83 -82s-79.833 -29.5 -130.5 -29.5c-76.667 0 -135.834 21.167 -177.501 63.5s-62.5 98.833 -62.5 169.5v468h95v-461c0 -53.333 12 -93.333 36 -120s60.333 -40 109 -40c49.333 0 86 13.167 110 39.5
s36 66.5 36 120.5v461h96v-468zM413.001 1015l56 -54l-136 -126l-38 35zM266.501 843.5c11 -11 16.5 -24.5 16.5 -40.5s-5.5 -29.5 -16.5 -40.5s-24.5 -16.5 -40.5 -16.5c-16.667 0 -30.5 5.5 -41.5 16.5s-16.5 24.5 -16.5 40.5s5.5 29.5 16.5 40.5s24.833 16.5 41.5 16.5
c16 0 29.5 -5.5 40.5 -16.5zM476.501 843.5c11 -11 16.5 -24.5 16.5 -40.5s-5.5 -29.5 -16.5 -40.5s-24.833 -16.5 -41.5 -16.5c-16 0 -29.5 5.5 -40.5 16.5s-16.5 24.5 -16.5 40.5s5.5 29.5 16.5 40.5s24.5 16.5 40.5 16.5c16.667 0 30.5 -5.5 41.5 -16.5z" />
    <glyph glyph-name="uni01D8" unicode="&#x1d8;" horiz-adv-x="582" 
d="M487 0h-79.001l-7 82c-20 -32.667 -43 -56.5 -69 -71.5s-57.667 -22.5 -95 -22.5c-46 0 -82 14 -108 42s-39 67.667 -39 119v378h92v-368c0 -36 6.33301 -61.5 19 -76.5s33.334 -22.5 62.001 -22.5c51.333 0 95.333 30.333 132 91v376h92v-527zM370.999 893l56 -54
l-136 -126l-38 35zM224.499 721.5c11 -11 16.5 -24.5 16.5 -40.5s-5.5 -29.5 -16.5 -40.5s-24.5 -16.5 -40.5 -16.5c-16.667 0 -30.5 5.5 -41.5 16.5s-16.5 24.5 -16.5 40.5s5.5 29.5 16.5 40.5s24.833 16.5 41.5 16.5c16 0 29.5 -5.5 40.5 -16.5zM434.499 721.5
c11 -11 16.5 -24.5 16.5 -40.5s-5.5 -29.5 -16.5 -40.5s-24.833 -16.5 -41.5 -16.5c-16 0 -29.5 5.5 -40.5 16.5s-16.5 24.5 -16.5 40.5s5.5 29.5 16.5 40.5s24.5 16.5 40.5 16.5c16.667 0 30.5 -5.5 41.5 -16.5z" />
    <glyph glyph-name="uni01D9" unicode="&#x1d9;" horiz-adv-x="662" 
d="M572 221c0 -46 -9.49902 -86.5 -28.499 -121.5s-46.667 -62.333 -83 -82s-79.833 -29.5 -130.5 -29.5c-76.667 0 -135.834 21.167 -177.501 63.5s-62.5 98.833 -62.5 169.5v468h95v-461c0 -53.333 12 -93.333 36 -120s60.333 -40 109 -40c49.333 0 86 13.167 110 39.5
s36 66.5 36 120.5v461h96v-468zM455.001 1021l39 -45l-135 -110h-61l-136 110l40 45l126 -81zM266.501 843.5c11 -11 16.5 -24.5 16.5 -40.5s-5.5 -29.5 -16.5 -40.5s-24.5 -16.5 -40.5 -16.5c-16.667 0 -30.5 5.5 -41.5 16.5s-16.5 24.5 -16.5 40.5s5.5 29.5 16.5 40.5
s24.833 16.5 41.5 16.5c16 0 29.5 -5.5 40.5 -16.5zM476.501 843.5c11 -11 16.5 -24.5 16.5 -40.5s-5.5 -29.5 -16.5 -40.5s-24.833 -16.5 -41.5 -16.5c-16 0 -29.5 5.5 -40.5 16.5s-16.5 24.5 -16.5 40.5s5.5 29.5 16.5 40.5s24.5 16.5 40.5 16.5
c16.667 0 30.5 -5.5 41.5 -16.5z" />
    </font>
</defs>
</svg>
