<?xml version="1.0" standalone="no"?>
<!DOCTYPE svg PUBLIC "-//W3C//DTD SVG 1.1//EN" "http://www.w3.org/Graphics/SVG/1.1/DTD/svg11.dtd" >
<svg>
<metadata>
Created by FontForge 20090914 at Thu Mar 23 16:49:17 2017
 By www-data
Digitized data copyright &#195;&#130;&#194;&#169; 2012-2013, The Mozilla Corporation and Telefonica S.A.
</metadata>
<defs>
<font id="FiraMono" horiz-adv-x="600" >
  <font-face 
    font-family="Fira Mono"
    font-weight="400"
    font-stretch="normal"
    units-per-em="1000"
    panose-1="2 11 6 9 5 0 0 2 0 4"
    ascent="785"
    descent="-215"
    x-height="527"
    cap-height="689"
    bbox="-275 -500.001 1192 1050"
    underline-thickness="50"
    underline-position="-50"
    unicode-range="U+000D-U+1F310"
  />
<missing-glyph 
d="M90 1050h420v-1550h-420v1550zM456 -448v1446h-311v-1446h311zM307 173c0 -7.33301 -2.66797 -13.165 -8.00098 -17.498s-11 -6.5 -17 -6.5c-6.66699 0 -12.5 2.16699 -17.5 6.5s-7.5 10.166 -7.5 17.499v84c36 2 60.167 8.66699 72.5 20s18.5 30.333 18.5 57
c0 19.333 -3.83301 35.666 -11.5 48.999s-24.167 20 -49.5 20c-19.333 0 -36.666 -3.66699 -51.999 -11c-5.33301 -2 -9.66602 -3 -12.999 -3c-7.33301 0 -13.166 2.16699 -17.499 6.5s-6.5 9.83301 -6.5 16.5s3 12.5 9 17.5s13.667 9 23 12s19.333 5.33301 30 7
s21 2.5 31 2.5c21.333 0 39.166 -3.16699 53.499 -9.5s25.666 -14.833 33.999 -25.5s14.333 -23 18 -37s5.5 -28.333 5.5 -43c0 -35.333 -7.33301 -62.5 -22 -81.5s-39 -31.167 -73 -36.5v-45zM246.999 85.001c0 10 3.33301 18.333 10 25s15 10 25 10
s18.333 -3.33301 25 -10s10 -15 10 -25c0 -10.667 -3.33301 -19.5 -10 -26.5s-15 -10.5 -25 -10.5s-18.333 3.5 -25 10.5s-10 15.833 -10 26.5z" />
    <glyph glyph-name="f_i" unicode="fi" 
d="M587 0l-272.998 -0.000976562v71h90v385h-204v-456h-92v456h-89v71h89v62c0 24.667 5 46.834 15 66.501s23.667 36.5 41 50.5s38.166 24.833 62.499 32.5s50.5 11.5 78.5 11.5c30 0 56.667 -2.5 80 -7.5s45.666 -12.167 66.999 -21.5l-29 -67
c-17.333 7.33301 -35.5 12.833 -54.5 16.5s-38.5 5.5 -58.5 5.5c-73.333 0 -110 -28.667 -110 -86v-63h296v-456h91v-71z" />
    <glyph glyph-name="f_l" unicode="fl" 
d="M602 9c-12.667 -6 -25.8301 -11.0029 -39.4971 -15.0029s-30.834 -6 -51.501 -6c-36.667 0 -67 10.5 -91 31.5s-36 54.5 -36 100.5v546c-24.667 6.66699 -51.334 10 -80.001 10c-73.333 0 -110 -28.667 -110 -86v-63h122l-11 -71h-111v-456h-92v456h-89v71h89v62
c0 24.667 5 46.834 15 66.501s23.667 36.5 41 50.5s38.166 24.833 62.499 32.5s50.5 11.5 78.5 11.5c19.333 0 36.833 -1.66699 52.5 -5s31.167 -7.66602 46.5 -12.999l78 16v-624c0 -23.333 4.5 -39.166 13.5 -47.499s21.167 -12.5 36.5 -12.5c9.33301 0 18 1 26 3
s16.667 4.66699 26 8z" />
    <glyph glyph-name=".notdef" 
d="M90 1050h420v-1550h-420v1550zM456 -448v1446h-311v-1446h311zM307 173c0 -7.33301 -2.66797 -13.165 -8.00098 -17.498s-11 -6.5 -17 -6.5c-6.66699 0 -12.5 2.16699 -17.5 6.5s-7.5 10.166 -7.5 17.499v84c36 2 60.167 8.66699 72.5 20s18.5 30.333 18.5 57
c0 19.333 -3.83301 35.666 -11.5 48.999s-24.167 20 -49.5 20c-19.333 0 -36.666 -3.66699 -51.999 -11c-5.33301 -2 -9.66602 -3 -12.999 -3c-7.33301 0 -13.166 2.16699 -17.499 6.5s-6.5 9.83301 -6.5 16.5s3 12.5 9 17.5s13.667 9 23 12s19.333 5.33301 30 7
s21 2.5 31 2.5c21.333 0 39.166 -3.16699 53.499 -9.5s25.666 -14.833 33.999 -25.5s14.333 -23 18 -37s5.5 -28.333 5.5 -43c0 -35.333 -7.33301 -62.5 -22 -81.5s-39 -31.167 -73 -36.5v-45zM246.999 85.001c0 10 3.33301 18.333 10 25s15 10 25 10
s18.333 -3.33301 25 -10s10 -15 10 -25c0 -10.667 -3.33301 -19.5 -10 -26.5s-15 -10.5 -25 -10.5s-18.333 3.5 -25 10.5s-10 15.833 -10 26.5z" />
    <glyph glyph-name=".null" 
 />
    <glyph glyph-name="nonmarkingreturn" unicode="&#xd;" 
 />
    <glyph glyph-name="space" unicode=" " 
 />
    <glyph glyph-name="exclam" unicode="!" 
d="M230 58c0 19.333 6.66699 35.666 20 48.999s29.666 20 48.999 20c20 0 36.667 -6.66699 50 -20s20 -29.666 20 -48.999s-6.66699 -35.833 -20 -49.5s-30 -20.5 -50 -20.5c-19.333 0 -35.666 6.83301 -48.999 20.5s-20 30.167 -20 49.5zM258 230l-11 459h102l-10 -459h-81
z" />
    <glyph glyph-name="quotedbl" unicode="&#x22;" 
d="M176 477l-16 262h110l-16 -262h-78zM346 477l-16 262h110l-16 -262h-78z" />
    <glyph glyph-name="numbersign" unicode="#" 
d="M462 455l-29 -219h79v-69h-89l-21 -167h-78l22 167h-140l-22 -167h-78l22 167h-77v69h86l30 219h-79v70h88l22 164h78l-23 -164h141l22 164h78l-23 -164h78v-70h-87zM215 236h140l30 219h-141z" />
    <glyph glyph-name="dollar" unicode="$" 
d="M277 -11c-48 3.33301 -89.501 14.3359 -124.501 33.0029s-63.833 39 -86.5 61l53 59c21.333 -21.333 44.833 -38.833 70.5 -52.5s54.834 -21.834 87.501 -24.501v269c-60.667 20 -106.667 45.333 -138 76s-47 69.334 -47 116.001c0 20.667 3.83301 40.834 11.5 60.501
s19.334 37.334 35.001 53.001s35 28.667 58 39s49.833 17.166 80.5 20.499v150h69v-150c40 -4 75.5 -13.5 106.5 -28.5s57.167 -32.167 78.5 -51.5l-54 -56c-38.667 35.333 -82.334 56 -131.001 62v-222c26 -8.66699 50.667 -18.834 74 -30.501s44 -25.834 62 -42.501
s32.167 -36.334 42.5 -59.001s15.5 -49.334 15.5 -80.001c0 -24 -4.16699 -47.167 -12.5 -69.5s-20.5 -42.333 -36.5 -60s-36.167 -32.667 -60.5 -45s-52.5 -20.5 -84.5 -24.5v-146h-69v143zM442.999 188.003c0 27.333 -7 50.668 -21 70.001s-39.333 36.666 -76 51.999v-241
c64.667 13.333 97 53 97 119zM186.999 529.005c0 -22.667 6.16895 -41.833 18.502 -57.5s36.166 -30.834 71.499 -45.501v197c-26.667 -4.66699 -48.334 -14.667 -65.001 -30s-25 -36.666 -25 -63.999z" />
    <glyph glyph-name="percent" unicode="%" 
d="M107 548c0 -11.333 1 -22.668 3 -34.001s5.66699 -21.5 11 -30.5s12.5 -16.167 21.5 -21.5s20.5 -8 34.5 -8s25.333 2.66699 34 8s15.334 12.333 20.001 21s7.83398 18.834 9.50098 30.501s2.5 23.5 2.5 35.5s-0.833008 23.667 -2.5 35s-4.83398 21.5 -9.50098 30.5
s-11.334 16.167 -20.001 21.5s-20 8 -34 8s-25.5 -2.66699 -34.5 -8s-16.167 -12.5 -21.5 -21.5s-9 -19.167 -11 -30.5s-3 -23.333 -3 -36zM323 548.998c0 -23.333 -3.66699 -44.3311 -11 -62.998s-17.5 -34.667 -30.5 -48s-28.5 -23.5 -46.5 -30.5s-37.333 -10.5 -58 -10.5
c-21.333 0 -40.833 3.5 -58.5 10.5s-33 17.167 -46 30.5s-23.167 29.166 -30.5 47.499s-11 39.166 -11 62.499s3.66699 44.5 11 63.5s17.5 35.167 30.5 48.5s28.333 23.5 46 30.5s37.167 10.5 58.5 10.5c20.667 0 40 -3.5 58 -10.5s33.5 -17 46.5 -30s23.167 -29 30.5 -48
s11 -40.167 11 -63.5zM354 140c0 -12 1 -23.667 3 -35s5.5 -21.5 10.5 -30.5s12 -16.333 21 -22s20.5 -8.5 34.5 -8.5s25.5 2.66699 34.5 8s16 12.5 21 21.5s8.5 19.333 10.5 31s3 23.5 3 35.5s-1 23.5 -3 34.5s-5.5 21 -10.5 30s-12 16.167 -21 21.5s-20.5 8 -34.5 8
s-25.5 -2.66699 -34.5 -8s-16 -12.333 -21 -21s-8.5 -18.667 -10.5 -30s-3 -23 -3 -35zM568 140c0 -23.333 -3.66699 -44.5 -11 -63.5s-17.333 -35 -30 -48s-28 -23 -46 -30s-37.333 -10.5 -58 -10.5c-42.667 0 -77.834 13.5 -105.501 40.5s-41.5 64.167 -41.5 111.5
c0 46.667 13.833 83.667 41.5 111s62.834 41 105.501 41c20.667 0 40 -3.5 58 -10.5s33.333 -17.167 46 -30.5s22.667 -29.333 30 -48s11 -39.667 11 -63zM92 -28l-56 35l463 701l57 -35z" />
    <glyph glyph-name="ampersand" unicode="&#x26;" 
d="M208 390c-44.667 10.667 -75.8311 29.4961 -93.498 56.4961s-26.5 56.5 -26.5 88.5c0 22 4.5 43 13.5 63s21.667 37.5 38 52.5s36.333 27 60 36s50.167 13.5 79.5 13.5c31.333 0 60.5 -5 87.5 -15s54.5 -30 82.5 -60l-54 -49c-17.333 19.333 -34.666 33.5 -51.999 42.5
s-38.333 13.5 -63 13.5c-34 0 -59.5 -9.16699 -76.5 -27.5s-25.5 -42.166 -25.5 -71.499c0 -15.333 3 -29.666 9 -42.999s14.5 -25.166 25.5 -35.499s23.667 -18.5 38 -24.5s30.166 -9 47.499 -9h276v-70h-87v-271c-8 -10 -18 -20.333 -30 -31s-26.5 -20.5 -43.5 -29.5
s-36.833 -16.5 -59.5 -22.5s-48.334 -9 -77.001 -9c-39.333 0 -73 5.83301 -101 17.5s-51.333 27.167 -70 46.5s-32.334 41.5 -41.001 66.5s-13 50.5 -13 76.5c0 52 13.5 94.333 40.5 127s65.5 54.334 115.5 65.001v3zM280.003 60.9961
c26.667 0 50.501 4.33496 71.501 13.002s38.167 21 51.5 37v240h-117c-25.333 0 -47 -4.66699 -65 -14s-32.833 -21.333 -44.5 -36s-20.334 -31 -26.001 -49s-8.5 -35.667 -8.5 -53c0 -18 2.66699 -35.333 8 -52s13.5 -31.334 24.5 -44.001s25.333 -22.834 43 -30.501
s38.5 -11.5 62.5 -11.5z" />
    <glyph glyph-name="quotesingle" unicode="'" 
d="M261 477l-16 262h110l-16 -262h-78z" />
    <glyph glyph-name="parenleft" unicode="(" 
d="M258 350c0 -53.333 4.66699 -100.833 14 -142.5s22 -80 38 -115s35 -68 57 -99s46 -62.833 72 -95.5l-59 -40l-81.5 99.5c-26.333 33 -49.5 68.833 -69.5 107.5s-36.167 81 -48.5 127s-18.5 98.667 -18.5 158s6.16699 112 18.5 158s28.5 88.333 48.5 127
s43.167 74.5 69.5 107.5l81.5 99.5l59 -40c-26 -32.667 -50 -64.5 -72 -95.5s-41 -64 -57 -99s-28.667 -73.167 -38 -114.5s-14 -89 -14 -143z" />
    <glyph glyph-name="parenright" unicode=")" 
d="M342 350c0 54 -4.66699 101.667 -14 143s-22 79.5 -38 114.5s-35 68 -57 99s-46 62.833 -72 95.5l59 40l81.5 -99.5c26.333 -33 49.5 -68.833 69.5 -107.5s36.167 -81 48.5 -127s18.5 -98.667 18.5 -158s-6.16699 -112 -18.5 -158s-28.5 -88.333 -48.5 -127
s-43.167 -74.5 -69.5 -107.5l-81.5 -99.5l-59 40c26 32.667 50 64.5 72 95.5s41 64 57 99s28.667 73.333 38 115s14 89.167 14 142.5z" />
    <glyph glyph-name="asterisk" unicode="*" 
d="M329 585l140 60l27 -85l-147 -32l105 -109l-73 -55l-80 130l-75 -132l-75 51l101 115l-148 32l27 85l139 -60l-15 153h90z" />
    <glyph glyph-name="plus" unicode="+" 
d="M257 349v150h84v-150h147v-76h-147v-149h-84v149h-145v76h145z" />
    <glyph glyph-name="comma" unicode="," 
d="M384 86c0 -13.333 -1.66699 -26.499 -5 -39.499s-9 -28.167 -17 -45.5l-80 -183h-79l48 199c-10.667 7.33301 -19 17.166 -25 29.499s-9 25.5 -9 39.5c0 23.333 8 43 24 59s35.667 24 59 24c24 0 44 -8 60 -24s24 -35.667 24 -59z" />
    <glyph glyph-name="hyphen" unicode="-" 
d="M123 274v78h354v-78h-354z" />
    <glyph glyph-name="period" unicode="." 
d="M209 79c0 12.667 2.33203 24.499 6.99902 35.499s11 20.5 19 28.5s17.5 14.333 28.5 19s22.833 7 35.5 7c26 0 47.667 -8.66699 65 -26s26 -38.666 26 -63.999s-8.66699 -46.833 -26 -64.5s-39 -26.5 -65 -26.5c-25.333 0 -46.666 8.83301 -63.999 26.5
s-26 39.167 -26 64.5z" />
    <glyph glyph-name="slash" unicode="/" 
d="M124 -104l-74 33l427 881l73 -35z" />
    <glyph glyph-name="zero" unicode="0" 
d="M300 61c20.667 0 39.333 5.33398 56 16.001s30.667 27.5 42 50.5s20 52.333 26 88s9 78.834 9 129.501c0 100.667 -11.667 173 -35 217s-56 66 -98 66c-20.667 0 -39.167 -5.33301 -55.5 -16s-30.333 -27.334 -42 -50.001s-20.5 -52 -26.5 -88s-9 -79 -9 -129
c0 -50.667 3 -93.834 9 -129.501s14.833 -65 26.5 -88s25.667 -39.833 42 -50.5s34.833 -16 55.5 -16zM299.999 -11.999c-75.333 0 -132.166 30.667 -170.499 92s-57.5 149.666 -57.5 264.999c0 114.667 19.167 202.667 57.5 264s95.166 92 170.499 92
s132.166 -30.667 170.499 -92s57.5 -149.333 57.5 -264c0 -115.333 -19.167 -203.666 -57.5 -264.999s-95.166 -92 -170.499 -92zM234.999 345.001c0 18 6.16699 33.333 18.5 46s27.833 19 46.5 19c19.333 0 35.166 -6.33301 47.499 -19s18.5 -28 18.5 -46
c0 -18.667 -6.16699 -34.334 -18.5 -47.001s-28.166 -19 -47.499 -19c-18.667 0 -34.167 6.33301 -46.5 19s-18.5 28.334 -18.5 47.001z" />
    <glyph glyph-name="one" unicode="1" 
d="M297 588l-165 -100l-44 64l220 137h81v-615h141v-74h-402v74h169v514z" />
    <glyph glyph-name="two" unicode="2" 
d="M489 511c0 -30 -6 -60.332 -18 -90.999s-30.333 -63.334 -55 -98.001s-55.667 -72 -93 -112s-81.333 -84.333 -132 -133h313l-11 -77h-410v73c59.333 58.667 109 109.5 149 152.5s72 81.167 96 114.5s41 63.166 51 89.499s15 52.5 15 78.5c0 37.333 -11 66 -33 86
s-50 30 -84 30c-28.667 0 -53.5 -5.66699 -74.5 -17s-42.167 -30.333 -63.5 -57l-64 45c27.333 34 58 60.167 92 78.5s72.333 27.5 115 27.5c31.333 0 59.833 -4.66699 85.5 -14s47.5 -22.5 65.5 -39.5s31.833 -37.167 41.5 -60.5s14.5 -48.666 14.5 -75.999z" />
    <glyph glyph-name="three" unicode="3" 
d="M515 198c0 -30 -5.83691 -57.6689 -17.5039 -83.002s-28 -47.5 -49 -66.5s-46.5 -33.833 -76.5 -44.5s-63 -16 -99 -16c-40 0 -79.167 7.5 -117.5 22.5s-70.833 38.5 -97.5 70.5l60 50c19.333 -23.333 42.5 -40.5 69.5 -51.5s54.5 -16.5 82.5 -16.5
c46.667 0 83.167 12.167 109.5 36.5s39.5 57.5 39.5 99.5c0 24 -3.5 44.167 -10.5 60.5s-16.667 29.5 -29 39.5s-27.166 17.167 -44.499 21.5s-36 6.5 -56 6.5h-53l11 71h36c16.667 0 32.667 2.33301 48 7s29 11.834 41 21.501s21.5 21.834 28.5 36.501s10.5 32 10.5 52
c0 18 -3.33301 34.167 -10 48.5s-15.667 26.166 -27 35.499s-24.666 16.5 -39.999 21.5s-32 7.5 -50 7.5c-30 0 -56 -5.16699 -78 -15.5s-44.333 -26.166 -67 -47.499l-50 55c30 28 61.667 48.5 95 61.5s68.333 19.5 105 19.5c32.667 0 62.334 -4.66699 89.001 -14
s49.167 -21.833 67.5 -37.5s32.5 -34 42.5 -55s15 -43.167 15 -66.5c0 -21.333 -3.66699 -40.833 -11 -58.5s-17 -33.5 -29 -47.5s-25.833 -25.5 -41.5 -34.5s-32.167 -15.167 -49.5 -18.5v-4c18.667 -1.33301 37.167 -5.83301 55.5 -13.5s34.833 -18.5 49.5 -32.5
s26.334 -31.167 35.001 -51.5s13 -43.5 13 -69.5z" />
    <glyph glyph-name="four" unicode="4" 
d="M440 165v-165h-89v165h-282v65l202 471l77 -32l-182 -431h185l9 180h80v-180h87v-73h-87z" />
    <glyph glyph-name="five" unicode="5" 
d="M519 220c0 -33.333 -5.83301 -63.999 -17.5 -91.999s-28 -52.5 -49 -73.5s-46 -37.333 -75 -49s-61.167 -17.5 -96.5 -17.5c-40 0 -77.333 6.83301 -112 20.5s-65.334 36.5 -92.001 68.5l62 52c19.333 -23.333 40.666 -40.166 63.999 -50.499s49 -15.5 77 -15.5
c44.667 0 79.667 14.333 105 43s38 67 38 115c0 26.667 -3.16699 49.167 -9.5 67.5s-15.166 33.166 -26.499 44.499s-24.666 19.5 -39.999 24.5s-32 7.5 -50 7.5c-15.333 0 -31.333 -2 -48 -6s-32.667 -9.66699 -48 -17h-72v347h363l-11 -73h-264v-203
c18 9.33301 36.333 15.666 55 18.999s36 5 52 5c28.667 0 55 -5 79 -15s44.5 -24.5 61.5 -43.5s30.333 -41.833 40 -68.5s14.5 -56.667 14.5 -90z" />
    <glyph glyph-name="six" unicode="6" 
d="M438 598c-15.333 11.333 -30.333 19.1641 -45 23.4971s-30 6.5 -46 6.5c-24 0 -46.667 -5.83301 -68 -17.5s-40.333 -28.667 -57 -51s-30 -50.166 -40 -83.499s-15.667 -71.666 -17 -114.999c22 29.333 47.833 51.333 77.5 66s59.5 22 89.5 22
c24.667 0 48.667 -4.5 72 -13.5s44 -22.667 62 -41s32.5 -41.666 43.5 -69.999s16.5 -61.5 16.5 -99.5c0 -37.333 -5.83301 -70.666 -17.5 -99.999s-27.334 -54.166 -47.001 -74.499s-42.667 -35.833 -69 -46.5s-54.166 -16 -83.499 -16c-42 0 -78 8.66699 -108 26
s-54.5 40.666 -73.5 69.999s-32.833 63.333 -41.5 102s-13 79.667 -13 123c0 58 6.5 111.167 19.5 159.5s31.333 89.666 55 123.999s52.5 61 86.5 80s72 28.5 114 28.5c24 0 46.5 -3.16699 67.5 -9.5s41.833 -16.833 62.5 -31.5zM315 375.998
c-28 0 -55.501 -8.66992 -82.501 -26.0029s-49.167 -39.666 -66.5 -66.999c1.33301 -69.333 13.5 -123.666 36.5 -162.999s58.5 -59 106.5 -59c41.333 0 72.166 14.333 92.499 43s30.5 68 30.5 118c0 28.667 -3.16699 52.834 -9.5 72.501s-14.666 35.5 -24.999 47.5
s-22.666 20.667 -36.999 26s-29.5 8 -45.5 8z" />
    <glyph glyph-name="seven" unicode="7" 
d="M234 -10l-86 26l267 598h-321v75h414v-69z" />
    <glyph glyph-name="eight" unicode="8" 
d="M509 530c0 -31.333 -10.166 -60.498 -30.499 -87.498s-50.166 -50.5 -89.499 -70.5c46 -20 82.167 -45.667 108.5 -77s39.5 -68 39.5 -110c0 -28 -5.5 -54 -16.5 -78s-26.833 -44.833 -47.5 -62.5s-45.834 -31.5 -75.501 -41.5s-62.834 -15 -99.501 -15
c-37.333 0 -70.666 5 -99.999 15s-54 23.833 -74 41.5s-35.167 38.334 -45.5 62.001s-15.5 49.167 -15.5 76.5c0 42 12.5 77.5 37.5 106.5s58.833 52.5 101.5 70.5c-38 19.333 -66 43.166 -84 71.499s-27 60.5 -27 96.5c0 30.667 6.5 57 19.5 79s29.833 40 50.5 54
s43.167 24.167 67.5 30.5s48.166 9.5 71.499 9.5c25.333 0 50.5 -3.33301 75.5 -10s47.333 -16.834 67 -30.501s35.667 -31.334 48 -53.001s18.5 -47.5 18.5 -77.5zM441.001 184.002c0 22.667 -4.33301 41.502 -13 56.502s-20.834 28 -36.501 39s-34.5 20.833 -56.5 29.5
s-46.333 17.667 -73 27c-14 -6.66699 -27.167 -14.334 -39.5 -23.001s-23.166 -19.167 -32.499 -31.5s-16.833 -26.5 -22.5 -42.5s-8.5 -34.333 -8.5 -55c0 -38 11.667 -68 35 -90s58 -33 104 -33c46.667 0 82.167 11.667 106.5 35s36.5 52.666 36.5 87.999z
M181.001 527.004c0 -35.333 13 -62.8301 39 -82.4971s61.667 -36.834 107 -51.501c61.333 35.333 92 79.666 92 132.999c0 31.333 -10.333 56.666 -31 75.999s-50 29 -88 29s-67.333 -9 -88 -27s-31 -43.667 -31 -77z" />
    <glyph glyph-name="nine" unicode="9" 
d="M130 47c89.333 23.333 159.999 59.834 211.999 109.501s81 109.167 87 178.5l-2 1c-14 -22.667 -34.167 -42.167 -60.5 -58.5s-58.5 -24.5 -96.5 -24.5c-28 0 -54.167 5.33301 -78.5 16s-45.5 25.667 -63.5 45s-32 42.5 -42 69.5s-15 57.167 -15 90.5
c0 34.667 6.16699 66.167 18.5 94.5s29 52.166 50 71.499s45.333 34.333 73 45s56.834 16 87.501 16c36.667 0 69.167 -6.66699 97.5 -20s52.166 -31.833 71.499 -55.5s34 -52 44 -85s15 -68.833 15 -107.5c0 -66.667 -7.83301 -124.5 -23.5 -173.5
s-39.167 -91.5 -70.5 -127.5s-70.666 -66.333 -117.999 -91s-102.333 -45.667 -165 -63zM431.999 420.001c-0.666992 70.667 -11.5 122.998 -32.5 156.998s-54.833 51 -101.5 51c-38 0 -69.833 -12.667 -95.5 -38s-38.5 -64.666 -38.5 -117.999
c0 -25.333 3.33301 -47.166 10 -65.499s15.5 -33.5 26.5 -45.5s24 -20.833 39 -26.5s30.833 -8.5 47.5 -8.5c34 0 62.5 8.33301 85.5 25s42.833 39.667 59.5 69z" />
    <glyph glyph-name="colon" unicode=":" 
d="M216 72c0 11.333 2.16797 22 6.50098 32s10.166 18.833 17.499 26.5s16 13.667 26 18s21 6.5 33 6.5c24 0 44 -8.16699 60 -24.5s24 -35.833 24 -58.5c0 -23.333 -8 -43.166 -24 -59.499s-36 -24.5 -60 -24.5c-23.333 0 -43 8.16699 -59 24.5s-24 36.166 -24 59.499z
M216.001 431c0 23.333 7.99902 43 23.999 59s35.667 24 59 24c24 0 44 -8 60 -24s24 -35.667 24 -59s-8 -43.166 -24 -59.499s-36 -24.5 -60 -24.5c-12 0 -23 2.16699 -33 6.5s-18.667 10.333 -26 18s-13.166 16.667 -17.499 27s-6.5 21.166 -6.5 32.499z" />
    <glyph glyph-name="semicolon" unicode=";" 
d="M216 431c0 23.333 7.99902 43 23.999 59s35.667 24 59 24c24 0 44 -8 60 -24s24 -35.667 24 -59s-8 -43.166 -24 -59.499s-36 -24.5 -60 -24.5c-12 0 -23 2.16699 -33 6.5s-18.667 10.333 -26 18s-13.166 16.667 -17.499 27s-6.5 21.166 -6.5 32.499zM382.999 86
c0 -13.333 -1.66699 -26.499 -5 -39.499s-9 -28.167 -17 -45.5l-80 -183h-79l48 199c-10.667 7.33301 -19 17.166 -25 29.499s-9 25.5 -9 39.5c0 23.333 8 43 24 59s35.667 24 59 24c24 0 44 -8 60 -24s24 -35.667 24 -59z" />
    <glyph glyph-name="less" unicode="&#x3c;" 
d="M471 596l44 -69l-350 -214l350 -215l-48 -67l-381 238v89z" />
    <glyph glyph-name="equal" unicode="=" 
d="M102 176v78h396v-78h-396zM102 368v78h396v-78h-396z" />
    <glyph glyph-name="greater" unicode="&#x3e;" 
d="M515 358v-89l-381 -238l-48 67l350 215l-350 214l44 69z" />
    <glyph glyph-name="question" unicode="?" 
d="M319 230l-90.9971 0.000976562v38c0 27.333 4.33301 50.333 13 69s19.5 35 32.5 49s27.167 26.5 42.5 37.5s29.5 22 42.5 33s23.833 22.833 32.5 35.5s13 28.334 13 47.001c0 28 -10.833 49.333 -32.5 64s-48.834 22 -81.501 22c-23.333 0 -47.333 -5.66699 -72 -17
s-47.334 -29.666 -68.001 -54.999l-64 48c29.333 34 61.666 59.167 96.999 75.5s74 24.5 116 24.5c31.333 0 59.5 -4.33301 84.5 -13s46.167 -20.334 63.5 -35.001s30.5 -31.334 39.5 -50.001s13.5 -38 13.5 -58c0 -26.667 -4.5 -48.834 -13.5 -66.501
s-20.167 -33 -33.5 -46s-27.833 -24.667 -43.5 -35s-30.167 -21.5 -43.5 -33.5s-24.5 -25.833 -33.5 -41.5s-13.5 -35.5 -13.5 -59.5v-33zM207.003 58.001c0 19.333 6.66699 35.666 20 48.999s29.666 20 48.999 20c20 0 36.667 -6.66699 50 -20s20 -29.666 20 -48.999
s-6.66699 -35.833 -20 -49.5s-30 -20.5 -50 -20.5c-19.333 0 -35.666 6.83301 -48.999 20.5s-20 30.167 -20 49.5z" />
    <glyph glyph-name="at" unicode="@" 
d="M8 591c45.333 39.333 91.166 67.5 137.499 84.5s92.5 25.5 138.5 25.5c64 0 115.833 -11.833 155.5 -35.5s70.334 -54.834 92.001 -93.501s36.334 -83 44.001 -133s11.5 -101 11.5 -153c0 -63.333 -2 -118.5 -6 -165.5s-11.5 -86.167 -22.5 -117.5
s-26.167 -54.833 -45.5 -70.5s-44 -23.5 -74 -23.5c-20.667 0 -38.5 5 -53.5 15s-27.167 22.167 -36.5 36.5s-16.333 29.666 -21 45.999s-7 31.166 -7 44.499h-4c-4.66699 -12 -10.834 -23.667 -18.501 -35s-17 -21.666 -28 -30.999s-23.833 -16.833 -38.5 -22.5
s-32 -8.5 -52 -8.5c-27.333 0 -50.666 5.66699 -69.999 17s-35 27.333 -47 48s-20.833 44.834 -26.5 72.501s-8.5 58.167 -8.5 91.5c0 87.333 17.167 152.333 51.5 195s83.166 64 146.499 64c23.333 0 46.166 -2.5 68.499 -7.5s47.5 -15.167 75.5 -30.5v-296
c0 -26 1.66699 -47.333 5 -64s8 -29.667 14 -39s13.167 -15.833 21.5 -19.5s17.166 -5.5 26.499 -5.5c14.667 0 26.167 7.66699 34.5 23s14.333 36.5 18 63.5s5.83398 59 6.50098 96s1 77.5 1 121.5c0 48 -2.66699 92.833 -8 134.5s-15.666 77.834 -30.999 108.501
s-36.833 54.667 -64.5 72s-64.167 26 -109.5 26c-33.333 0 -68.833 -6.16699 -106.5 -18.5s-77.5 -36.833 -119.5 -73.5zM229 376c-43.333 0 -72.999 -16 -88.999 -48s-24 -80.333 -24 -145c0 -24 1.16699 -46 3.5 -66s6.5 -37.167 12.5 -51.5s13.833 -25.333 23.5 -33
s21.834 -11.5 36.501 -11.5c16.667 0 30.667 3.16699 42 9.5s20.666 14 27.999 23s13.166 18.333 17.499 28s7.83301 18.167 10.5 25.5v255c-18.667 9.33301 -39 14 -61 14z" />
    <glyph glyph-name="A" unicode="A" 
d="M430 173h-265l-53 -173h-95l223 689h120l223 -689h-100zM188 250h219l-107 353h-4z" />
    <glyph glyph-name="B" unicode="B" 
d="M443 195c0 25.333 -3.83398 46.166 -11.501 62.499s-18 29.333 -31 39s-28.167 16.334 -45.5 20.001s-36 5.5 -56 5.5h-112v-245h108c16.667 0 33.834 1.5 51.501 4.5s33.667 8.83301 48 17.5s26 20.667 35 36s13.5 35.333 13.5 60zM415.999 509
c0 38 -11.668 65.001 -35.001 81.001s-55.666 24 -96.999 24h-97v-216h105c40 0 70.667 8.66699 92 26s32 45.666 32 84.999zM542.998 197.001c0 -38 -7.50293 -69.5029 -22.5029 -94.5029s-34.833 -45.167 -59.5 -60.5s-52.667 -26.166 -84 -32.499s-63 -9.5 -95 -9.5h-190
v689h175c30.667 0 60.834 -2.66699 90.501 -8s56 -14.666 79 -27.999s41.5 -31.166 55.5 -53.499s21 -50.5 21 -84.5c0 -22 -3.5 -41.5 -10.5 -58.5s-16.167 -31.5 -27.5 -43.5s-24.166 -21.667 -38.499 -29s-28.833 -12.666 -43.5 -15.999v-4
c17.333 -3.33301 34.833 -8.5 52.5 -15.5s33.834 -17 48.501 -30s26.5 -29.333 35.5 -49s13.5 -43.834 13.5 -72.501z" />
    <glyph glyph-name="C" unicode="C" 
d="M358 68c38 0 69.5029 6.00391 94.5029 18.0039s46.167 25.667 63.5 41l49 -62c-21.333 -20 -49.333 -37.833 -84 -53.5s-77 -23.5 -127 -23.5c-43.333 0 -83.333 7.66699 -120 23s-68.334 38.166 -95.001 68.499s-47.334 67.666 -62.001 111.999s-22 95.5 -22 153.5
s8 109.167 24 153.5s37.5 81.5 64.5 111.5s58.5 52.667 94.5 68s74.333 23 115 23c45.333 0 83.5 -6 114.5 -18s60.167 -28.667 87.5 -50l-52 -61c-21.333 17.333 -44 30.166 -68 38.499s-49.333 12.5 -76 12.5c-27.333 0 -53.333 -4.83301 -78 -14.5
s-46.334 -25.334 -65.001 -47.001s-33.334 -50.167 -44.001 -85.5s-16 -79 -16 -131c0 -50 5.16699 -92.5 15.5 -127.5s24.5 -63.5 42.5 -85.5s39.333 -38.167 64 -48.5s51.334 -15.5 80.001 -15.5z" />
    <glyph glyph-name="D" unicode="D" 
d="M454 348c0 58.667 -6.16699 105.331 -18.5 139.998s-28.333 61.334 -48 80.001s-41.5 30.834 -65.5 36.501s-47.667 8.5 -71 8.5h-76v-538h77c24.667 0 49 3.83301 73 11.5s45.5 21.5 64.5 41.5s34.5 47.667 46.5 83s18 81 18 137zM555 347.997
c0 -72 -9.5 -130.667 -28.5 -176s-43.5 -80.666 -73.5 -105.999s-63.667 -42.666 -101 -51.999s-74.333 -14 -111 -14h-161v689h150c40.667 0 80.5 -4.33301 119.5 -13s73.667 -25.334 104 -50.001s54.833 -59.334 73.5 -104.001s28 -102.667 28 -174z" />
    <glyph glyph-name="E" unicode="E" 
d="M207 613v-225h254v-76h-254v-237h311v-75h-406v689h398l-11 -76h-292z" />
    <glyph glyph-name="F" unicode="F" 
d="M220 613v-235h267v-75h-267v-303h-95v689h411l-11 -76h-305z" />
    <glyph glyph-name="G" unicode="G" 
d="M315 -12c-42 0 -79.6641 7.5 -112.997 22.5s-61.833 37.333 -85.5 67s-41.834 66.834 -54.501 111.501s-19 96.667 -19 156s8.16699 111.166 24.5 155.499s38 81.333 65 111s57.833 52 92.5 67s70.667 22.5 108 22.5c23.333 0 44.333 -1.66699 63 -5s36 -8.33301 52 -15
s30.833 -14.667 44.5 -24s27.5 -20.333 41.5 -33l-56 -58c-21.333 19.333 -43.333 33.666 -66 42.999s-48.667 14 -78 14c-24 0 -47.5 -4.66699 -70.5 -14s-43.333 -25 -61 -47s-31.834 -50.667 -42.501 -86s-16 -79 -16 -131c0 -49.333 3.83301 -91.666 11.5 -126.999
s19 -64.333 34 -87s33.5 -39.167 55.5 -49.5s47.667 -15.5 77 -15.5c45.333 0 87.333 10.667 126 32v204h-130l-11 77h235v-330c-31.333 -17.333 -64.833 -31.833 -100.5 -43.5s-77.834 -17.5 -126.501 -17.5z" />
    <glyph glyph-name="H" unicode="H" 
d="M425 0v323h-250v-323h-95v689h95v-288h250v288h95v-689h-95z" />
    <glyph glyph-name="I" unicode="I" 
d="M500 614h-152v-539h152v-75h-400v75h152v539h-152v75h400v-75z" />
    <glyph glyph-name="J" unicode="J" 
d="M450 186c0 -74.667 -25.667 -140 -77 -196s-132 -99 -242 -129l-23 71c42.667 14 79.5 28.833 110.5 44.5s56.667 33.667 77 54s35.333 43.5 45 69.5s14.5 56 14.5 90v424h-245v75h340v-503z" />
    <glyph glyph-name="K" unicode="K" 
d="M195 0h-95v689h95v-689zM200 368l262 321h108l-261 -315l280 -374h-117z" />
    <glyph glyph-name="L" unicode="L" 
d="M131 0v689h95v-606h313l-11 -83h-397z" />
    <glyph glyph-name="M" unicode="M" 
d="M481 0l-20 353.003c-1.33301 33.333 -2.5 67.166 -3.5 101.499s-1.5 63.166 -1.5 86.499c0 10.667 0.166992 19.667 0.5 27s0.5 12.666 0.5 15.999h-3l-109 -461h-91l-114 461h-4v-161c0 -24.667 -0.666992 -48 -2 -70l-17 -353h-88l39 689h126l106 -460h4l101 460h127
l39 -689h-90z" />
    <glyph glyph-name="N" unicode="N" 
d="M390 0l-231.998 583.003h-4c0.666992 -4 1.66699 -14 3 -30s2.66602 -35.667 3.99902 -59s2.66602 -48.833 3.99902 -76.5s2 -54.834 2 -81.501v-336h-87v689h127l235 -586h4c-0.666992 4 -1.66699 13.5 -3 28.5s-2.83301 33.667 -4.5 56s-3 47.666 -4 75.999
s-1.5 58.166 -1.5 89.499v336h87v-689h-130z" />
    <glyph glyph-name="O" unicode="O" 
d="M556 344c0 -52.667 -5.33301 -100.837 -16 -144.504s-26.834 -81.167 -48.501 -112.5s-48.5 -55.666 -80.5 -72.999s-69 -26 -111 -26s-79 8.5 -111 25.5s-58.833 41 -80.5 72s-37.834 68.333 -48.501 112s-16 92.167 -16 145.5c0 52.667 5.33301 100.834 16 144.501
s26.834 81.334 48.501 113.001s48.5 56.334 80.5 74.001s69 26.5 111 26.5s79 -8.5 111 -25.5s58.833 -41.167 80.5 -72.5s37.834 -69 48.501 -113s16 -92.667 16 -146zM457 343.997c0 90.667 -12.167 159.833 -36.5 207.5s-64.5 71.5 -120.5 71.5s-96.167 -24 -120.5 -72
s-36.5 -117.333 -36.5 -208c0 -91.333 12.5 -160.333 37.5 -207s64.833 -70 119.5 -70c56 0 96.167 23.5 120.5 70.5s36.5 116.167 36.5 207.5z" />
    <glyph glyph-name="P" unicode="P" 
d="M458 475c0 26 -4 47.833 -12 65.5s-19 32 -33 43s-30.667 19 -50 24s-40.333 7.5 -63 7.5h-95v-287h95c22.667 0 43.667 2.16699 63 6.5s36 12 50 23s25 26 33 45s12 43.167 12 72.5zM559 476c0 -40 -6.66797 -74.166 -20.001 -102.499s-31.666 -51.5 -54.999 -69.5
s-51.5 -31 -84.5 -39s-68.833 -12 -107.5 -12h-87v-253h-95v689h180c83.333 0 149 -17.333 197 -52s72 -88.334 72 -161.001z" />
    <glyph glyph-name="Q" unicode="Q" 
d="M556 344c0 -72.667 -10.167 -136.171 -30.5 -190.504s-54.833 -95.5 -103.5 -123.5l1 -3c22 -4.66699 41.833 -11 59.5 -19s33.5 -18.333 47.5 -31s26.5 -28.334 37.5 -47.001s20.833 -40.667 29.5 -66l-96 -37c-10.667 26.667 -22 50.167 -34 70.5
s-26.167 37.333 -42.5 51s-35.333 24 -57 31s-47.5 10.5 -77.5 10.5c-40 0 -75.333 8.33301 -106 25s-56.334 40.334 -77.001 71.001s-36.334 67.834 -47.001 111.501s-16 92.167 -16 145.5c0 52.667 5.33301 100.834 16 144.501s26.834 81.334 48.501 113.001
s48.5 56.334 80.5 74.001s69 26.5 111 26.5s79 -8.5 111 -25.5s58.833 -41.167 80.5 -72.5s37.834 -69 48.501 -113s16 -92.667 16 -146zM457 343.996c0 90.667 -12.167 159.833 -36.5 207.5s-64.5 71.5 -120.5 71.5s-96.167 -24 -120.5 -72s-36.5 -117.333 -36.5 -208
c0 -91.333 12.5 -160.333 37.5 -207s64.833 -70 119.5 -70c56 0 96.167 23.5 120.5 70.5s36.5 116.167 36.5 207.5z" />
    <glyph glyph-name="R" unicode="R" 
d="M540 494c0 -26 -4.16699 -49.3311 -12.5 -69.998s-20 -38.834 -35 -54.501s-32.5 -29 -52.5 -40s-41.667 -19.5 -65 -25.5l202 -304h-113l-184 292h-88v-292h-95v689h181c86.667 0 152 -16.333 196 -49s66 -81.334 66 -146.001zM439 494.002
c0 43.333 -12.333 74.332 -37 92.999s-63 28 -115 28h-95v-250h96c48 0 85.167 9.83301 111.5 29.5s39.5 52.834 39.5 99.501z" />
    <glyph glyph-name="S" unicode="S" 
d="M540 192c0 -30 -5.66699 -57.4971 -17 -82.4971s-27.833 -46.5 -49.5 -64.5s-48 -32 -79 -42s-66.167 -15 -105.5 -15c-54 0 -101.667 7.83301 -143 23.5s-76.666 37.5 -105.999 65.5l55 61c24 -22.667 51.333 -40.334 82 -53.001s67 -19 109 -19c20 0 39.333 2.5 58 7.5
s35.167 12.667 49.5 23s25.833 23.166 34.5 38.499s13 33.333 13 54c0 16 -2.33301 30.167 -7 42.5s-12.5 23.5 -23.5 33.5s-26.167 19.333 -45.5 28s-43.333 17.667 -72 27c-33.333 10 -63.333 21.167 -90 33.5s-49.334 26.5 -68.001 42.5s-32.834 34.167 -42.501 54.5
s-14.5 43.833 -14.5 70.5s5.66699 51 17 73s27 41 47 57s43.833 28.333 71.5 37s58.167 13 91.5 13c48 0 90.167 -7 126.5 -21s68.5 -33.667 96.5 -59l-54 -60c-24.667 21.333 -51 37 -79 47s-56.667 15 -86 15c-18.667 0 -36.167 -2 -52.5 -6s-30.5 -10 -42.5 -18
s-21.5 -18.167 -28.5 -30.5s-10.5 -26.833 -10.5 -43.5c0 -14.667 2.66699 -27.5 8 -38.5s14.333 -21.333 27 -31s29.334 -18.834 50.001 -27.501s46.667 -17.667 78 -27c27.333 -8.66699 53.333 -18.167 78 -28.5s46.167 -23.333 64.5 -39s32.833 -35 43.5 -58
s16 -50.833 16 -83.5z" />
    <glyph glyph-name="T" unicode="T" 
d="M346 609v-609h-95v609h-213v80h524l-10 -80h-206z" />
    <glyph glyph-name="U" unicode="U" 
d="M531 224c0 -35.333 -5.33203 -67.333 -15.999 -96s-26 -53.5 -46 -74.5s-44.333 -37.167 -73 -48.5s-61 -17 -97 -17s-68.333 5.66699 -97 17s-52.834 27.5 -72.501 48.5s-34.667 45.833 -45 74.5s-15.5 60.667 -15.5 96v465h95v-461c0 -54 11.5 -94.167 34.5 -120.5
s56.5 -39.5 100.5 -39.5c90.667 0 136 53.333 136 160v461h96v-465z" />
    <glyph glyph-name="V" unicode="V" 
d="M304 109l178 580h96l-227 -689h-102l-227 689h102l176 -580h4z" />
    <glyph glyph-name="W" unicode="W" 
d="M494 0h-120l-74 503h-4l-85 -503h-125l-82 689h95l52 -580h4l91 500h110l74 -497h4l75 577h87z" />
    <glyph glyph-name="X" unicode="X" 
d="M45 689h108l142 -256h4l148 256h102l-197 -317l220 -372h-108l-167 302h-4l-164 -302h-102l212 367z" />
    <glyph glyph-name="Y" unicode="Y" 
d="M348 265v-265h-96v264l-232 425h105l176 -337h3l177 337h99z" />
    <glyph glyph-name="Z" unicode="Z" 
d="M174 81h357l-11 -81h-452v76l360 533h-324v80h427v-77z" />
    <glyph glyph-name="bracketleft" unicode="[" 
d="M181 -116v932h237v-77h-150v-779h150v-76h-237z" />
    <glyph glyph-name="backslash" unicode="\" 
d="M50 775l73 35l427 -881l-74 -33z" />
    <glyph glyph-name="bracketright" unicode="]" 
d="M182 -116v76h150v779h-150v77h237v-932h-237z" />
    <glyph glyph-name="asciicircum" unicode="^" 
d="M259 840h82l189 -313h-98l-133 233l-132 -233h-97z" />
    <glyph glyph-name="underscore" unicode="_" 
d="M-3 -182v79h606v-79h-606z" />
    <glyph glyph-name="grave" unicode="`" 
d="M390 638l-209 84l47 78l190 -113z" />
    <glyph glyph-name="a" unicode="a" 
d="M482 119c0 -21.333 3.33301 -36.665 10 -45.998s17.334 -16.333 32.001 -21l-22 -64c-23.333 3.33301 -43.833 10.666 -61.5 21.999s-30.5 28.666 -38.5 51.999c-18.667 -25.333 -43 -44 -73 -56s-61 -18 -93 -18c-53.333 0 -95.666 14.833 -126.999 44.5
s-47 69.167 -47 118.5c0 54.667 21.667 96.667 65 126s105.333 44 186 44h77v41c0 37.333 -10.833 63.666 -32.5 78.999s-51.834 23 -90.501 23c-17.333 0 -37.833 -2.16699 -61.5 -6.5s-49.167 -11.166 -76.5 -20.499l-24 68c32.667 12 63.667 20.667 93 26s57 8 83 8
c67.333 0 117.666 -15.167 150.999 -45.5s50 -72.5 50 -126.5v-248zM261 57.001c25.333 0 49.333 6.33301 72 19s41.667 30.667 57 54v130h-72c-56.667 0 -96.667 -9.5 -120 -28.5s-35 -44.5 -35 -76.5c0 -65.333 32.667 -98 98 -98z" />
    <glyph glyph-name="b" unicode="b" 
d="M189 460c19.333 25.333 41.5 44.835 66.5 58.502s52.5 20.5 82.5 20.5c34.667 0 64.5 -6.5 89.5 -19.5s45.5 -31.5 61.5 -55.5s27.667 -53 35 -87s11 -71.667 11 -113c0 -40 -4.5 -76.833 -13.5 -110.5s-22.333 -62.834 -40 -87.501s-39.5 -43.834 -65.5 -57.501
s-56 -20.5 -90 -20.5c-60.667 0 -108 22 -142 66l-6 -54h-81v739l92 11v-290zM304 61.002c42 0 74.499 16.501 97.499 49.501s34.5 84.167 34.5 153.5c0 68.667 -10.167 119.5 -30.5 152.5s-50.166 49.5 -89.499 49.5c-28 0 -52.667 -8.33301 -74 -25s-39 -35.667 -53 -57
v-257c13.333 -20.667 30 -36.834 50 -48.501s41.667 -17.5 65 -17.5z" />
    <glyph glyph-name="c" unicode="c" 
d="M336 66c22 0 44.668 3.50098 68.001 10.501s45.666 18.5 66.999 34.5l44 -63c-24.667 -20 -53.334 -35 -86.001 -45s-64 -15 -94 -15c-40 0 -75.5 6.5 -106.5 19.5s-57.167 31.333 -78.5 55s-37.5 52.334 -48.5 86.001s-16.5 71.167 -16.5 112.5
c0 40 5.66699 76.833 17 110.5s27.666 63 48.999 88s47.5 44.5 78.5 58.5s66.5 21 106.5 21c34 0 66.167 -4.66699 96.5 -14s57.833 -24.333 82.5 -45l-45 -62c-21.333 16 -43.166 27.5 -65.499 34.5s-45.166 10.5 -68.499 10.5c-44.667 0 -81.167 -16.5 -109.5 -49.5
s-42.5 -83.833 -42.5 -152.5c0 -34.667 3.83301 -64.334 11.5 -89.001s18.167 -44.834 31.5 -60.501s29.333 -27.167 48 -34.5s39 -11 61 -11z" />
    <glyph glyph-name="d" unicode="d" 
d="M296 466c-42 0 -74.5 -16.666 -97.5 -49.999s-34.5 -84.333 -34.5 -153s10.333 -119.5 31 -152.5s51 -49.5 91 -49.5c28 0 52.333 8.16699 73 24.5s38 35.166 52 56.499v259c-14 20.667 -30.833 36.667 -50.5 48s-41.167 17 -64.5 17zM272 539.001
c57.333 0 103.664 -20.333 138.997 -61v272l92 -11v-739h-81l-8 68c-19.333 -27.333 -41.5 -47.5 -66.5 -60.5s-52.5 -19.5 -82.5 -19.5c-34 0 -63.667 6.66699 -89 20s-46.166 32 -62.499 56s-28.5 52.833 -36.5 86.5s-12 71.167 -12 112.5c0 40 4.66699 76.833 14 110.5
s22.833 62.667 40.5 87s39.334 43.5 65.001 57.5s54.834 21 87.501 21z" />
    <glyph glyph-name="e" unicode="e" 
d="M171 232c4 -58.667 20.167 -101.501 48.5 -128.501s62.5 -40.5 102.5 -40.5c24 0 47.667 3.5 71 10.5s46.333 19.833 69 38.5l42 -61c-24.667 -19.333 -53 -34.666 -85 -45.999s-65 -17 -99 -17c-39.333 0 -74.166 6.66699 -104.499 20s-56 32 -77 56
s-36.833 52.833 -47.5 86.5s-16 71.167 -16 112.5c0 40 5.33301 76.833 16 110.5s26 62.667 46 87s44.167 43.5 72.5 57.5s60.166 21 95.499 21c69.333 0 123.5 -23.167 162.5 -69.5s58.5 -109.833 58.5 -190.5c0 -9.33301 -0.166992 -18 -0.5 -26s-0.833008 -15 -1.5 -21
h-353zM305 465.999c-36 0 -66.5 -13.5 -91.5 -40.5s-39.167 -68.833 -42.5 -125.5h266c-1.33301 54.667 -13.333 96 -36 124s-54.667 42 -96 42z" />
    <glyph glyph-name="f" unicode="f" 
d="M401 750c30 0 56.668 -2.50098 80.001 -7.50098s45.666 -12.167 66.999 -21.5l-29 -67c-17.333 7.33301 -35.5 12.833 -54.5 16.5s-38.5 5.5 -58.5 5.5c-72 0 -108 -28.667 -108 -86v-103h178l-10 -71h-168v-416h-92v416h-124v71h124v102
c0 24.667 4.83301 46.834 14.5 66.501s23.167 36.5 40.5 50.5s38 24.833 62 32.5s50 11.5 78 11.5z" />
    <glyph glyph-name="g" unicode="g" 
d="M141 -25c-2.66699 -5.33301 -4.83008 -11.499 -6.49707 -18.499s-2.5 -14.5 -2.5 -22.5c0 -23.333 11.833 -41.666 35.5 -54.999s61.834 -20 114.501 -20c29.333 0 53.666 2.16699 72.999 6.5s34.833 10.166 46.5 17.499s20 15.833 25 25.5s7.5 20.167 7.5 31.5
c0 22 -8.83301 38.833 -26.5 50.5s-50.834 18.5 -99.501 20.5c-66.667 2.66699 -117.334 12 -152.001 28s-52 42.333 -52 79c0 16.667 4.5 32.667 13.5 48s22.167 29 39.5 41c-26.667 15.333 -47.334 35.666 -62.001 60.999s-22 54 -22 86c0 26 4.83301 50.333 14.5 73
s23.667 42.167 42 58.5s40.5 29.333 66.5 39s55 14.5 87 14.5c28.667 0 54.667 1.16699 78 3.5s44.833 5.66602 64.5 9.99902s37.5 9.33301 53.5 15s31.333 11.834 46 18.501l27 -83c-22 -7.33301 -45.333 -11.833 -70 -13.5s-50.667 -2.5 -78 -2.5v-3
c26 -12 46.5 -29.333 61.5 -52s22.5 -49 22.5 -79c0 -25.333 -4.66699 -48.833 -14 -70.5s-22.833 -40.5 -40.5 -56.5s-39 -28.5 -64 -37.5s-53.167 -13.5 -84.5 -13.5c-12 0 -24.333 0.666992 -37 2s-24.667 3.66602 -36 6.99902c-6.66699 -5.33301 -12 -11.833 -16 -19.5
s-6 -14.834 -6 -21.501c0 -8 1.66699 -15 5 -21s9.66602 -11.167 18.999 -15.5s22.5 -7.66602 39.5 -9.99902s39.167 -3.83301 66.5 -4.5c66.667 -2 117.834 -15 153.501 -39s53.5 -60 53.5 -108c0 -27.333 -6.5 -51 -19.5 -71s-30.5 -36.5 -52.5 -49.5
s-47.833 -22.5 -77.5 -28.5s-61.5 -9 -95.5 -9c-41.333 0 -76.666 3.16699 -105.999 9.5s-53.333 15.333 -72 27s-32.334 25.334 -41.001 41.001s-13 33.167 -13 52.5c0 12 1.16699 24.5 3.5 37.5s7.83301 26.167 16.5 39.5zM167.004 354.001
c0 -34.667 10.332 -63 30.999 -85s49 -33 85 -33s64 10.833 84 32.5s30 50.5 30 86.5c0 38 -9.66699 67.167 -29 87.5s-47.666 30.5 -84.999 30.5c-36.667 0 -65.167 -11.333 -85.5 -34s-30.5 -51 -30.5 -85z" />
    <glyph glyph-name="h" unicode="h" 
d="M97 0l0.00195312 737.999l92 10v-288c21.333 25.333 46.666 44.833 75.999 58.5s59.666 20.5 90.999 20.5c51.333 0 88.833 -13.667 112.5 -41s35.5 -65.666 35.5 -114.999v-383h-92v377c0 32 -7 55 -21 69s-36 21 -66 21c-14 0 -27.667 -2.5 -41 -7.5
s-25.833 -11.5 -37.5 -19.5s-22.5 -17.167 -32.5 -27.5s-18.333 -20.5 -25 -30.5v-382h-92z" />
    <glyph glyph-name="i" unicode="i" 
d="M370 71h147v-71h-400v71h161v385h-156v71h248v-456zM389 715c0 -18 -6 -33 -18 -45s-27.667 -18 -47 -18s-34.833 6 -46.5 18s-17.5 27 -17.5 45c0 17.333 5.83301 32 17.5 44s27.167 18 46.5 18s35 -6 47 -18s18 -26.667 18 -44z" />
    <glyph glyph-name="j" unicode="j" 
d="M378 62c0 -38 -6.66797 -71.501 -20.001 -100.501s-31.666 -54.5 -54.999 -76.5s-50.833 -40.833 -82.5 -56.5s-65.834 -29.5 -102.501 -41.5l-28 71c24.667 9.33301 48.834 19.5 72.501 30.5s44.667 24.333 63 40s33 33.834 44 54.501s16.5 45 16.5 73v400h-171v71h263
v-465zM386.999 714.999c0 -18 -6 -33 -18 -45s-27.667 -18 -47 -18s-34.833 6 -46.5 18s-17.5 27 -17.5 45c0 17.333 5.83301 32 17.5 44s27.167 18 46.5 18s35 -6 47 -18s18 -26.667 18 -44z" />
    <glyph glyph-name="k" unicode="k" 
d="M97 0v739l92 11v-750h-92zM198 288l222 239h115l-225 -237l251 -290h-118z" />
    <glyph glyph-name="l" unicode="l" 
d="M496 16c-12.667 -7.33301 -30.833 -13.832 -54.5 -19.499s-48.167 -8.5 -73.5 -8.5c-48.667 0 -87.5 13.5 -116.5 40.5s-43.5 64.833 -43.5 113.5v526h-161v71h253v-605c0 -25.333 7.83301 -43.333 23.5 -54s36.167 -16 61.5 -16c14 0 28.5 1.66699 43.5 5
s29.5 7.66602 43.5 12.999z" />
    <glyph glyph-name="m" unicode="m" 
d="M132 0l-84.001 -0.00390625v527h71l6 -60c14.667 20.667 30.834 37.834 48.501 51.501s39.5 20.5 65.5 20.5c20 0 38.833 -4.5 56.5 -13.5s30.167 -27.5 37.5 -55.5c14.667 20.667 31 37.334 49 50.001s40.333 19 67 19c13.333 0 26.166 -2 38.499 -6
s23.333 -11.5 33 -22.5s17.334 -26 23.001 -45s8.5 -43.5 8.5 -73.5v-392h-84v378c0 31.333 -1.83301 54 -5.5 68s-14.834 21 -33.501 21c-15.333 0 -30.333 -4.66699 -45 -14s-29 -24.666 -43 -45.999v-407h-82v378c0 31.333 -2 54 -6 68s-15.333 21 -34 21
c-15.333 0 -30.166 -4.66699 -44.499 -14s-28.5 -24.666 -42.5 -45.999v-407z" />
    <glyph glyph-name="n" unicode="n" 
d="M97 0l0.000976562 527h79l7 -72c21.333 27.333 47.666 48.166 78.999 62.499s62.666 21.5 93.999 21.5c51.333 0 88.833 -13.667 112.5 -41s35.5 -65.666 35.5 -114.999v-383h-92v323c0 26 -1 48 -3 66s-6 32.833 -12 44.5s-14.667 20.167 -26 25.5s-26.666 8 -45.999 8
c-14 0 -27.667 -2.5 -41 -7.5s-25.833 -11.5 -37.5 -19.5s-22.5 -17.167 -32.5 -27.5s-18.333 -20.5 -25 -30.5v-382h-92z" />
    <glyph glyph-name="o" unicode="o" 
d="M432 264c0 68.667 -10.833 119.334 -32.5 152.001s-54.5 49 -98.5 49s-77.167 -16.333 -99.5 -49s-33.5 -83.667 -33.5 -153c0 -68.667 11 -119.334 33 -152.001s55 -49 99 -49s77 16.333 99 49s33 83.667 33 153zM70 263c0 40.667 5 78 15 112s24.667 63.167 44 87.5
s43.5 43.166 72.5 56.499s62.167 20 99.5 20s70.333 -6.5 99 -19.5s52.667 -31.5 72 -55.5s33.833 -52.833 43.5 -86.5s14.5 -71.5 14.5 -113.5c0 -40.667 -5 -78 -15 -112s-24.667 -63.167 -44 -87.5s-43.333 -43.166 -72 -56.499s-61.667 -20 -99 -20
s-70.333 6.5 -99 19.5s-52.667 31.5 -72 55.5s-34 52.833 -44 86.5s-15 71.5 -15 113.5z" />
    <glyph glyph-name="p" unicode="p" 
d="M97 -213l0.000976562 740.003h79l7 -72c19.333 27.333 42.5 48.166 69.5 62.499s55.833 21.5 86.5 21.5c34.667 0 64.167 -6.5 88.5 -19.5s44.166 -31.5 59.499 -55.5s26.333 -53 33 -87s10 -71.667 10 -113c0 -40 -4.16699 -76.833 -12.5 -110.5
s-21 -62.834 -38 -87.501s-38.167 -43.834 -63.5 -57.501s-55 -20.5 -89 -20.5c-58.667 0 -104.667 20 -138 60v-250zM305.001 63.0029c42 0 73.667 16.168 95 48.501s32 83.166 32 152.499c0 68.667 -9.33301 119.5 -28 152.5s-48 49.5 -88 49.5
c-28 0 -52.667 -8.33301 -74 -25s-39 -35.667 -53 -57v-257c13.333 -20.667 30 -36.5 50 -47.5s42 -16.5 66 -16.5z" />
    <glyph glyph-name="q" unicode="q" 
d="M295 466c-84.667 0 -126.999 -67.667 -126.999 -203c0 -68.667 9.66699 -119.167 29 -151.5s48.666 -48.5 87.999 -48.5c28 0 52.5 7.83301 73.5 23.5s38.5 34.167 52.5 55.5v259c-13.333 20.667 -30 36.667 -50 48s-42 17 -66 17zM503.001 -213l-92 11v266
c-19.333 -26 -41.333 -45.167 -66 -57.5s-51.667 -18.5 -81 -18.5c-35.333 0 -65.333 6.5 -90 19.5s-44.667 31.5 -60 55.5s-26.5 53 -33.5 87s-10.5 71.667 -10.5 113c0 40 4.33301 76.833 13 110.5s21.5 62.667 38.5 87s38.167 43.5 63.5 57.5s54.333 21 87 21
c60.667 0 109 -22.667 145 -68l7 56h79v-740z" />
    <glyph glyph-name="r" unicode="r" 
d="M452 0l-359.997 0.000976562v71h121v385h-121v71h201l11 -101c15.333 37.333 36.333 65.5 63 84.5s55.667 28.5 87 28.5c12.667 0 23.667 -0.5 33 -1.5s21.666 -3.16699 36.999 -6.5l-17 -91c-13.333 3.33301 -24.5 5.66602 -33.5 6.99902s-19.167 2 -30.5 2
c-16.667 0 -32.334 -3.83301 -47.001 -11.5s-28 -18 -40 -31s-22.333 -28 -31 -45s-15.334 -34.5 -20.001 -52.5v-238h147v-71z" />
    <glyph glyph-name="s" unicode="s" 
d="M275 62c39.333 0 70.165 7.16797 92.498 21.501s33.5 33.833 33.5 58.5c0 12.667 -1.5 23.667 -4.5 33s-9 17.666 -18 24.999s-21.667 14 -38 20s-38.166 12.667 -65.499 20c-26 6.66699 -49.667 14.167 -71 22.5s-39.666 18.333 -54.999 30s-27.166 25.5 -35.499 41.5
s-12.5 35.667 -12.5 59c0 22 4.83301 42 14.5 60s23.5 33.333 41.5 46s39.5 22.5 64.5 29.5s52.833 10.5 83.5 10.5c38 0 72.167 -5.16699 102.5 -15.5s57.166 -23.833 80.499 -40.5l-41 -62c-19.333 14 -40.333 25 -63 33s-48.334 12 -77.001 12
c-41.333 0 -70.166 -5.83301 -86.499 -17.5s-24.5 -28.167 -24.5 -49.5c0 -11.333 2.16699 -20.833 6.5 -28.5s11.833 -14.834 22.5 -21.501s24.5 -13 41.5 -19s38.5 -12.667 64.5 -20c25.333 -7.33301 48.333 -15 69 -23s38.5 -18 53.5 -30s26.5 -26.667 34.5 -44
s12 -38.666 12 -63.999c0 -28.667 -6.33301 -53.167 -19 -73.5s-29.5 -37 -50.5 -50s-45 -22.5 -72 -28.5s-54.833 -9 -83.5 -9c-48.667 0 -90.667 7 -126 21s-64.666 31 -87.999 51l51 58c20.667 -17.333 45.167 -31 73.5 -41s58.166 -15 89.499 -15z" />
    <glyph glyph-name="t" unicode="t" 
d="M532 27c-18.667 -12 -40.999 -21.5 -66.999 -28.5s-52 -10.5 -78 -10.5c-58.667 0 -103.334 15.167 -134.001 45.5s-46 69.5 -46 117.5v306h-120v70h120v119l92 11v-130h181l-11 -70h-170v-305c0 -30 7.5 -52.167 22.5 -66.5s40.167 -21.5 75.5 -21.5
c19.333 0 37.5 2.33301 54.5 7s32.167 11 45.5 19z" />
    <glyph glyph-name="u" unicode="u" 
d="M189 527v-371.999c0 -34 6.83301 -58.333 20.5 -73s35.167 -22 64.5 -22c28 0 54.333 8 79 24s44 35 58 57v386h92v-527h-79l-7 70c-20.667 -26.667 -46 -47 -76 -61s-60.667 -21 -92 -21c-51.333 0 -89.5 13.667 -114.5 41s-37.5 65.666 -37.5 114.999v383h92z" />
    <glyph glyph-name="v" unicode="v" 
d="M353 0h-107l-189 527h98l145 -442h3l145 442h95z" />
    <glyph glyph-name="w" unicode="w" 
d="M494 0h-125l-65 373h-4l-68 -373h-122l-94 527h92l64 -457h4l77 390h103l72 -388h4l64 455h88z" />
    <glyph glyph-name="x" unicode="x" 
d="M295 220l-139 -220h-104l193 278l-170 249h108l116 -190h4l117 190h104l-169 -245l193 -282h-111l-138 220h-4z" />
    <glyph glyph-name="y" unicode="y" 
d="M358 -3c-9.33301 -28 -20.667 -54.001 -34 -78.001s-29.5 -45.167 -48.5 -63.5s-41.5 -33.5 -67.5 -45.5s-56.667 -19.667 -92 -23l-13 72c26.667 4.66699 49.167 10.834 67.5 18.501s33.833 17.167 46.5 28.5s23 24.833 31 40.5s15.667 33.5 23 53.5h-31l-182 527h98
l144 -453h4l143 453h95z" />
    <glyph glyph-name="z" unicode="z" 
d="M211 77h290l-11 -77h-391v69l289 380h-266v78h376v-70z" />
    <glyph glyph-name="braceleft" unicode="{" 
d="M146 387c34.667 0 60 8.66797 76 26.001s24 43.333 24 78v186c0 31.333 5.16699 57.166 15.5 77.499s24.666 36.5 42.999 48.5s40.166 20.5 65.499 25.5s53 7.5 83 7.5v-71c-36 0 -65 -5.5 -87 -16.5s-33 -31.5 -33 -61.5v-199c0 -43.333 -9.33301 -75.5 -28 -96.5
s-44.334 -34.167 -77.001 -39.5v-4c32.667 -5.33301 58.334 -18.166 77.001 -38.499s28 -52.833 28 -97.5v-199c0 -30.667 11 -51.334 33 -62.001s51 -16 87 -16v-71c-30 0 -57.667 2.5 -83 7.5s-47.166 13.5 -65.499 25.5s-32.666 28.167 -42.999 48.5
s-15.5 46.166 -15.5 77.499v185c0 34.667 -8 60.834 -24 78.501s-41.333 26.5 -76 26.5v74z" />
    <glyph glyph-name="bar" unicode="|" 
d="M258 807h83v-909h-83v909z" />
    <glyph glyph-name="braceright" unicode="}" 
d="M454 313c-34.667 0 -60 -8.83398 -76 -26.501s-24 -43.834 -24 -78.501v-185c0 -31.333 -5.16699 -57.166 -15.5 -77.499s-24.666 -36.5 -42.999 -48.5s-40.166 -20.5 -65.499 -25.5s-53 -7.5 -83 -7.5v71c36 0 65 5.33301 87 16s33 31.334 33 62.001v199
c0 44.667 9.33301 77.167 28 97.5s44.334 33.166 77.001 38.499v4c-32.667 5.33301 -58.334 18.5 -77.001 39.5s-28 53.167 -28 96.5v199c0 30 -11 50.5 -33 61.5s-51 16.5 -87 16.5v71c30 0 57.667 -2.5 83 -7.5s47.166 -13.5 65.499 -25.5s32.666 -28.167 42.999 -48.5
s15.5 -46.166 15.5 -77.499v-186c0 -34.667 8 -60.667 24 -78s41.333 -26 76 -26v-74z" />
    <glyph glyph-name="asciitilde" unicode="~" 
d="M395 226c-23.333 0 -43.6719 5.16699 -61.0049 15.5s-33.166 21.833 -47.499 34.5s-28 24.167 -41 34.5s-27.5 15.5 -43.5 15.5c-21.333 0 -39.666 -8 -54.999 -24s-29.666 -36 -42.999 -60l-63 31c8 15.333 16.833 30.833 26.5 46.5s21 29.667 34 42s28 22.5 45 30.5
s36.5 12 58.5 12c24.667 0 45.834 -5.16699 63.501 -15.5s33.5 -21.833 47.5 -34.5s27.333 -24.167 40 -34.5s26.667 -15.5 42 -15.5c20.667 0 38.834 8 54.501 24s30.167 36 43.5 60l63 -32c-8 -15.333 -16.833 -30.666 -26.5 -45.999s-21 -29.333 -34 -42
s-28 -22.834 -45 -30.501s-36.5 -11.5 -58.5 -11.5z" />
    <glyph glyph-name="uni008E" 
d="M174 81h357l-11 -81h-452v76l360 533h-324v80h427v-77zM316 833l126 82l39 -45l-135 -111h-61l-136 111l40 45z" />
    <glyph glyph-name="uni009E" 
d="M211 77h290l-11 -77h-391v69l289 380h-266v78h376v-70zM306 701l125 91l40 -44l-135 -121h-61l-136 121l42 44z" />
    <glyph glyph-name="uni00A0" unicode="&#xa0;" 
 />
    <glyph glyph-name="exclamdown" unicode="&#xa1;" 
d="M369 430c0 -19.333 -6.83301 -35.666 -20.5 -48.999s-30.167 -20 -49.5 -20s-35.666 6.66699 -48.999 20s-20 29.666 -20 48.999s6.66699 35.833 20 49.5s29.666 20.5 48.999 20.5s35.833 -6.83301 49.5 -20.5s20.5 -30.167 20.5 -49.5zM338 258l14 -456h-105l13 456h78z
" />
    <glyph glyph-name="cent" unicode="&#xa2;" 
d="M338 66c19.333 0 38 3.16504 56 9.49805s37.667 17.833 59 34.5l44 -64c-19.333 -16 -39.166 -28 -59.499 -36s-41.166 -13.667 -62.499 -17v-147h-79v148c-64 8.66699 -112.167 36.5 -144.5 83.5s-48.5 108.167 -48.5 183.5c0 36 4.16699 69.5 12.5 100.5
s20.5 58.5 36.5 82.5s36.167 43.667 60.5 59s52.5 25.333 84.5 30v151h78v-150c21.333 -2.66699 42.166 -8.16699 62.499 -16.5s40.166 -20.166 59.499 -35.499l-45 -60c-21.333 16 -40.833 26.833 -58.5 32.5s-36.167 8.5 -55.5 8.5c-42.667 0 -76 -16.5 -100 -49.5
s-36 -83.833 -36 -152.5c0 -69.333 12.167 -119.166 36.5 -149.499s57.5 -45.5 99.5 -45.5z" />
    <glyph glyph-name="sterling" unicode="&#xa3;" 
d="M153 514c0 26.667 4.33203 51.501 12.999 74.501s21.334 42.833 38.001 59.5s37 29.667 61 39s51.333 14 82 14c37.333 0 71.333 -6.83301 102 -20.5s57.334 -36.167 80.001 -67.5l-61 -46c-16.667 20.667 -34.334 35.5 -53.001 44.5s-40 13.5 -64 13.5
c-70.667 0 -106 -39.333 -106 -118v-118h204v-61h-204v-119c0 -27.333 -3.5 -52.333 -10.5 -75s-22.167 -40.334 -45.5 -53.001v-4h331l-11 -77h-438v73c20 6 35.5 13.5 46.5 22.5s19.167 19 24.5 30s8.5 23.167 9.5 36.5s1.5 28 1.5 44v122h-81v61h81v125z" />
    <glyph glyph-name="currency" unicode="&#xa4;" 
d="M178 521c35.333 22 76.335 32.998 123.002 32.998c47.333 0 87.666 -11 120.999 -33l88 88l56 -56l-86 -87c11.333 -16.667 20.166 -35.5 26.499 -56.5s9.5 -43.5 9.5 -67.5c0 -25.333 -3.33301 -48.333 -10 -69s-15.667 -39.667 -27 -57l87 -86l-56 -56l-89 87
c-33.333 -21.333 -73.333 -32 -120 -32c-47.333 0 -88.333 10.667 -123 32l-88 -88l-56 56l88 88c-11.333 17.333 -20 36.333 -26 57s-9 43.334 -9 68.001c0 24 3 46.333 9 67s14.333 39.334 25 56.001l-87 89l56 56zM301.002 201.998c41.333 0 72.333 12.333 93 37
s31 59 31 103s-10.333 78.333 -31 103s-51.667 37 -93 37s-72.5 -12.333 -93.5 -37s-31.5 -59 -31.5 -103s10.5 -78.333 31.5 -103s52.167 -37 93.5 -37z" />
    <glyph glyph-name="yen" unicode="&#xa5;" 
d="M227 346l-191 343h103l162 -313h4l162 313h97l-192 -343h117v-61h-141v-84h141v-61h-141v-140h-96v140h-139v61h139v84h-139v61h114z" />
    <glyph glyph-name="brokenbar" unicode="&#xa6;" 
d="M258 807h83v-356h-83v356zM258 254h83v-356h-83v356z" />
    <glyph glyph-name="section" unicode="&#xa7;" 
d="M103 319c0 27.333 8.00098 51.6689 24.001 73.002s35 38.666 57 51.999c-18.667 14 -33.167 30 -43.5 48s-15.5 38.333 -15.5 61s5 43.167 15 61.5s23.667 33.833 41 46.5s37.666 22.5 60.999 29.5s48.333 10.5 75 10.5c36.667 0 68.5 -5 95.5 -15s51.833 -23 74.5 -39
l-42 -61c-20 13.333 -40 23.666 -60 30.999s-44 11 -72 11s-50.5 -6.16699 -67.5 -18.5s-25.5 -28.833 -25.5 -49.5c0 -11.333 1.66699 -21 5 -29s9.5 -15.5 18.5 -22.5s21.5 -14 37.5 -21s36.667 -14.833 62 -23.5c53.333 -17.333 92.166 -37.333 116.499 -60
s36.5 -53.667 36.5 -93c0 -28 -7.83301 -52.667 -23.5 -74s-34.5 -38.666 -56.5 -51.999c18 -13.333 32.333 -29 43 -47s16 -38.667 16 -62c0 -22.667 -4.83301 -43.167 -14.5 -61.5s-23.167 -33.833 -40.5 -46.5s-38 -22.334 -62 -29.001s-50.333 -10 -79 -10
c-37.333 0 -70.166 5 -98.499 15s-53.5 23.333 -75.5 40l42 61c20 -14 40.5 -24.667 61.5 -32s45.5 -11 73.5 -11s51.333 6 70 18s28 28.667 28 50c0 10.667 -1.66699 20.167 -5 28.5s-9.5 16 -18.5 23s-21.5 14 -37.5 21s-36.667 14.5 -62 22.5
c-53.333 18 -92.333 38.167 -117 60.5s-37 53.5 -37 93.5zM193.001 331.003c0 -14 2.33301 -25.667 7 -35s13.334 -18 26.001 -26s29.834 -16.167 51.501 -24.5s49.5 -18.5 83.5 -30.5c14.667 12.667 26 26.334 34 41.001s12 29 12 43c0 13.333 -2.33301 24.5 -7 33.5
s-13.334 17.5 -26.001 25.5s-29.834 16.167 -51.501 24.5l-83.5 31.5c-15.333 -12.667 -26.833 -26.334 -34.5 -41.001s-11.5 -28.667 -11.5 -42z" />
    <glyph glyph-name="dieresis" unicode="&#xa8;" 
d="M195 654c-16.667 0 -30.5 5.5 -41.5 16.5s-16.5 24.5 -16.5 40.5s5.5 29.5 16.5 40.5s24.833 16.5 41.5 16.5c16 0 29.5 -5.5 40.5 -16.5s16.5 -24.5 16.5 -40.5s-5.5 -29.5 -16.5 -40.5s-24.5 -16.5 -40.5 -16.5zM404 654c-16 0 -29.5 5.5 -40.5 16.5
s-16.5 24.5 -16.5 40.5s5.5 29.5 16.5 40.5s24.5 16.5 40.5 16.5c16.667 0 30.5 -5.5 41.5 -16.5s16.5 -24.5 16.5 -40.5s-5.5 -29.5 -16.5 -40.5s-24.833 -16.5 -41.5 -16.5z" />
    <glyph glyph-name="copyright" unicode="&#xa9;" 
d="M309 308c17.333 0 32.833 2.99902 46.5 8.99902s26.167 14.333 37.5 25l34 -50c-14 -12.667 -30.667 -23.667 -50 -33s-43 -14 -71 -14c-48 0 -87.333 16.167 -118 48.5s-46 79.5 -46 141.5c0 30.667 4.33301 57.834 13 81.501s20.5 43.5 35.5 59.5
s32.333 28.167 52 36.5s40.5 12.5 62.5 12.5c25.333 0 46.833 -3.33301 64.5 -10s35.167 -16.667 52.5 -30l-37 -49c-24 19.333 -49.333 29 -76 29c-25.333 0 -46.833 -10 -64.5 -30s-26.5 -53.333 -26.5 -100c0 -44 8.33301 -76.167 25 -96.5s38.667 -30.5 66 -30.5z
M301 173.999c36 0 67.333 6.83301 94 20.5s49 32.167 67 55.5s31.333 50.833 40 82.5s13 65.5 13 101.5s-4.33301 70 -13 102s-22 59.833 -40 83.5s-40.333 42.334 -67 56.001s-58 20.5 -94 20.5s-67.5 -6.83301 -94.5 -20.5s-49.5 -32.334 -67.5 -56.001
s-31.333 -51.5 -40 -83.5s-13 -66 -13 -102s4.33301 -69.833 13 -101.5s22 -59.167 40 -82.5s40.5 -41.833 67.5 -55.5s58.5 -20.5 94.5 -20.5zM301 120.999c-43.333 0 -82 8.16699 -116 24.5s-62.667 38.666 -86 66.999s-41.166 61.5 -53.499 99.5s-18.5 78.667 -18.5 122
s6.16699 84.166 18.5 122.499s30.166 71.666 53.499 99.999s52 50.666 86 66.999s72.667 24.5 116 24.5s81.833 -8.16699 115.5 -24.5s62.167 -38.666 85.5 -66.999s41 -61.666 53 -99.999s18 -79.166 18 -122.499s-6 -84 -18 -122s-29.667 -71.167 -53 -99.5
s-51.833 -50.666 -85.5 -66.999s-72.167 -24.5 -115.5 -24.5z" />
    <glyph glyph-name="ordfeminine" unicode="&#xaa;" 
d="M459 415c0 -15.333 2.66699 -26.667 8 -34s13.666 -12.666 24.999 -15.999l-20 -58c-21.333 2.66699 -39.166 8.5 -53.499 17.5s-25.166 22.833 -32.499 41.5c-16.667 -19.333 -36.834 -34 -60.501 -44s-48.167 -15 -73.5 -15c-46 0 -82.833 12.167 -110.5 36.5
s-41.5 56.5 -41.5 96.5c0 44.667 19 78.834 57 102.501s91.333 35.5 160 35.5h58v28c0 28 -8.33301 47.667 -25 59s-40.667 17 -72 17c-14 0 -31.667 -1.83301 -53 -5.5s-44 -9.83398 -68 -18.501l-24 62c30 11.333 58 19.166 84 23.499s50.333 6.5 73 6.5
c58 0 100.667 -12.5 128 -37.5s41 -59.5 41 -103.5v-194zM273 369.999c19.333 0 38 4.83301 56 14.5s33.333 23.167 46 40.5v94h-55c-46 0 -79 -6.5 -99 -19.5s-30 -31.5 -30 -55.5c0 -24.667 7.16699 -43.167 21.5 -55.5s34.5 -18.5 60.5 -18.5zM105 -0.000976562v79h395
v-79h-395z" />
    <glyph glyph-name="guillemotleft" unicode="&#xab;" 
d="M309 86l-55 -35l-175 209v65l175 210l55 -35l-133 -207zM520 86l-55 -35l-176 209v65l176 210l55 -35l-133 -207z" />
    <glyph glyph-name="logicalnot" unicode="&#xac;" 
d="M488 131h-83v143h-293v77h376v-220z" />
    <glyph glyph-name="uni00AD" unicode="&#xad;" 
d="M143 274v78h314v-78h-314z" />
    <glyph glyph-name="registered" unicode="&#xae;" 
d="M300 236c-35.333 0 -68.666 6.66699 -99.999 20s-58.5 31.5 -81.5 54.5s-41.167 50 -54.5 81s-20 64.167 -20 99.5s6.66699 68.666 20 99.999s31.5 58.666 54.5 81.999s50.167 41.666 81.5 54.999s64.666 20 99.999 20s68.5 -6.66699 99.5 -20s58 -31.666 81 -54.999
s41.167 -50.666 54.5 -81.999s20 -64.666 20 -99.999s-6.66699 -68.5 -20 -99.5s-31.5 -58 -54.5 -81s-50 -41.167 -81 -54.5s-64.167 -20 -99.5 -20zM300 285c28.667 0 55.167 5.33301 79.5 16s45.5 25.334 63.5 44.001s32 40.5 42 65.5s15 51.833 15 80.5
s-5 55.667 -15 81s-24 47.333 -42 66s-39.167 33.5 -63.5 44.5s-50.833 16.5 -79.5 16.5s-55.334 -5.5 -80.001 -16.5s-46 -25.833 -64 -44.5s-32 -40.667 -42 -66s-15 -52.333 -15 -81s5 -55.5 15 -80.5s24 -46.833 42 -65.5s39.333 -33.334 64 -44.001
s51.334 -16 80.001 -16zM409 551c0 -21.333 -6.16797 -38.5 -18.501 -51.5s-28.166 -22.167 -47.499 -27.5l85 -118h-68l-74 108h-28v-108h-58v282h85c82.667 0 124 -28.333 124 -85zM348.999 551c0 26.667 -20.666 40 -61.999 40h-29v-84h31
c19.333 0 34.166 3.33301 44.499 10s15.5 18 15.5 34z" />
    <glyph glyph-name="macron" unicode="&#xaf;" 
d="M436 682h-273v69h273v-69z" />
    <glyph glyph-name="degree" unicode="&#xb0;" 
d="M230 497c23.333 0 43.666 7.83398 60.999 23.501s26 39.5 26 71.5s-8.66699 55.833 -26 71.5s-37.666 23.5 -60.999 23.5c-22.667 0 -42.834 -7.66699 -60.501 -23s-26.5 -39 -26.5 -71c0 -32.667 8.83301 -56.834 26.5 -72.501s37.834 -23.5 60.501 -23.5zM230 434.001
c-20.667 0 -40.834 3.49902 -60.501 10.499s-37.167 17.167 -52.5 30.5s-27.666 30 -36.999 50s-14 42.667 -14 68c0 24.667 4.66699 46.834 14 66.501s21.666 36.167 36.999 49.5s32.833 23.5 52.5 30.5s39.834 10.5 60.501 10.5s41 -3.5 61 -10.5s37.5 -17.167 52.5 -30.5
s27.167 -29.833 36.5 -49.5s14 -42.167 14 -67.5s-4.66699 -47.833 -14 -67.5s-21.5 -36.167 -36.5 -49.5s-32.5 -23.5 -52.5 -30.5s-40.333 -10.5 -61 -10.5z" />
    <glyph glyph-name="plusminus" unicode="&#xb1;" 
d="M343 274v-124h-86v124h-145v76h145v150h86v-150h145v-76h-145zM112 0v78h376v-78h-376z" />
    <glyph glyph-name="twosuperior" unicode="&#xb2;" 
d="M436 599c0 -16 -2.83496 -30.335 -8.50195 -43.002s-15 -25 -28 -37s-30.167 -24.167 -51.5 -36.5s-47.333 -26.166 -78 -41.499h176l-9 -63h-278v55l97 59.5c25.333 15.667 45.333 29.334 60 41.001s24.834 22.167 30.501 31.5s8.5 19.333 8.5 30
c0 14.667 -5 26.167 -15 34.5s-24 12.5 -42 12.5c-16 0 -31.667 -3.5 -47 -10.5s-30.333 -19.167 -45 -36.5l-53 40c40.667 46.667 90.334 70 149.001 70c43.333 0 76.5 -9.83301 99.5 -29.5s34.5 -45.167 34.5 -76.5z" />
    <glyph glyph-name="threesuperior" unicode="&#xb3;" 
d="M453 473c0 -30 -13.5 -54.333 -40.5 -73s-65.167 -28 -114.5 -28c-27.333 0 -54.333 4.33301 -81 13s-50.334 23.667 -71.001 45l48 40c15.333 -13.333 32 -23.166 50 -29.499s36.667 -9.5 56 -9.5c25.333 0 43.833 4.16699 55.5 12.5s17.5 20.166 17.5 35.499
c0 17.333 -5.66699 29.5 -17 36.5s-28.666 10.5 -51.999 10.5h-47l8 45h35c19.333 0 34.333 2.83301 45 8.5s16 15.167 16 28.5c0 26 -19.667 39 -59 39c-18 0 -35.333 -2.83301 -52 -8.5s-33.667 -15.167 -51 -28.5l-41 43c23.333 19.333 47.333 32.833 72 40.5
s50.667 11.5 78 11.5c41.333 0 73.5 -8 96.5 -24s34.5 -36.667 34.5 -62c0 -17.333 -5 -31.333 -15 -42s-26.333 -18 -49 -22v-3c24 -3.33301 43 -11 57 -23s21 -30.667 21 -56z" />
    <glyph glyph-name="acute" unicode="&#xb4;" 
d="M181 687l190 112l47 -77l-209 -84z" />
    <glyph glyph-name="mu" unicode="&#xb5;" 
d="M178 527l-0.00292969 -296c0 -26 0.833008 -49.167 2.5 -69.5s5.33398 -37.5 11.001 -51.5s14.167 -24.667 25.5 -32s26.666 -11 45.999 -11c30 0 56 7.66699 78 23s40.333 33.333 55 54v383h92v-357c0 -34.667 2.83301 -66.334 8.5 -95.001s11.5 -53.667 17.5 -75
l-86 -12c-5.33301 9.33301 -10.166 22.333 -14.499 39s-7.16602 31.667 -8.49902 45c-15.333 -25.333 -35.666 -45.666 -60.999 -60.999s-51 -23 -77 -23c-44.667 0 -77 14 -97 42l-4 -1c3.33301 -14 6 -28.333 8 -43s3 -28.667 3 -42v-146l-91 -11v740h92z" />
    <glyph glyph-name="paragraph" unicode="&#xb6;" 
d="M476 -213l-0.00195312 828h-109v-817l-83 -11v499c-40.667 0.666992 -76.167 6.16699 -106.5 16.5s-55.666 24.5 -75.999 42.5s-35.666 39 -45.999 63s-15.5 50 -15.5 78c0 28.667 5.33301 55.334 16 80.001s26.667 46.167 48 64.5s47.833 32.666 79.5 42.999
s68.5 15.5 110.5 15.5h265v-891z" />
    <glyph glyph-name="periodcentered" unicode="&#xb7;" 
d="M209 338c0 12.667 2.33203 24.499 6.99902 35.499s11 20.5 19 28.5s17.5 14.333 28.5 19s22.833 7 35.5 7c26 0 47.667 -8.66699 65 -26s26 -38.666 26 -63.999s-8.66699 -46.833 -26 -64.5s-39 -26.5 -65 -26.5c-25.333 0 -46.666 8.83301 -63.999 26.5
s-26 39.167 -26 64.5z" />
    <glyph glyph-name="cedilla" unicode="&#xb8;" 
d="M338 -141c0 17.333 -7.66797 28.6641 -23.001 33.9971s-36.666 8 -63.999 8l9 115h61v-72c33.333 -3.33301 57.333 -13.166 72 -29.499s22 -34.833 22 -55.5c0 -16.667 -3.33301 -31.167 -10 -43.5s-15.834 -22.666 -27.501 -30.999s-25 -14.666 -40 -18.999
s-30.833 -6.5 -47.5 -6.5c-20.667 0 -40.167 2.33301 -58.5 7s-34.166 10.667 -47.499 18l28 51c9.33301 -5.33301 20 -9.33301 32 -12s23.667 -4 35 -4c17.333 0 31.5 3 42.5 9s16.5 16.333 16.5 31z" />
    <glyph glyph-name="onesuperior" unicode="&#xb9;" 
d="M328 378v236l-94 -51l-37 52l145 84h61v-321h-75z" />
    <glyph glyph-name="ordmasculine" unicode="&#xba;" 
d="M415 529c0 52.667 -10.167 91.334 -30.5 116.001s-48.5 37 -84.5 37s-64.333 -12.333 -85 -37s-31 -63.334 -31 -116.001c0 -53.333 10.333 -92.333 31 -117s49 -37 85 -37s64.167 12.333 84.5 37s30.5 63.667 30.5 117zM94 529c0 32.667 4.83301 62.498 14.5 89.498
s23.5 50.167 41.5 69.5s39.667 34.5 65 45.5s53.666 16.5 84.999 16.5s59.666 -5.16699 84.999 -15.5s46.833 -25.166 64.5 -44.499s31.334 -42.666 41.001 -69.999s14.5 -57.666 14.5 -90.999c0 -32.667 -4.83301 -62.667 -14.5 -90s-23.334 -50.666 -41.001 -69.999
s-39.167 -34.5 -64.5 -45.5s-53.666 -16.5 -84.999 -16.5s-59.666 5.33301 -84.999 16s-47 25.667 -65 45s-31.833 42.666 -41.5 69.999s-14.5 57.666 -14.5 90.999zM103 -0.00195312v79h395v-79h-395z" />
    <glyph glyph-name="guillemotright" unicode="&#xbb;" 
d="M212 293l-133 207l55 35l175 -210v-65l-175 -209l-55 35zM422 293l-133 207l55 35l176 -210v-65l-176 -209l-55 35z" />
    <glyph glyph-name="onequarter" unicode="&#xbc;" 
d="M525 56v-56h-76v56h-179v50l134 225l65 -26l-113 -188h93l7 85h69v-85h54v-61h-54zM158 378v236l-94 -51l-37 52l145 84h61v-321h-75zM37 183l-32 56l535 256l31 -56z" />
    <glyph glyph-name="onehalf" unicode="&#xbd;" 
d="M153 378v236l-94 -51l-37 52l145 84h61v-321h-75zM32 183l-32 56l535 256l31 -56zM581 221c0 -16 -2.83496 -30.335 -8.50195 -43.002s-15 -25 -28 -37s-30.167 -24.167 -51.5 -36.5s-47.333 -26.166 -78 -41.499h176l-9 -63h-278v55l97 59.5
c25.333 15.667 45.333 29.334 60 41.001s24.834 22.167 30.501 31.5s8.5 19.333 8.5 30c0 14.667 -5 26.167 -15 34.5s-24 12.5 -42 12.5c-16 0 -31.667 -3.5 -47 -10.5s-30.333 -19.167 -45 -36.5l-53 40c40.667 46.667 90.334 70 149.001 70
c43.333 0 76.5 -9.83301 99.5 -29.5s34.5 -45.167 34.5 -76.5z" />
    <glyph glyph-name="threequarters" unicode="&#xbe;" 
d="M318 473c0 -30 -13.5 -54.333 -40.5 -73s-65.167 -28 -114.5 -28c-27.333 0 -54.333 4.33301 -81 13s-50.334 23.667 -71.001 45l48 40c15.333 -13.333 32 -23.166 50 -29.499s36.667 -9.5 56 -9.5c25.333 0 43.833 4.16699 55.5 12.5s17.5 20.166 17.5 35.499
c0 17.333 -5.66699 29.5 -17 36.5s-28.666 10.5 -51.999 10.5h-47l8 45h35c19.333 0 34.333 2.83301 45 8.5s16 15.167 16 28.5c0 26 -19.667 39 -59 39c-18 0 -35.333 -2.83301 -52 -8.5s-33.667 -15.167 -51 -28.5l-41 43c23.333 19.333 47.333 32.833 72 40.5
s50.667 11.5 78 11.5c41.333 0 73.5 -8 96.5 -24s34.5 -36.667 34.5 -62c0 -17.333 -5 -31.333 -15 -42s-26.333 -18 -49 -22v-3c24 -3.33301 43 -11 57 -23s21 -30.667 21 -56zM43 183l-32 56l535 256l31 -56zM532 56v-56h-76v56h-179v50l134 225l65 -26l-113 -188h93l7 85
h69v-85h54v-61h-54z" />
    <glyph glyph-name="questiondown" unicode="&#xbf;" 
d="M393 430c0 -19.333 -6.83301 -35.666 -20.5 -48.999s-30.167 -20 -49.5 -20s-35.666 6.66699 -48.999 20s-20 29.666 -20 48.999s6.66699 35.833 20 49.5s29.666 20.5 48.999 20.5s35.833 -6.83301 49.5 -20.5s20.5 -30.167 20.5 -49.5zM281 258l90.9971 -0.00195312v-38
c0 -27.333 -4.33301 -50.333 -13 -69s-19.5 -35 -32.5 -49s-27.167 -26.5 -42.5 -37.5s-29.5 -22 -42.5 -33s-23.833 -23 -32.5 -36s-13 -28.5 -13 -46.5c0 -28 10.833 -49.333 32.5 -64s48.834 -22 81.501 -22c23.333 0 47.333 5.66699 72 17s47.334 29.666 68.001 54.999
l64 -48c-29.333 -34 -61.666 -59.167 -96.999 -75.5s-74 -24.5 -116 -24.5c-31.333 0 -59.5 4.33301 -84.5 13s-46.167 20.334 -63.5 35.001s-30.5 31.334 -39.5 50.001s-13.5 38 -13.5 58c0 26.667 4.5 48.834 13.5 66.501s20.167 33 33.5 46s27.833 24.667 43.5 35
s30.167 21.5 43.5 33.5s24.5 25.833 33.5 41.5s13.5 35.5 13.5 59.5v33z" />
    <glyph glyph-name="Agrave" unicode="&#xc0;" 
d="M430 173h-265l-53 -173h-95l223 689h120l223 -689h-100zM188 250h219l-107 353h-4zM388 755l-209 82l48 77l188 -110z" />
    <glyph glyph-name="Aacute" unicode="&#xc1;" 
d="M430 173h-265l-53 -173h-95l223 689h120l223 -689h-100zM188 250h219l-107 353h-4zM182 806l189 109l47 -77l-208 -81z" />
    <glyph glyph-name="Acircumflex" unicode="&#xc2;" 
d="M430 173h-265l-53 -173h-95l223 689h120l223 -689h-100zM188 250h219l-107 353h-4zM174 759l-40 45l136 111h61l135 -111l-39 -45l-127 81z" />
    <glyph glyph-name="Atilde" unicode="&#xc3;" 
d="M430 173h-265l-53 -173h-95l223 689h120l223 -689h-100zM188 250h219l-107 353h-4zM352 773c-14.667 0 -27.168 2.5 -37.501 7.5s-19.5 10.5 -27.5 16.5l-22.5 16.5c-7 5 -14.5 7.5 -22.5 7.5c-11.333 0 -20.666 -3.83301 -27.999 -11.5s-15 -18.5 -23 -32.5l-57 25
c10 23.333 24 44 42 62s41.667 27 71 27c14.667 0 27.334 -2.5 38.001 -7.5s20 -10.5 28 -16.5l22 -17c6.66699 -4.66699 14 -7 22 -7c11.333 0 20.666 3.66699 27.999 11s15 18 23 32l57 -25c-10.667 -23.333 -25 -43.833 -43 -61.5s-41.333 -26.5 -70 -26.5z" />
    <glyph glyph-name="Adieresis" unicode="&#xc4;" 
d="M430 173h-265l-53 -173h-95l223 689h120l223 -689h-100zM188 250h219l-107 353h-4zM194 769c-16 0 -29.5 5.33301 -40.5 16s-16.5 24.334 -16.5 41.001c0 16 5.5 29.333 16.5 40s24.5 16 40.5 16c16.667 0 30.5 -5.33301 41.5 -16s16.5 -24 16.5 -40
c0 -16.667 -5.5 -30.334 -16.5 -41.001s-24.833 -16 -41.5 -16zM404 769c-16.667 0 -30.5 5.33301 -41.5 16s-16.5 24.334 -16.5 41.001c0 16 5.5 29.333 16.5 40s24.833 16 41.5 16c16 0 29.667 -5.33301 41 -16s17 -24 17 -40c0 -16.667 -5.66699 -30.334 -17 -41.001
s-25 -16 -41 -16z" />
    <glyph glyph-name="Aring" unicode="&#xc5;" 
d="M430 173h-265l-53 -173h-95l223 689h120l223 -689h-100zM188 250h219l-107 353h-4zM246 845c0 -17.333 4.83301 -31.166 14.5 -41.499s22.834 -15.5 39.501 -15.5c16 0 28.833 5.16699 38.5 15.5s14.5 24.166 14.5 41.499s-4.83301 31 -14.5 41s-22.5 15 -38.5 15
c-16.667 0 -29.834 -5 -39.501 -15s-14.5 -23.667 -14.5 -41zM414 845c0 -30 -10.5 -55.167 -31.5 -75.5s-48.5 -30.5 -82.5 -30.5s-61.5 10.167 -82.5 30.5s-31.5 45.5 -31.5 75.5c0 29.333 10.5 54.166 31.5 74.499s48.5 30.5 82.5 30.5s61.5 -10.167 82.5 -30.5
s31.5 -45.166 31.5 -74.499z" />
    <glyph glyph-name="AE" unicode="&#xc6;" 
d="M328 173h-197l-47 -173h-96l199 689h379l-11 -75h-230l49 -227h183v-75h-169l50 -237h169v-75h-244zM153 250h159l-69 355h-5z" />
    <glyph glyph-name="Ccedilla" unicode="&#xc7;" 
d="M383 -141c0 17.333 -7.66797 28.6641 -23.001 33.9971s-36.666 8 -63.999 8l7 91c-36.667 5.33301 -70.167 17 -100.5 35s-56.5 41.833 -78.5 71.5s-39 65.167 -51 106.5s-18 88 -18 140c0 58 8 109.167 24 153.5s37.5 81.5 64.5 111.5s58.5 52.667 94.5 68
s74.333 23 115 23c45.333 0 83.5 -6 114.5 -18s60.167 -28.667 87.5 -50l-52 -61c-21.333 17.333 -44 30.166 -68 38.499s-49.333 12.5 -76 12.5c-27.333 0 -53.333 -4.83301 -78 -14.5s-46.334 -25.334 -65.001 -47.001s-33.334 -50.167 -44.001 -85.5s-16 -79 -16 -131
c0 -50 5.16699 -92.5 15.5 -127.5s24.5 -63.5 42.5 -85.5s39.333 -38.167 64 -48.5s51.334 -15.5 80.001 -15.5c38 0 69.5 6 94.5 18s46.167 25.667 63.5 41l49 -62c-21.333 -19.333 -48.166 -36.666 -80.499 -51.999s-71.833 -23.666 -118.5 -24.999v-44
c33.333 -3.33301 57.333 -13.166 72 -29.499s22 -34.833 22 -55.5c0 -16.667 -3.33301 -31.167 -10 -43.5s-15.834 -22.666 -27.501 -30.999s-25 -14.666 -40 -18.999s-30.833 -6.5 -47.5 -6.5c-20.667 0 -40.167 2.33301 -58.5 7s-34.166 10.667 -47.499 18l28 51
c9.33301 -5.33301 20 -9.33301 32 -12s23.333 -4 34 -4c18 0 32.5 3 43.5 9s16.5 16.333 16.5 31z" />
    <glyph glyph-name="Egrave" unicode="&#xc8;" 
d="M207 613v-225h254v-76h-254v-237h311v-75h-406v689h398l-11 -76h-292zM401 755l-209 82l48 77l188 -110z" />
    <glyph glyph-name="Eacute" unicode="&#xc9;" 
d="M207 613v-225h254v-76h-254v-237h311v-75h-406v689h398l-11 -76h-292zM203 804l189 109l47 -77l-208 -81z" />
    <glyph glyph-name="Ecircumflex" unicode="&#xca;" 
d="M207 613v-225h254v-76h-254v-237h311v-75h-406v689h398l-11 -76h-292zM184 759l-40 45l136 111h61l135 -111l-39 -45l-127 81z" />
    <glyph glyph-name="Edieresis" unicode="&#xcb;" 
d="M207 613v-225h254v-76h-254v-237h311v-75h-406v689h398l-11 -76h-292zM204 769c-16 0 -29.5 5.33301 -40.5 16s-16.5 24.334 -16.5 41.001c0 16 5.5 29.333 16.5 40s24.5 16 40.5 16c16.667 0 30.5 -5.33301 41.5 -16s16.5 -24 16.5 -40
c0 -16.667 -5.5 -30.334 -16.5 -41.001s-24.833 -16 -41.5 -16zM414 769c-16.667 0 -30.5 5.33301 -41.5 16s-16.5 24.334 -16.5 41.001c0 16 5.5 29.333 16.5 40s24.833 16 41.5 16c16 0 29.667 -5.33301 41 -16s17 -24 17 -40c0 -16.667 -5.66699 -30.334 -17 -41.001
s-25 -16 -41 -16z" />
    <glyph glyph-name="Igrave" unicode="&#xcc;" 
d="M500 614h-152v-539h152v-75h-400v75h152v539h-152v75h400v-75zM391 755l-209 82l48 77l188 -110z" />
    <glyph glyph-name="Iacute" unicode="&#xcd;" 
d="M500 614h-152v-539h152v-75h-400v75h152v539h-152v75h400v-75zM182 804l189 109l47 -77l-208 -81z" />
    <glyph glyph-name="Icircumflex" unicode="&#xce;" 
d="M500 614h-152v-539h152v-75h-400v75h152v539h-152v75h400v-75zM174 759l-40 45l136 111h61l135 -111l-39 -45l-127 81z" />
    <glyph glyph-name="Idieresis" unicode="&#xcf;" 
d="M500 614h-152v-539h152v-75h-400v75h152v539h-152v75h400v-75zM195 769c-16 0 -29.5 5.33301 -40.5 16s-16.5 24.334 -16.5 41.001c0 16 5.5 29.333 16.5 40s24.5 16 40.5 16c16.667 0 30.5 -5.33301 41.5 -16s16.5 -24 16.5 -40c0 -16.667 -5.5 -30.334 -16.5 -41.001
s-24.833 -16 -41.5 -16zM405 769c-16.667 0 -30.5 5.33301 -41.5 16s-16.5 24.334 -16.5 41.001c0 16 5.5 29.333 16.5 40s24.833 16 41.5 16c16 0 29.667 -5.33301 41 -16s17 -24 17 -40c0 -16.667 -5.66699 -30.334 -17 -41.001s-25 -16 -41 -16z" />
    <glyph glyph-name="Eth" unicode="&#xd0;" 
d="M561 348c0 -72 -9.5 -130.667 -28.5 -176s-43.5 -80.666 -73.5 -105.999s-63.667 -42.666 -101 -51.999s-74.333 -14 -111 -14h-161v318h-72v70h72v301h150c40.667 0 80.5 -4.33301 119.5 -13s73.667 -25.334 104 -50.001s54.833 -59.334 73.5 -104.001
s28 -102.667 28 -174zM460 348c0 58.667 -6.16699 105.331 -18.5 139.998s-28.333 61.334 -48 80.001s-41.5 30.834 -65.5 36.501s-47.667 8.5 -71 8.5h-76v-225h172v-70h-172v-243h77c24.667 0 49 3.83301 73 11.5s45.5 21.5 64.5 41.5s34.5 47.667 46.5 83s18 81 18 137z
" />
    <glyph glyph-name="Ntilde" unicode="&#xd1;" 
d="M390 0l-231.998 583.003h-4c0.666992 -4 1.66699 -14 3 -30s2.66602 -35.667 3.99902 -59s2.66602 -48.833 3.99902 -76.5s2 -54.834 2 -81.501v-336h-87v689h127l235 -586h4c-0.666992 4 -1.66699 13.5 -3 28.5s-2.83301 33.667 -4.5 56s-3 47.666 -4 75.999
s-1.5 58.166 -1.5 89.499v336h87v-689h-130zM352.002 773.003c-14.667 0 -27.168 2.5 -37.501 7.5s-19.5 10.5 -27.5 16.5l-22.5 16.5c-7 5 -14.5 7.5 -22.5 7.5c-11.333 0 -20.666 -3.83301 -27.999 -11.5s-15 -18.5 -23 -32.5l-57 25c10 23.333 24 44 42 62
s41.667 27 71 27c14.667 0 27.334 -2.5 38.001 -7.5s20 -10.5 28 -16.5l22 -17c6.66699 -4.66699 14 -7 22 -7c11.333 0 20.666 3.66699 27.999 11s15 18 23 32l57 -25c-10.667 -23.333 -25 -43.833 -43 -61.5s-41.333 -26.5 -70 -26.5z" />
    <glyph glyph-name="Ograve" unicode="&#xd2;" 
d="M556 344c0 -52.667 -5.33301 -100.837 -16 -144.504s-26.834 -81.167 -48.501 -112.5s-48.5 -55.666 -80.5 -72.999s-69 -26 -111 -26s-79 8.5 -111 25.5s-58.833 41 -80.5 72s-37.834 68.333 -48.501 112s-16 92.167 -16 145.5c0 52.667 5.33301 100.834 16 144.501
s26.834 81.334 48.501 113.001s48.5 56.334 80.5 74.001s69 26.5 111 26.5s79 -8.5 111 -25.5s58.833 -41.167 80.5 -72.5s37.834 -69 48.501 -113s16 -92.667 16 -146zM457 343.997c0 90.667 -12.167 159.833 -36.5 207.5s-64.5 71.5 -120.5 71.5s-96.167 -24 -120.5 -72
s-36.5 -117.333 -36.5 -208c0 -91.333 12.5 -160.333 37.5 -207s64.833 -70 119.5 -70c56 0 96.167 23.5 120.5 70.5s36.5 116.167 36.5 207.5zM389 754.996l-209 82l48 77l188 -110z" />
    <glyph glyph-name="Oacute" unicode="&#xd3;" 
d="M556 344c0 -52.667 -5.33301 -100.837 -16 -144.504s-26.834 -81.167 -48.501 -112.5s-48.5 -55.666 -80.5 -72.999s-69 -26 -111 -26s-79 8.5 -111 25.5s-58.833 41 -80.5 72s-37.834 68.333 -48.501 112s-16 92.167 -16 145.5c0 52.667 5.33301 100.834 16 144.501
s26.834 81.334 48.501 113.001s48.5 56.334 80.5 74.001s69 26.5 111 26.5s79 -8.5 111 -25.5s58.833 -41.167 80.5 -72.5s37.834 -69 48.501 -113s16 -92.667 16 -146zM457 343.997c0 90.667 -12.167 159.833 -36.5 207.5s-64.5 71.5 -120.5 71.5s-96.167 -24 -120.5 -72
s-36.5 -117.333 -36.5 -208c0 -91.333 12.5 -160.333 37.5 -207s64.833 -70 119.5 -70c56 0 96.167 23.5 120.5 70.5s36.5 116.167 36.5 207.5zM184 803.996l189 109l47 -77l-208 -81z" />
    <glyph glyph-name="Ocircumflex" unicode="&#xd4;" 
d="M556 344c0 -52.667 -5.33301 -100.837 -16 -144.504s-26.834 -81.167 -48.501 -112.5s-48.5 -55.666 -80.5 -72.999s-69 -26 -111 -26s-79 8.5 -111 25.5s-58.833 41 -80.5 72s-37.834 68.333 -48.501 112s-16 92.167 -16 145.5c0 52.667 5.33301 100.834 16 144.501
s26.834 81.334 48.501 113.001s48.5 56.334 80.5 74.001s69 26.5 111 26.5s79 -8.5 111 -25.5s58.833 -41.167 80.5 -72.5s37.834 -69 48.501 -113s16 -92.667 16 -146zM457 343.997c0 90.667 -12.167 159.833 -36.5 207.5s-64.5 71.5 -120.5 71.5s-96.167 -24 -120.5 -72
s-36.5 -117.333 -36.5 -208c0 -91.333 12.5 -160.333 37.5 -207s64.833 -70 119.5 -70c56 0 96.167 23.5 120.5 70.5s36.5 116.167 36.5 207.5zM174 758.996l-40 45l136 111h61l135 -111l-39 -45l-127 81z" />
    <glyph glyph-name="Otilde" unicode="&#xd5;" 
d="M556 344c0 -52.667 -5.33301 -100.837 -16 -144.504s-26.834 -81.167 -48.501 -112.5s-48.5 -55.666 -80.5 -72.999s-69 -26 -111 -26s-79 8.5 -111 25.5s-58.833 41 -80.5 72s-37.834 68.333 -48.501 112s-16 92.167 -16 145.5c0 52.667 5.33301 100.834 16 144.501
s26.834 81.334 48.501 113.001s48.5 56.334 80.5 74.001s69 26.5 111 26.5s79 -8.5 111 -25.5s58.833 -41.167 80.5 -72.5s37.834 -69 48.501 -113s16 -92.667 16 -146zM457 343.997c0 90.667 -12.167 159.833 -36.5 207.5s-64.5 71.5 -120.5 71.5s-96.167 -24 -120.5 -72
s-36.5 -117.333 -36.5 -208c0 -91.333 12.5 -160.333 37.5 -207s64.833 -70 119.5 -70c56 0 96.167 23.5 120.5 70.5s36.5 116.167 36.5 207.5zM353 772.996c-14.667 0 -27.168 2.5 -37.501 7.5s-19.5 10.5 -27.5 16.5l-22.5 16.5c-7 5 -14.5 7.5 -22.5 7.5
c-11.333 0 -20.666 -3.83301 -27.999 -11.5s-15 -18.5 -23 -32.5l-57 25c10 23.333 24 44 42 62s41.667 27 71 27c14.667 0 27.334 -2.5 38.001 -7.5s20 -10.5 28 -16.5l22 -17c6.66699 -4.66699 14 -7 22 -7c11.333 0 20.666 3.66699 27.999 11s15 18 23 32l57 -25
c-10.667 -23.333 -25 -43.833 -43 -61.5s-41.333 -26.5 -70 -26.5z" />
    <glyph glyph-name="Odieresis" unicode="&#xd6;" 
d="M556 344c0 -52.667 -5.33301 -100.837 -16 -144.504s-26.834 -81.167 -48.501 -112.5s-48.5 -55.666 -80.5 -72.999s-69 -26 -111 -26s-79 8.5 -111 25.5s-58.833 41 -80.5 72s-37.834 68.333 -48.501 112s-16 92.167 -16 145.5c0 52.667 5.33301 100.834 16 144.501
s26.834 81.334 48.501 113.001s48.5 56.334 80.5 74.001s69 26.5 111 26.5s79 -8.5 111 -25.5s58.833 -41.167 80.5 -72.5s37.834 -69 48.501 -113s16 -92.667 16 -146zM457 343.997c0 90.667 -12.167 159.833 -36.5 207.5s-64.5 71.5 -120.5 71.5s-96.167 -24 -120.5 -72
s-36.5 -117.333 -36.5 -208c0 -91.333 12.5 -160.333 37.5 -207s64.833 -70 119.5 -70c56 0 96.167 23.5 120.5 70.5s36.5 116.167 36.5 207.5zM195 768.996c-16 0 -29.5 5.33301 -40.5 16s-16.5 24.334 -16.5 41.001c0 16 5.5 29.333 16.5 40s24.5 16 40.5 16
c16.667 0 30.5 -5.33301 41.5 -16s16.5 -24 16.5 -40c0 -16.667 -5.5 -30.334 -16.5 -41.001s-24.833 -16 -41.5 -16zM405 768.996c-16.667 0 -30.5 5.33301 -41.5 16s-16.5 24.334 -16.5 41.001c0 16 5.5 29.333 16.5 40s24.833 16 41.5 16c16 0 29.667 -5.33301 41 -16
s17 -24 17 -40c0 -16.667 -5.66699 -30.334 -17 -41.001s-25 -16 -41 -16z" />
    <glyph glyph-name="multiply" unicode="&#xd7;" 
d="M244 297l-118 118l56 57l118 -119l118 119l56 -57l-118 -118l118 -118l-56 -56l-118 118l-118 -118l-56 56z" />
    <glyph glyph-name="Oslash" unicode="&#xd8;" 
d="M164 28c-40 28 -70.002 68.9961 -90.002 122.996s-30 118 -30 192c0 52.667 5.33301 100.834 16 144.501s26.834 81.334 48.501 113.001s48.5 56.334 80.5 74.001s69 26.5 111 26.5c20.667 0 41.667 -2.66699 63 -8l37 126l79 -21l-43 -138
c40 -28.667 70 -70.167 90 -124.5s30 -118.166 30 -191.499c0 -52.667 -5.33301 -100.834 -16 -144.501s-26.834 -81.167 -48.501 -112.5s-48.5 -55.666 -80.5 -72.999s-69 -26 -111 -26c-11.333 0 -22.166 0.666992 -32.499 2s-20.166 3 -29.499 5l-38 -126l-79 21z
M456.998 343.996c0 60.667 -3.99805 110.833 -11.998 150.5s-22.333 70.167 -43 91.5l-149 -515c7.33301 -1.33301 14.666 -2.5 21.999 -3.5s15.666 -1.5 24.999 -1.5c56 0 96.167 23.5 120.5 70.5s36.5 116.167 36.5 207.5zM143 342.995
c0 -60.667 4.16699 -110.5 12.5 -149.5s22.5 -69.167 42.5 -90.5l149 514c-14 4 -29.667 6 -47 6c-56 0 -96.167 -24 -120.5 -72s-36.5 -117.333 -36.5 -208z" />
    <glyph glyph-name="Ugrave" unicode="&#xd9;" 
d="M531 224c0 -35.333 -5.33203 -67.333 -15.999 -96s-26 -53.5 -46 -74.5s-44.333 -37.167 -73 -48.5s-61 -17 -97 -17s-68.333 5.66699 -97 17s-52.834 27.5 -72.501 48.5s-34.667 45.833 -45 74.5s-15.5 60.667 -15.5 96v465h95v-461c0 -54 11.5 -94.167 34.5 -120.5
s56.5 -39.5 100.5 -39.5c90.667 0 136 53.333 136 160v461h96v-465zM381.001 755l-209 82l48 77l188 -110z" />
    <glyph glyph-name="Uacute" unicode="&#xda;" 
d="M531 224c0 -35.333 -5.33203 -67.333 -15.999 -96s-26 -53.5 -46 -74.5s-44.333 -37.167 -73 -48.5s-61 -17 -97 -17s-68.333 5.66699 -97 17s-52.834 27.5 -72.501 48.5s-34.667 45.833 -45 74.5s-15.5 60.667 -15.5 96v465h95v-461c0 -54 11.5 -94.167 34.5 -120.5
s56.5 -39.5 100.5 -39.5c90.667 0 136 53.333 136 160v461h96v-465zM191.001 804l189 109l47 -77l-208 -81z" />
    <glyph glyph-name="Ucircumflex" unicode="&#xdb;" 
d="M531 224c0 -35.333 -5.33203 -67.333 -15.999 -96s-26 -53.5 -46 -74.5s-44.333 -37.167 -73 -48.5s-61 -17 -97 -17s-68.333 5.66699 -97 17s-52.834 27.5 -72.501 48.5s-34.667 45.833 -45 74.5s-15.5 60.667 -15.5 96v465h95v-461c0 -54 11.5 -94.167 34.5 -120.5
s56.5 -39.5 100.5 -39.5c90.667 0 136 53.333 136 160v461h96v-465zM174.001 759l-40 45l136 111h61l135 -111l-39 -45l-127 81z" />
    <glyph glyph-name="Udieresis" unicode="&#xdc;" 
d="M531 224c0 -35.333 -5.33203 -67.333 -15.999 -96s-26 -53.5 -46 -74.5s-44.333 -37.167 -73 -48.5s-61 -17 -97 -17s-68.333 5.66699 -97 17s-52.834 27.5 -72.501 48.5s-34.667 45.833 -45 74.5s-15.5 60.667 -15.5 96v465h95v-461c0 -54 11.5 -94.167 34.5 -120.5
s56.5 -39.5 100.5 -39.5c90.667 0 136 53.333 136 160v461h96v-465zM194.001 769c-16 0 -29.5 5.33301 -40.5 16s-16.5 24.334 -16.5 41.001c0 16 5.5 29.333 16.5 40s24.5 16 40.5 16c16.667 0 30.5 -5.33301 41.5 -16s16.5 -24 16.5 -40
c0 -16.667 -5.5 -30.334 -16.5 -41.001s-24.833 -16 -41.5 -16zM404.001 769c-16.667 0 -30.5 5.33301 -41.5 16s-16.5 24.334 -16.5 41.001c0 16 5.5 29.333 16.5 40s24.833 16 41.5 16c16 0 29.667 -5.33301 41 -16s17 -24 17 -40c0 -16.667 -5.66699 -30.334 -17 -41.001
s-25 -16 -41 -16z" />
    <glyph glyph-name="Yacute" unicode="&#xdd;" 
d="M348 265v-265h-96v264l-232 425h105l176 -337h3l177 337h99zM192 804l189 109l47 -77l-208 -81z" />
    <glyph glyph-name="Thorn" unicode="&#xde;" 
d="M458 353c0 52 -14.334 89.333 -43.001 112s-66.667 34 -114 34h-104v-297h105c22.667 0 43.667 2.33301 63 7s35.833 12.834 49.5 24.501s24.334 27.167 32.001 46.5s11.5 43.666 11.5 72.999zM557.999 355c0 -40 -6.5 -74.5 -19.5 -103.5s-31.167 -52.667 -54.5 -71
s-51.333 -31.833 -84 -40.5s-68.334 -13 -107.001 -13h-96v-127h-95v689h95v-116h94c84.667 0 150.334 -17.667 197.001 -53s70 -90.333 70 -165z" />
    <glyph glyph-name="germandbls" unicode="&#xdf;" 
d="M92 533c0 71.333 17.832 125.331 53.499 161.998s85.834 55 150.501 55c26.667 0 50.834 -3.5 72.501 -10.5s40.167 -17 55.5 -30s27.333 -28.333 36 -46s13 -37.167 13 -58.5c0 -24 -5.83301 -43.833 -17.5 -59.5s-24.334 -29.5 -38.001 -41.5
s-26.334 -23.667 -38.001 -35s-17.5 -24.666 -17.5 -39.999c0 -14.667 4.83301 -27.334 14.5 -38.001s21.834 -21 36.501 -31s30.667 -20.333 48 -31s33.333 -23.334 48 -38.001s26.834 -32 36.501 -52s14.5 -44 14.5 -72c0 -29.333 -5 -55 -15 -77s-23.5 -40.667 -40.5 -56
s-37 -26.833 -60 -34.5s-47.167 -11.5 -72.5 -11.5c-26.667 0 -50.5 2.83301 -71.5 8.5s-40.167 14.167 -57.5 25.5l36 63c12 -7.33301 25.5 -13 40.5 -17s29.5 -6 43.5 -6c32 0 57.167 8.33301 75.5 25s27.5 42 27.5 76c0 20.667 -4.83301 38.334 -14.5 53.001
s-21.5 27.834 -35.5 39.501s-29.5 22.5 -46.5 32.5s-32.5 21 -46.5 33s-25.833 25.5 -35.5 40.5s-14.5 33.5 -14.5 55.5c0 24 5.83301 43.333 17.5 58s24.5 28 38.5 40s26.833 24 38.5 36s17.5 27.333 17.5 46c0 8.66699 -1.5 17.834 -4.5 27.501s-8 18.5 -15 26.5
s-16.333 14.5 -28 19.5s-25.834 7.5 -42.501 7.5c-36 0 -63.5 -10.667 -82.5 -32s-28.5 -57 -28.5 -107v-539h-92v533z" />
    <glyph glyph-name="agrave" unicode="&#xe0;" 
d="M482 119c0 -21.333 3.33301 -36.665 10 -45.998s17.334 -16.333 32.001 -21l-22 -64c-23.333 3.33301 -43.833 10.666 -61.5 21.999s-30.5 28.666 -38.5 51.999c-18.667 -25.333 -43 -44 -73 -56s-61 -18 -93 -18c-53.333 0 -95.666 14.833 -126.999 44.5
s-47 69.167 -47 118.5c0 54.667 21.667 96.667 65 126s105.333 44 186 44h77v41c0 37.333 -10.833 63.666 -32.5 78.999s-51.834 23 -90.501 23c-17.333 0 -37.833 -2.16699 -61.5 -6.5s-49.167 -11.166 -76.5 -20.499l-24 68c32.667 12 63.667 20.667 93 26s57 8 83 8
c67.333 0 117.666 -15.167 150.999 -45.5s50 -72.5 50 -126.5v-248zM261 57.001c25.333 0 49.333 6.33301 72 19s41.667 30.667 57 54v130h-72c-56.667 0 -96.667 -9.5 -120 -28.5s-35 -44.5 -35 -76.5c0 -65.333 32.667 -98 98 -98zM385 622.001l-206 93l47 77l188 -120z
" />
    <glyph glyph-name="aacute" unicode="&#xe1;" 
d="M482 119c0 -21.333 3.33301 -36.665 10 -45.998s17.334 -16.333 32.001 -21l-22 -64c-23.333 3.33301 -43.833 10.666 -61.5 21.999s-30.5 28.666 -38.5 51.999c-18.667 -25.333 -43 -44 -73 -56s-61 -18 -93 -18c-53.333 0 -95.666 14.833 -126.999 44.5
s-47 69.167 -47 118.5c0 54.667 21.667 96.667 65 126s105.333 44 186 44h77v41c0 37.333 -10.833 63.666 -32.5 78.999s-51.834 23 -90.501 23c-17.333 0 -37.833 -2.16699 -61.5 -6.5s-49.167 -11.166 -76.5 -20.499l-24 68c32.667 12 63.667 20.667 93 26s57 8 83 8
c67.333 0 117.666 -15.167 150.999 -45.5s50 -72.5 50 -126.5v-248zM261 57.001c25.333 0 49.333 6.33301 72 19s41.667 30.667 57 54v130h-72c-56.667 0 -96.667 -9.5 -120 -28.5s-35 -44.5 -35 -76.5c0 -65.333 32.667 -98 98 -98zM179 672.001l188 119l47 -77l-205 -92z
" />
    <glyph glyph-name="acircumflex" unicode="&#xe2;" 
d="M482 119c0 -21.333 3.33301 -36.665 10 -45.998s17.334 -16.333 32.001 -21l-22 -64c-23.333 3.33301 -43.833 10.666 -61.5 21.999s-30.5 28.666 -38.5 51.999c-18.667 -25.333 -43 -44 -73 -56s-61 -18 -93 -18c-53.333 0 -95.666 14.833 -126.999 44.5
s-47 69.167 -47 118.5c0 54.667 21.667 96.667 65 126s105.333 44 186 44h77v41c0 37.333 -10.833 63.666 -32.5 78.999s-51.834 23 -90.501 23c-17.333 0 -37.833 -2.16699 -61.5 -6.5s-49.167 -11.166 -76.5 -20.499l-24 68c32.667 12 63.667 20.667 93 26s57 8 83 8
c67.333 0 117.666 -15.167 150.999 -45.5s50 -72.5 50 -126.5v-248zM261 57.001c25.333 0 49.333 6.33301 72 19s41.667 30.667 57 54v130h-72c-56.667 0 -96.667 -9.5 -120 -28.5s-35 -44.5 -35 -76.5c0 -65.333 32.667 -98 98 -98zM169 627.001l-42 44l136 121h61
l135 -121l-40 -44l-125 91z" />
    <glyph glyph-name="atilde" unicode="&#xe3;" 
d="M482 119c0 -21.333 3.33301 -36.665 10 -45.998s17.334 -16.333 32.001 -21l-22 -64c-23.333 3.33301 -43.833 10.666 -61.5 21.999s-30.5 28.666 -38.5 51.999c-18.667 -25.333 -43 -44 -73 -56s-61 -18 -93 -18c-53.333 0 -95.666 14.833 -126.999 44.5
s-47 69.167 -47 118.5c0 54.667 21.667 96.667 65 126s105.333 44 186 44h77v41c0 37.333 -10.833 63.666 -32.5 78.999s-51.834 23 -90.501 23c-17.333 0 -37.833 -2.16699 -61.5 -6.5s-49.167 -11.166 -76.5 -20.499l-24 68c32.667 12 63.667 20.667 93 26s57 8 83 8
c67.333 0 117.666 -15.167 150.999 -45.5s50 -72.5 50 -126.5v-248zM261 57.001c25.333 0 49.333 6.33301 72 19s41.667 30.667 57 54v130h-72c-56.667 0 -96.667 -9.5 -120 -28.5s-35 -44.5 -35 -76.5c0 -65.333 32.667 -98 98 -98zM347 650.001
c-14.667 0 -27.168 2.5 -37.501 7.5s-19.5 10.5 -27.5 16.5l-22.5 16.5c-7 5 -14.5 7.5 -22.5 7.5c-11.333 0 -20.666 -3.83301 -27.999 -11.5s-15 -18.5 -23 -32.5l-57 26c10 23.333 24.167 43.833 42.5 61.5s41.833 26.5 70.5 26.5c14.667 0 27.334 -2.5 38.001 -7.5
s20 -10.5 28 -16.5l22 -17c6.66699 -4.66699 14 -7 22 -7c11.333 0 20.666 3.83301 27.999 11.5s15 18.5 23 32.5l57 -25c-10 -23.333 -24.167 -44 -42.5 -62s-41.833 -27 -70.5 -27z" />
    <glyph glyph-name="adieresis" unicode="&#xe4;" 
d="M482 119c0 -21.333 3.33301 -36.665 10 -45.998s17.334 -16.333 32.001 -21l-22 -64c-23.333 3.33301 -43.833 10.666 -61.5 21.999s-30.5 28.666 -38.5 51.999c-18.667 -25.333 -43 -44 -73 -56s-61 -18 -93 -18c-53.333 0 -95.666 14.833 -126.999 44.5
s-47 69.167 -47 118.5c0 54.667 21.667 96.667 65 126s105.333 44 186 44h77v41c0 37.333 -10.833 63.666 -32.5 78.999s-51.834 23 -90.501 23c-17.333 0 -37.833 -2.16699 -61.5 -6.5s-49.167 -11.166 -76.5 -20.499l-24 68c32.667 12 63.667 20.667 93 26s57 8 83 8
c67.333 0 117.666 -15.167 150.999 -45.5s50 -72.5 50 -126.5v-248zM261 57.001c25.333 0 49.333 6.33301 72 19s41.667 30.667 57 54v130h-72c-56.667 0 -96.667 -9.5 -120 -28.5s-35 -44.5 -35 -76.5c0 -65.333 32.667 -98 98 -98zM193 647.001
c-16.667 0 -30.5 5.33301 -41.5 16s-16.5 24 -16.5 40c0 16.667 5.5 30.334 16.5 41.001s24.833 16 41.5 16c16 0 29.5 -5.33301 40.5 -16s16.5 -24.334 16.5 -41.001c0 -16 -5.5 -29.333 -16.5 -40s-24.5 -16 -40.5 -16zM402 647.001c-16 0 -29.5 5.33301 -40.5 16
s-16.5 24 -16.5 40c0 16.667 5.5 30.334 16.5 41.001s24.5 16 40.5 16c16.667 0 30.5 -5.33301 41.5 -16s16.5 -24.334 16.5 -41.001c0 -16 -5.5 -29.333 -16.5 -40s-24.833 -16 -41.5 -16z" />
    <glyph glyph-name="aring" unicode="&#xe5;" 
d="M482 119c0 -21.333 3.33301 -36.665 10 -45.998s17.334 -16.333 32.001 -21l-22 -64c-23.333 3.33301 -43.833 10.666 -61.5 21.999s-30.5 28.666 -38.5 51.999c-18.667 -25.333 -43 -44 -73 -56s-61 -18 -93 -18c-53.333 0 -95.666 14.833 -126.999 44.5
s-47 69.167 -47 118.5c0 54.667 21.667 96.667 65 126s105.333 44 186 44h77v41c0 37.333 -10.833 63.666 -32.5 78.999s-51.834 23 -90.501 23c-17.333 0 -37.833 -2.16699 -61.5 -6.5s-49.167 -11.166 -76.5 -20.499l-24 68c32.667 12 63.667 20.667 93 26s57 8 83 8
c67.333 0 117.666 -15.167 150.999 -45.5s50 -72.5 50 -126.5v-248zM261 57.001c25.333 0 49.333 6.33301 72 19s41.667 30.667 57 54v130h-72c-56.667 0 -96.667 -9.5 -120 -28.5s-35 -44.5 -35 -76.5c0 -65.333 32.667 -98 98 -98zM244 722.001
c0 -17.333 4.83301 -31 14.5 -41s22.5 -15 38.5 -15c16.667 0 29.667 5 39 15s14 23.667 14 41s-4.66699 31 -14 41s-22.333 15 -39 15c-16 0 -28.833 -5 -38.5 -15s-14.5 -23.667 -14.5 -41zM411 722.001c0 -29.333 -10.5 -54.166 -31.5 -74.499s-48.5 -30.5 -82.5 -30.5
s-61.5 10.167 -82.5 30.5s-31.5 45.166 -31.5 74.499c0 30 10.5 55.167 31.5 75.5s48.5 30.5 82.5 30.5s61.5 -10.167 82.5 -30.5s31.5 -45.5 31.5 -75.5z" />
    <glyph glyph-name="ae" unicode="&#xe6;" 
d="M338 232c4.66699 -58.667 15.666 -101.671 32.999 -129.004s43.333 -41 78 -41c19.333 0 36.333 3.33301 51 10s30.334 16.334 47.001 29.001l41 -60c-20 -16 -41.167 -28.833 -63.5 -38.5s-48.166 -14.5 -77.499 -14.5c-36 0 -65.833 7.66699 -89.5 23
s-43.834 37.333 -60.501 66c-11.333 -15.333 -22.333 -28.666 -33 -39.999s-22 -20.666 -34 -27.999s-24.833 -12.666 -38.5 -15.999s-28.834 -5 -45.501 -5c-46.667 0 -83.667 14.833 -111 44.5s-41 69.167 -41 118.5c0 55.333 17.833 97.5 53.5 126.5
s88.834 43.5 159.501 43.5h45v41c0 36.667 -7.83301 63.167 -23.5 79.5s-38.167 24.5 -67.5 24.5c-17.333 0 -33.5 -2.16699 -48.5 -6.5s-33.167 -11.166 -54.5 -20.499l-24 66c22.667 10.667 45.5 19 68.5 25s45.5 9 67.5 9c40 0 70.333 -7.83301 91 -23.5
s36.334 -36.5 47.001 -62.5c9.33301 26.667 24.666 47.667 45.999 63s48 23 80 23c30 0 55.833 -6 77.5 -18s39.5 -29.167 53.5 -51.5s24.333 -49.5 31 -81.5s10 -68.333 10 -109c0 -9.33301 -0.166992 -17.833 -0.5 -25.5s-0.833008 -14.834 -1.5 -21.501h-266z
M159.999 56.9961c21.333 0 39.834 7.83301 55.501 23.5s32.167 38.834 49.5 69.501c-4.66699 16 -8 33.333 -10 52s-3 38 -3 58h-40c-46.667 0 -78.834 -9.5 -96.501 -28.5s-26.5 -44.167 -26.5 -75.5c0 -32.667 6.5 -57.334 19.5 -74.001s30.167 -25 51.5 -25zM431 465.996
c-14.667 0 -27.334 -2.83301 -38.001 -8.5s-19.834 -15 -27.501 -28s-13.667 -30.167 -18 -51.5s-7.5 -47.333 -9.5 -78h182c-1.33301 54.667 -8.16602 96 -20.499 124s-35.166 42 -68.499 42z" />
    <glyph glyph-name="ccedilla" unicode="&#xe7;" 
d="M366 -141c0 17.333 -7.66797 28.667 -23.001 34s-36.666 8 -63.999 8l7 91c-64.667 10 -114.334 38.833 -149.001 86.5s-52 108.5 -52 182.5c0 40 5.66699 76.833 17 110.5s27.666 63 48.999 88s47.5 44.5 78.5 58.5s66.5 21 106.5 21c34 0 66.167 -4.66699 96.5 -14
s57.833 -24.333 82.5 -45l-45 -62c-21.333 16 -43.166 27.5 -65.499 34.5s-45.166 10.5 -68.499 10.5c-44.667 0 -81.167 -16.5 -109.5 -49.5s-42.5 -83.833 -42.5 -152.5c0 -34.667 3.83301 -64.334 11.5 -89.001s18.167 -44.834 31.5 -60.501s29.333 -27.167 48 -34.5
s39 -11 61 -11s44.667 3.5 68 10.5s45.666 18.5 66.999 34.5l44 -63c-23.333 -18.667 -49.666 -32.834 -78.999 -42.501s-58.333 -15.167 -87 -16.5v-45c33.333 -3.33301 57.333 -13.166 72 -29.499s22 -34.833 22 -55.5c0 -16.667 -3.33301 -31.167 -10 -43.5
s-15.834 -22.666 -27.501 -30.999s-25 -14.666 -40 -18.999s-30.833 -6.5 -47.5 -6.5c-20.667 0 -40.167 2.33301 -58.5 7s-34.166 10.667 -47.499 18l28 51c9.33301 -5.33301 20 -9.33301 32 -12s23.667 -4 35 -4c17.333 0 31.5 3 42.5 9s16.5 16.333 16.5 31z" />
    <glyph glyph-name="egrave" unicode="&#xe8;" 
d="M171 232c4 -58.667 20.167 -101.501 48.5 -128.501s62.5 -40.5 102.5 -40.5c24 0 47.667 3.5 71 10.5s46.333 19.833 69 38.5l42 -61c-24.667 -19.333 -53 -34.666 -85 -45.999s-65 -17 -99 -17c-39.333 0 -74.166 6.66699 -104.499 20s-56 32 -77 56
s-36.833 52.833 -47.5 86.5s-16 71.167 -16 112.5c0 40 5.33301 76.833 16 110.5s26 62.667 46 87s44.167 43.5 72.5 57.5s60.166 21 95.499 21c69.333 0 123.5 -23.167 162.5 -69.5s58.5 -109.833 58.5 -190.5c0 -9.33301 -0.166992 -18 -0.5 -26s-0.833008 -15 -1.5 -21
h-353zM305 465.999c-36 0 -66.5 -13.5 -91.5 -40.5s-39.167 -68.833 -42.5 -125.5h266c-1.33301 54.667 -13.333 96 -36 124s-54.667 42 -96 42zM394 621.999l-206 93l47 77l188 -120z" />
    <glyph glyph-name="eacute" unicode="&#xe9;" 
d="M171 232c4 -58.667 20.167 -101.501 48.5 -128.501s62.5 -40.5 102.5 -40.5c24 0 47.667 3.5 71 10.5s46.333 19.833 69 38.5l42 -61c-24.667 -19.333 -53 -34.666 -85 -45.999s-65 -17 -99 -17c-39.333 0 -74.166 6.66699 -104.499 20s-56 32 -77 56
s-36.833 52.833 -47.5 86.5s-16 71.167 -16 112.5c0 40 5.33301 76.833 16 110.5s26 62.667 46 87s44.167 43.5 72.5 57.5s60.166 21 95.499 21c69.333 0 123.5 -23.167 162.5 -69.5s58.5 -109.833 58.5 -190.5c0 -9.33301 -0.166992 -18 -0.5 -26s-0.833008 -15 -1.5 -21
h-353zM305 465.999c-36 0 -66.5 -13.5 -91.5 -40.5s-39.167 -68.833 -42.5 -125.5h266c-1.33301 54.667 -13.333 96 -36 124s-54.667 42 -96 42zM188 671.999l188 119l47 -77l-205 -92z" />
    <glyph glyph-name="ecircumflex" unicode="&#xea;" 
d="M171 232c4 -58.667 20.167 -101.501 48.5 -128.501s62.5 -40.5 102.5 -40.5c24 0 47.667 3.5 71 10.5s46.333 19.833 69 38.5l42 -61c-24.667 -19.333 -53 -34.666 -85 -45.999s-65 -17 -99 -17c-39.333 0 -74.166 6.66699 -104.499 20s-56 32 -77 56
s-36.833 52.833 -47.5 86.5s-16 71.167 -16 112.5c0 40 5.33301 76.833 16 110.5s26 62.667 46 87s44.167 43.5 72.5 57.5s60.166 21 95.499 21c69.333 0 123.5 -23.167 162.5 -69.5s58.5 -109.833 58.5 -190.5c0 -9.33301 -0.166992 -18 -0.5 -26s-0.833008 -15 -1.5 -21
h-353zM305 465.999c-36 0 -66.5 -13.5 -91.5 -40.5s-39.167 -68.833 -42.5 -125.5h266c-1.33301 54.667 -13.333 96 -36 124s-54.667 42 -96 42zM182 626.999l-42 44l136 121h61l135 -121l-40 -44l-125 91z" />
    <glyph glyph-name="edieresis" unicode="&#xeb;" 
d="M171 232c4 -58.667 20.167 -101.501 48.5 -128.501s62.5 -40.5 102.5 -40.5c24 0 47.667 3.5 71 10.5s46.333 19.833 69 38.5l42 -61c-24.667 -19.333 -53 -34.666 -85 -45.999s-65 -17 -99 -17c-39.333 0 -74.166 6.66699 -104.499 20s-56 32 -77 56
s-36.833 52.833 -47.5 86.5s-16 71.167 -16 112.5c0 40 5.33301 76.833 16 110.5s26 62.667 46 87s44.167 43.5 72.5 57.5s60.166 21 95.499 21c69.333 0 123.5 -23.167 162.5 -69.5s58.5 -109.833 58.5 -190.5c0 -9.33301 -0.166992 -18 -0.5 -26s-0.833008 -15 -1.5 -21
h-353zM305 465.999c-36 0 -66.5 -13.5 -91.5 -40.5s-39.167 -68.833 -42.5 -125.5h266c-1.33301 54.667 -13.333 96 -36 124s-54.667 42 -96 42zM201 646.999c-16.667 0 -30.5 5.33301 -41.5 16s-16.5 24 -16.5 40c0 16.667 5.5 30.334 16.5 41.001s24.833 16 41.5 16
c16 0 29.5 -5.33301 40.5 -16s16.5 -24.334 16.5 -41.001c0 -16 -5.5 -29.333 -16.5 -40s-24.5 -16 -40.5 -16zM410 646.999c-16 0 -29.5 5.33301 -40.5 16s-16.5 24 -16.5 40c0 16.667 5.5 30.334 16.5 41.001s24.5 16 40.5 16c16.667 0 30.5 -5.33301 41.5 -16
s16.5 -24.334 16.5 -41.001c0 -16 -5.5 -29.333 -16.5 -40s-24.833 -16 -41.5 -16z" />
    <glyph glyph-name="igrave" unicode="&#xec;" 
d="M517 0h-400v71h161v385h-156v71h248v-456h147v-71zM367 622l-206 93l47 77l188 -120z" />
    <glyph glyph-name="iacute" unicode="&#xed;" 
d="M517 0h-400v71h161v385h-156v71h248v-456h147v-71zM184 672l188 119l47 -77l-205 -92z" />
    <glyph glyph-name="icircumflex" unicode="&#xee;" 
d="M176 627l-42 44l136 121h61l135 -121l-40 -44l-125 91zM517 0h-400v71h161v385h-156v71h248v-456h147v-71z" />
    <glyph glyph-name="idieresis" unicode="&#xef;" 
d="M195 647c-16.667 0 -30.5 5.33301 -41.5 16s-16.5 24 -16.5 40c0 16.667 5.5 30.334 16.5 41.001s24.833 16 41.5 16c16 0 29.5 -5.33301 40.5 -16s16.5 -24.334 16.5 -41.001c0 -16 -5.5 -29.333 -16.5 -40s-24.5 -16 -40.5 -16zM404 647c-16 0 -29.5 5.33301 -40.5 16
s-16.5 24 -16.5 40c0 16.667 5.5 30.334 16.5 41.001s24.5 16 40.5 16c16.667 0 30.5 -5.33301 41.5 -16s16.5 -24.334 16.5 -41.001c0 -16 -5.5 -29.333 -16.5 -40s-24.833 -16 -41.5 -16zM517 0h-400v71h161v385h-156v71h248v-456h147v-71z" />
    <glyph glyph-name="eth" unicode="&#xf0;" 
d="M165 563l78 81.9971c-16 7.33301 -33.333 13.833 -52 19.5s-39.334 10.834 -62.001 15.501l20 70c29.333 -6 56.333 -12.833 81 -20.5s47.334 -16.834 68.001 -27.501l70 74l54 -47l-61 -63c60.667 -41.333 104.834 -94.666 132.501 -159.999
s41.5 -145.666 41.5 -240.999c0 -42 -5.66699 -80 -17 -114s-27.5 -63.167 -48.5 -87.5s-46.167 -43 -75.5 -56s-62.333 -19.5 -99 -19.5c-32 0 -62 5.5 -90 16.5s-52.5 27 -73.5 48s-37.5 46.833 -49.5 77.5s-18 65.667 -18 105c0 36.667 5.66699 70.167 17 100.5
s26.833 56.333 46.5 78s42.167 38.334 67.5 50.001s52 17.5 80 17.5c32.667 0 62.167 -5.66699 88.5 -17s47.166 -26 62.499 -44l3 1c-8 38 -22.833 73.167 -44.5 105.5s-48.167 59.833 -79.5 82.5l-76 -78zM442 265.997c0 22.667 -1 44.666 -3 65.999
c-16.667 25.333 -38 44.5 -64 57.5s-54.667 19.5 -86 19.5c-17.333 0 -33.833 -3.33301 -49.5 -10s-29.5 -17 -41.5 -31s-21.667 -31.667 -29 -53s-11 -46.666 -11 -75.999c0 -58.667 12.667 -103 38 -133s58 -45 98 -45c46 0 82.167 17.167 108.5 51.5
s39.5 85.5 39.5 153.5z" />
    <glyph glyph-name="ntilde" unicode="&#xf1;" 
d="M97 0l0.000976562 527h79l7 -72c21.333 27.333 47.666 48.166 78.999 62.499s62.666 21.5 93.999 21.5c51.333 0 88.833 -13.667 112.5 -41s35.5 -65.666 35.5 -114.999v-383h-92v323c0 26 -1 48 -3 66s-6 32.833 -12 44.5s-14.667 20.167 -26 25.5s-26.666 8 -45.999 8
c-14 0 -27.667 -2.5 -41 -7.5s-25.833 -11.5 -37.5 -19.5s-22.5 -17.167 -32.5 -27.5s-18.333 -20.5 -25 -30.5v-382h-92zM357.001 650c-14.667 0 -27.168 2.5 -37.501 7.5s-19.5 10.5 -27.5 16.5l-22.5 16.5c-7 5 -14.5 7.5 -22.5 7.5
c-11.333 0 -20.666 -3.83301 -27.999 -11.5s-15 -18.5 -23 -32.5l-57 26c10 23.333 24.167 43.833 42.5 61.5s41.833 26.5 70.5 26.5c14.667 0 27.334 -2.5 38.001 -7.5s20 -10.5 28 -16.5l22 -17c6.66699 -4.66699 14 -7 22 -7c11.333 0 20.666 3.83301 27.999 11.5
s15 18.5 23 32.5l57 -25c-10 -23.333 -24.167 -44 -42.5 -62s-41.833 -27 -70.5 -27z" />
    <glyph glyph-name="ograve" unicode="&#xf2;" 
d="M432 264c0 68.667 -10.833 119.334 -32.5 152.001s-54.5 49 -98.5 49s-77.167 -16.333 -99.5 -49s-33.5 -83.667 -33.5 -153c0 -68.667 11 -119.334 33 -152.001s55 -49 99 -49s77 16.333 99 49s33 83.667 33 153zM70 263c0 40.667 5 78 15 112s24.667 63.167 44 87.5
s43.5 43.166 72.5 56.499s62.167 20 99.5 20s70.333 -6.5 99 -19.5s52.667 -31.5 72 -55.5s33.833 -52.833 43.5 -86.5s14.5 -71.5 14.5 -113.5c0 -40.667 -5 -78 -15 -112s-24.667 -63.167 -44 -87.5s-43.333 -43.166 -72 -56.499s-61.667 -20 -99 -20
s-70.333 6.5 -99 19.5s-52.667 31.5 -72 55.5s-34 52.833 -44 86.5s-15 71.5 -15 113.5zM387 622l-206 93l47 77l188 -120z" />
    <glyph glyph-name="oacute" unicode="&#xf3;" 
d="M432 264c0 68.667 -10.833 119.334 -32.5 152.001s-54.5 49 -98.5 49s-77.167 -16.333 -99.5 -49s-33.5 -83.667 -33.5 -153c0 -68.667 11 -119.334 33 -152.001s55 -49 99 -49s77 16.333 99 49s33 83.667 33 153zM70 263c0 40.667 5 78 15 112s24.667 63.167 44 87.5
s43.5 43.166 72.5 56.499s62.167 20 99.5 20s70.333 -6.5 99 -19.5s52.667 -31.5 72 -55.5s33.833 -52.833 43.5 -86.5s14.5 -71.5 14.5 -113.5c0 -40.667 -5 -78 -15 -112s-24.667 -63.167 -44 -87.5s-43.333 -43.166 -72 -56.499s-61.667 -20 -99 -20
s-70.333 6.5 -99 19.5s-52.667 31.5 -72 55.5s-34 52.833 -44 86.5s-15 71.5 -15 113.5zM184 672l188 119l47 -77l-205 -92z" />
    <glyph glyph-name="ocircumflex" unicode="&#xf4;" 
d="M432 264c0 68.667 -10.833 119.334 -32.5 152.001s-54.5 49 -98.5 49s-77.167 -16.333 -99.5 -49s-33.5 -83.667 -33.5 -153c0 -68.667 11 -119.334 33 -152.001s55 -49 99 -49s77 16.333 99 49s33 83.667 33 153zM70 263c0 40.667 5 78 15 112s24.667 63.167 44 87.5
s43.5 43.166 72.5 56.499s62.167 20 99.5 20s70.333 -6.5 99 -19.5s52.667 -31.5 72 -55.5s33.833 -52.833 43.5 -86.5s14.5 -71.5 14.5 -113.5c0 -40.667 -5 -78 -15 -112s-24.667 -63.167 -44 -87.5s-43.333 -43.166 -72 -56.499s-61.667 -20 -99 -20
s-70.333 6.5 -99 19.5s-52.667 31.5 -72 55.5s-34 52.833 -44 86.5s-15 71.5 -15 113.5zM176 627l-42 44l136 121h61l135 -121l-40 -44l-125 91z" />
    <glyph glyph-name="otilde" unicode="&#xf5;" 
d="M353 650c-14.667 0 -27.168 2.5 -37.501 7.5s-19.5 10.5 -27.5 16.5l-22.5 16.5c-7 5 -14.5 7.5 -22.5 7.5c-11.333 0 -20.666 -3.83301 -27.999 -11.5s-15 -18.5 -23 -32.5l-57 26c10 23.333 24.167 43.833 42.5 61.5s41.833 26.5 70.5 26.5
c14.667 0 27.334 -2.5 38.001 -7.5s20 -10.5 28 -16.5l22 -17c6.66699 -4.66699 14 -7 22 -7c11.333 0 20.666 3.83301 27.999 11.5s15 18.5 23 32.5l57 -25c-10 -23.333 -24.167 -44 -42.5 -62s-41.833 -27 -70.5 -27zM431.999 264c0 68.667 -10.833 119.334 -32.5 152.001
s-54.5 49 -98.5 49s-77.167 -16.333 -99.5 -49s-33.5 -83.667 -33.5 -153c0 -68.667 11 -119.334 33 -152.001s55 -49 99 -49s77 16.333 99 49s33 83.667 33 153zM69.999 263c0 40.667 5 78 15 112s24.667 63.167 44 87.5s43.5 43.166 72.5 56.499s62.167 20 99.5 20
s70.333 -6.5 99 -19.5s52.667 -31.5 72 -55.5s33.833 -52.833 43.5 -86.5s14.5 -71.5 14.5 -113.5c0 -40.667 -5 -78 -15 -112s-24.667 -63.167 -44 -87.5s-43.333 -43.166 -72 -56.499s-61.667 -20 -99 -20s-70.333 6.5 -99 19.5s-52.667 31.5 -72 55.5
s-34 52.833 -44 86.5s-15 71.5 -15 113.5z" />
    <glyph glyph-name="odieresis" unicode="&#xf6;" 
d="M196 647c-16.667 0 -30.5 5.33301 -41.5 16s-16.5 24 -16.5 40c0 16.667 5.5 30.334 16.5 41.001s24.833 16 41.5 16c16 0 29.5 -5.33301 40.5 -16s16.5 -24.334 16.5 -41.001c0 -16 -5.5 -29.333 -16.5 -40s-24.5 -16 -40.5 -16zM405 647c-16 0 -29.5 5.33301 -40.5 16
s-16.5 24 -16.5 40c0 16.667 5.5 30.334 16.5 41.001s24.5 16 40.5 16c16.667 0 30.5 -5.33301 41.5 -16s16.5 -24.334 16.5 -41.001c0 -16 -5.5 -29.333 -16.5 -40s-24.833 -16 -41.5 -16zM432 264c0 68.667 -10.833 119.334 -32.5 152.001s-54.5 49 -98.5 49
s-77.167 -16.333 -99.5 -49s-33.5 -83.667 -33.5 -153c0 -68.667 11 -119.334 33 -152.001s55 -49 99 -49s77 16.333 99 49s33 83.667 33 153zM70 263c0 40.667 5 78 15 112s24.667 63.167 44 87.5s43.5 43.166 72.5 56.499s62.167 20 99.5 20s70.333 -6.5 99 -19.5
s52.667 -31.5 72 -55.5s33.833 -52.833 43.5 -86.5s14.5 -71.5 14.5 -113.5c0 -40.667 -5 -78 -15 -112s-24.667 -63.167 -44 -87.5s-43.333 -43.166 -72 -56.499s-61.667 -20 -99 -20s-70.333 6.5 -99 19.5s-52.667 31.5 -72 55.5s-34 52.833 -44 86.5s-15 71.5 -15 113.5z
" />
    <glyph glyph-name="divide" unicode="&#xf7;" 
d="M112 274v77h376v-77h-376zM230 115c0 19.333 6.83301 35.666 20.5 48.999s30.167 20 49.5 20s35.833 -6.66699 49.5 -20s20.5 -29.666 20.5 -48.999s-6.83301 -35.833 -20.5 -49.5s-30.167 -20.5 -49.5 -20.5s-35.833 6.83301 -49.5 20.5s-20.5 30.167 -20.5 49.5z
M230 511c0 19.333 6.83301 35.666 20.5 48.999s30.167 20 49.5 20s35.833 -6.66699 49.5 -20s20.5 -29.666 20.5 -48.999s-6.83301 -35.666 -20.5 -48.999s-30.167 -20 -49.5 -20s-35.833 6.66699 -49.5 20s-20.5 29.666 -20.5 48.999z" />
    <glyph glyph-name="oslash" unicode="&#xf8;" 
d="M70 263c0 40.667 5.00098 78 15.001 112s24.667 63.167 44 87.5s43.5 43.166 72.5 56.499s62.167 20 99.5 20c8 0 16 -0.333008 24 -1s15.667 -1.66699 23 -3l38 120l75 -22l-41 -124c36 -21.333 63.333 -53 82 -95s28 -92 28 -150c0 -40.667 -5 -78 -15 -112
s-24.667 -63.167 -44 -87.5s-43.333 -43.166 -72 -56.499s-61.667 -20 -99 -20c-8.66699 0 -17 0.333008 -25 1s-15.667 1.66699 -23 3l-37 -123l-75 22l41 126c-36.667 21.333 -64.334 53 -83.001 95s-28 92.333 -28 151zM168.001 263c0 -84 16.333 -141.334 49 -172.001
l115 370c-10 2 -20.333 3 -31 3c-44 0 -77.167 -16.167 -99.5 -48.5s-33.5 -83.166 -33.5 -152.499zM432.001 263.999c0 81.333 -16 137.667 -48 169l-115 -368c8.66699 -2 19 -3 31 -3c44 0 77 16.333 99 49s33 83.667 33 153z" />
    <glyph glyph-name="ugrave" unicode="&#xf9;" 
d="M189 527v-371.999c0 -34 6.83301 -58.333 20.5 -73s35.167 -22 64.5 -22c28 0 54.333 8 79 24s44 35 58 57v386h92v-527h-79l-7 70c-20.667 -26.667 -46 -47 -76 -61s-60.667 -21 -92 -21c-51.333 0 -89.5 13.667 -114.5 41s-37.5 65.666 -37.5 114.999v383h92z
M382 622.001l-206 93l47 77l188 -120z" />
    <glyph glyph-name="uacute" unicode="&#xfa;" 
d="M189 527v-371.999c0 -34 6.83301 -58.333 20.5 -73s35.167 -22 64.5 -22c28 0 54.333 8 79 24s44 35 58 57v386h92v-527h-79l-7 70c-20.667 -26.667 -46 -47 -76 -61s-60.667 -21 -92 -21c-51.333 0 -89.5 13.667 -114.5 41s-37.5 65.666 -37.5 114.999v383h92z
M200 672.001l188 119l47 -77l-205 -92z" />
    <glyph glyph-name="ucircumflex" unicode="&#xfb;" 
d="M189 527v-371.999c0 -34 6.83301 -58.333 20.5 -73s35.167 -22 64.5 -22c28 0 54.333 8 79 24s44 35 58 57v386h92v-527h-79l-7 70c-20.667 -26.667 -46 -47 -76 -61s-60.667 -21 -92 -21c-51.333 0 -89.5 13.667 -114.5 41s-37.5 65.666 -37.5 114.999v383h92z
M176 627.001l-42 44l136 121h61l135 -121l-40 -44l-125 91z" />
    <glyph glyph-name="udieresis" unicode="&#xfc;" 
d="M189 527v-371.999c0 -34 6.83301 -58.333 20.5 -73s35.167 -22 64.5 -22c28 0 54.333 8 79 24s44 35 58 57v386h92v-527h-79l-7 70c-20.667 -26.667 -46 -47 -76 -61s-60.667 -21 -92 -21c-51.333 0 -89.5 13.667 -114.5 41s-37.5 65.666 -37.5 114.999v383h92z
M196 647.001c-16.667 0 -30.5 5.33301 -41.5 16s-16.5 24 -16.5 40c0 16.667 5.5 30.334 16.5 41.001s24.833 16 41.5 16c16 0 29.5 -5.33301 40.5 -16s16.5 -24.334 16.5 -41.001c0 -16 -5.5 -29.333 -16.5 -40s-24.5 -16 -40.5 -16zM405 647.001
c-16 0 -29.5 5.33301 -40.5 16s-16.5 24 -16.5 40c0 16.667 5.5 30.334 16.5 41.001s24.5 16 40.5 16c16.667 0 30.5 -5.33301 41.5 -16s16.5 -24.334 16.5 -41.001c0 -16 -5.5 -29.333 -16.5 -40s-24.833 -16 -41.5 -16z" />
    <glyph glyph-name="yacute" unicode="&#xfd;" 
d="M358 -3c-9.33301 -28 -20.667 -54.001 -34 -78.001s-29.5 -45.167 -48.5 -63.5s-41.5 -33.5 -67.5 -45.5s-56.667 -19.667 -92 -23l-13 72c26.667 4.66699 49.167 10.834 67.5 18.501s33.833 17.167 46.5 28.5s23 24.833 31 40.5s15.667 33.5 23 53.5h-31l-182 527h98
l144 -453h4l143 453h95zM199.999 671.999l188 119l47 -77l-205 -92z" />
    <glyph glyph-name="thorn" unicode="&#xfe;" 
d="M189 463c19.333 24.667 41.834 43.502 67.501 56.502s53.167 19.5 82.5 19.5c34.667 0 64.167 -6.5 88.5 -19.5s44.166 -31.5 59.499 -55.5s26.333 -53 33 -87s10 -71.667 10 -113c0 -40 -4.16699 -76.833 -12.5 -110.5s-21 -62.834 -38 -87.501
s-38.167 -43.834 -63.5 -57.501s-55 -20.5 -89 -20.5c-58.667 0 -104.667 20 -138 60v-250l-92 -11v952l92 11v-287zM189.001 127.002c13.333 -20.667 30 -36.499 50 -47.499s42 -16.5 66 -16.5c42 0 73.667 16.167 95 48.5s32 83.166 32 152.499
c0 68.667 -9.33301 119.5 -28 152.5s-48 49.5 -88 49.5c-28 0 -52.667 -8.33301 -74 -25s-39 -35.667 -53 -57v-257z" />
    <glyph glyph-name="ydieresis" unicode="&#xff;" 
d="M358 -3c-9.33301 -28 -20.667 -54.001 -34 -78.001s-29.5 -45.167 -48.5 -63.5s-41.5 -33.5 -67.5 -45.5s-56.667 -19.667 -92 -23l-13 72c26.667 4.66699 49.167 10.834 67.5 18.501s33.833 17.167 46.5 28.5s23 24.833 31 40.5s15.667 33.5 23 53.5h-31l-182 527h98
l144 -453h4l143 453h95zM196.999 646.999c-16.667 0 -30.5 5.33301 -41.5 16s-16.5 24 -16.5 40c0 16.667 5.5 30.334 16.5 41.001s24.833 16 41.5 16c16 0 29.5 -5.33301 40.5 -16s16.5 -24.334 16.5 -41.001c0 -16 -5.5 -29.333 -16.5 -40s-24.5 -16 -40.5 -16z
M405.999 646.999c-16 0 -29.5 5.33301 -40.5 16s-16.5 24 -16.5 40c0 16.667 5.5 30.334 16.5 41.001s24.5 16 40.5 16c16.667 0 30.5 -5.33301 41.5 -16s16.5 -24.334 16.5 -41.001c0 -16 -5.5 -29.333 -16.5 -40s-24.833 -16 -41.5 -16z" />
    <glyph glyph-name="Amacron" unicode="&#x100;" 
d="M430 173h-265l-53 -173h-95l223 689h120l223 -689h-100zM188 250h219l-107 353h-4zM436 796h-273v70h273v-70z" />
    <glyph glyph-name="amacron" unicode="&#x101;" 
d="M482 119c0 -21.333 3.33301 -36.665 10 -45.998s17.334 -16.333 32.001 -21l-22 -64c-23.333 3.33301 -43.833 10.666 -61.5 21.999s-30.5 28.666 -38.5 51.999c-18.667 -25.333 -43 -44 -73 -56s-61 -18 -93 -18c-53.333 0 -95.666 14.833 -126.999 44.5
s-47 69.167 -47 118.5c0 54.667 21.667 96.667 65 126s105.333 44 186 44h77v41c0 37.333 -10.833 63.666 -32.5 78.999s-51.834 23 -90.501 23c-17.333 0 -37.833 -2.16699 -61.5 -6.5s-49.167 -11.166 -76.5 -20.499l-24 68c32.667 12 63.667 20.667 93 26s57 8 83 8
c67.333 0 117.666 -15.167 150.999 -45.5s50 -72.5 50 -126.5v-248zM261 57.001c25.333 0 49.333 6.33301 72 19s41.667 30.667 57 54v130h-72c-56.667 0 -96.667 -9.5 -120 -28.5s-35 -44.5 -35 -76.5c0 -65.333 32.667 -98 98 -98zM431 674.001h-273v69h273v-69z" />
    <glyph glyph-name="Abreve" unicode="&#x102;" 
d="M430 173h-265l-53 -173h-95l223 689h120l223 -689h-100zM188 250h219l-107 353h-4zM299 760c-23.333 0 -44 4 -62 12s-33.167 18.333 -45.5 31s-22 26.667 -29 42s-11.5 30.666 -13.5 45.999l61 13c13.333 -49.333 43 -74 89 -74c47.333 0 77.666 24.667 90.999 74
l61 -13c-2 -15.333 -6.66699 -30.666 -14 -45.999s-17.166 -29.333 -29.499 -42s-27.5 -23 -45.5 -31s-39 -12 -63 -12z" />
    <glyph glyph-name="abreve" unicode="&#x103;" 
d="M482 119c0 -21.333 3.33301 -36.665 10 -45.998s17.334 -16.333 32.001 -21l-22 -64c-23.333 3.33301 -43.833 10.666 -61.5 21.999s-30.5 28.666 -38.5 51.999c-18.667 -25.333 -43 -44 -73 -56s-61 -18 -93 -18c-53.333 0 -95.666 14.833 -126.999 44.5
s-47 69.167 -47 118.5c0 54.667 21.667 96.667 65 126s105.333 44 186 44h77v41c0 37.333 -10.833 63.666 -32.5 78.999s-51.834 23 -90.501 23c-17.333 0 -37.833 -2.16699 -61.5 -6.5s-49.167 -11.166 -76.5 -20.499l-24 68c32.667 12 63.667 20.667 93 26s57 8 83 8
c67.333 0 117.666 -15.167 150.999 -45.5s50 -72.5 50 -126.5v-248zM261 57.001c25.333 0 49.333 6.33301 72 19s41.667 30.667 57 54v130h-72c-56.667 0 -96.667 -9.5 -120 -28.5s-35 -44.5 -35 -76.5c0 -65.333 32.667 -98 98 -98zM292 628.001
c-23.333 0 -43.8311 4.33301 -61.498 13s-32.834 19.667 -45.501 33s-22.5 28.333 -29.5 45s-11.5 33 -13.5 49l61 13c7.33301 -25.333 18.166 -45.666 32.499 -60.999s33.166 -23 56.499 -23c24 0 43.5 7.66699 58.5 23s26.167 35.666 33.5 60.999l61 -13
c-2 -16 -6.66699 -32.333 -14 -49s-17.333 -31.667 -30 -45s-28.167 -24.333 -46.5 -33s-39.166 -13 -62.499 -13z" />
    <glyph glyph-name="Aogonek" unicode="&#x104;" 
d="M431 173l-264.998 0.000976562l-53 -173h-96l224 689h120l223 -689c-18.667 -11.333 -33.834 -22.5 -45.501 -33.5s-20.834 -22 -27.501 -33s-11.167 -21.667 -13.5 -32s-3.5 -19.833 -3.5 -28.5c0 -15.333 5 -28 15 -38s26.333 -15 49 -15c13.333 0 25.5 1.66699 36.5 5
s19.5 6.66602 25.5 9.99902l25 -54c-16 -8 -31.833 -13.667 -47.5 -17s-32.167 -5 -49.5 -5c-42 0 -74.333 10 -97 30s-34 47 -34 81c0 24 8.16699 47.5 24.5 70.5s38.833 42.833 67.5 59.5h-25zM189.002 250.001h219l-107 353h-4z" />
    <glyph glyph-name="aogonek" unicode="&#x105;" 
d="M482 119c0 -21.333 3.33496 -36.667 10.002 -46s17.334 -16.333 32.001 -21l-22 -64c-15.333 -8 -27.833 -17.167 -37.5 -27.5s-17.334 -20.833 -23.001 -31.5s-9.5 -21 -11.5 -31s-3 -18.333 -3 -25c0 -15.333 4.83301 -28 14.5 -38s26.167 -15 49.5 -15
c13.333 0 25.5 1.66699 36.5 5s19.167 6.66602 24.5 9.99902l25 -54c-16 -8 -31.833 -13.667 -47.5 -17s-31.834 -5 -48.501 -5c-42 0 -74.333 10 -97 30s-34 47 -34 81c0 25.333 9 49.833 27 73.5s42.333 43.5 73 59.5c-23.333 12.667 -39.333 32.334 -48 59.001
c-18.667 -25.333 -43 -44 -73 -56s-61 -18 -93 -18c-53.333 0 -95.666 14.833 -126.999 44.5s-47 69.167 -47 118.5c0 54.667 21.667 96.667 65 126s105.333 44 186 44h77v41c0 37.333 -10.833 63.666 -32.5 78.999s-51.834 23 -90.501 23
c-17.333 0 -37.833 -2.16699 -61.5 -6.5s-49.167 -11.166 -76.5 -20.499l-24 68c32.667 12 63.667 20.667 93 26s57 8 83 8c67.333 0 117.666 -15.167 150.999 -45.5s50 -72.5 50 -126.5v-248zM261.002 56.999c25.333 0 49.333 6.33301 72 19s41.667 30.667 57 54v130h-72
c-56.667 0 -96.667 -9.5 -120 -28.5s-35 -44.5 -35 -76.5c0 -65.333 32.667 -98 98 -98z" />
    <glyph glyph-name="Cacute" unicode="&#x106;" 
d="M358 68c38 0 69.5029 6.00391 94.5029 18.0039s46.167 25.667 63.5 41l49 -62c-21.333 -20 -49.333 -37.833 -84 -53.5s-77 -23.5 -127 -23.5c-43.333 0 -83.333 7.66699 -120 23s-68.334 38.166 -95.001 68.499s-47.334 67.666 -62.001 111.999s-22 95.5 -22 153.5
s8 109.167 24 153.5s37.5 81.5 64.5 111.5s58.5 52.667 94.5 68s74.333 23 115 23c45.333 0 83.5 -6 114.5 -18s60.167 -28.667 87.5 -50l-52 -61c-21.333 17.333 -44 30.166 -68 38.499s-49.333 12.5 -76 12.5c-27.333 0 -53.333 -4.83301 -78 -14.5
s-46.334 -25.334 -65.001 -47.001s-33.334 -50.167 -44.001 -85.5s-16 -79 -16 -131c0 -50 5.16699 -92.5 15.5 -127.5s24.5 -63.5 42.5 -85.5s39.333 -38.167 64 -48.5s51.334 -15.5 80.001 -15.5zM225.003 804.004l189 109l47 -77l-208 -81z" />
    <glyph glyph-name="cacute" unicode="&#x107;" 
d="M336 66c22 0 44.668 3.50098 68.001 10.501s45.666 18.5 66.999 34.5l44 -63c-24.667 -20 -53.334 -35 -86.001 -45s-64 -15 -94 -15c-40 0 -75.5 6.5 -106.5 19.5s-57.167 31.333 -78.5 55s-37.5 52.334 -48.5 86.001s-16.5 71.167 -16.5 112.5
c0 40 5.66699 76.833 17 110.5s27.666 63 48.999 88s47.5 44.5 78.5 58.5s66.5 21 106.5 21c34 0 66.167 -4.66699 96.5 -14s57.833 -24.333 82.5 -45l-45 -62c-21.333 16 -43.166 27.5 -65.499 34.5s-45.166 10.5 -68.499 10.5c-44.667 0 -81.167 -16.5 -109.5 -49.5
s-42.5 -83.833 -42.5 -152.5c0 -34.667 3.83301 -64.334 11.5 -89.001s18.167 -44.834 31.5 -60.501s29.333 -27.167 48 -34.5s39 -11 61 -11zM207.001 672.001l188 119l47 -77l-205 -92z" />
    <glyph glyph-name="Ccircumflex" unicode="&#x108;" 
d="M358 68c38 0 69.5029 6.00391 94.5029 18.0039s46.167 25.667 63.5 41l49 -62c-21.333 -20 -49.333 -37.833 -84 -53.5s-77 -23.5 -127 -23.5c-43.333 0 -83.333 7.66699 -120 23s-68.334 38.166 -95.001 68.499s-47.334 67.666 -62.001 111.999s-22 95.5 -22 153.5
s8 109.167 24 153.5s37.5 81.5 64.5 111.5s58.5 52.667 94.5 68s74.333 23 115 23c45.333 0 83.5 -6 114.5 -18s60.167 -28.667 87.5 -50l-52 -61c-21.333 17.333 -44 30.166 -68 38.499s-49.333 12.5 -76 12.5c-27.333 0 -53.333 -4.83301 -78 -14.5
s-46.334 -25.334 -65.001 -47.001s-33.334 -50.167 -44.001 -85.5s-16 -79 -16 -131c0 -50 5.16699 -92.5 15.5 -127.5s24.5 -63.5 42.5 -85.5s39.333 -38.167 64 -48.5s51.334 -15.5 80.001 -15.5zM225.003 759.004l-40 45l136 111h61l135 -111l-39 -45l-127 81z" />
    <glyph glyph-name="ccircumflex" unicode="&#x109;" 
d="M336 66c22 0 44.668 3.50098 68.001 10.501s45.666 18.5 66.999 34.5l44 -63c-24.667 -20 -53.334 -35 -86.001 -45s-64 -15 -94 -15c-40 0 -75.5 6.5 -106.5 19.5s-57.167 31.333 -78.5 55s-37.5 52.334 -48.5 86.001s-16.5 71.167 -16.5 112.5
c0 40 5.66699 76.833 17 110.5s27.666 63 48.999 88s47.5 44.5 78.5 58.5s66.5 21 106.5 21c34 0 66.167 -4.66699 96.5 -14s57.833 -24.333 82.5 -45l-45 -62c-21.333 16 -43.166 27.5 -65.499 34.5s-45.166 10.5 -68.499 10.5c-44.667 0 -81.167 -16.5 -109.5 -49.5
s-42.5 -83.833 -42.5 -152.5c0 -34.667 3.83301 -64.334 11.5 -89.001s18.167 -44.834 31.5 -60.501s29.333 -27.167 48 -34.5s39 -11 61 -11zM200.001 627.001l-42 44l136 121h61l135 -121l-40 -44l-125 91z" />
    <glyph glyph-name="Cdotaccent" unicode="&#x10a;" 
d="M358 68c38 0 69.5029 6.00391 94.5029 18.0039s46.167 25.667 63.5 41l49 -62c-21.333 -20 -49.333 -37.833 -84 -53.5s-77 -23.5 -127 -23.5c-43.333 0 -83.333 7.66699 -120 23s-68.334 38.166 -95.001 68.499s-47.334 67.666 -62.001 111.999s-22 95.5 -22 153.5
s8 109.167 24 153.5s37.5 81.5 64.5 111.5s58.5 52.667 94.5 68s74.333 23 115 23c45.333 0 83.5 -6 114.5 -18s60.167 -28.667 87.5 -50l-52 -61c-21.333 17.333 -44 30.166 -68 38.499s-49.333 12.5 -76 12.5c-27.333 0 -53.333 -4.83301 -78 -14.5
s-46.334 -25.334 -65.001 -47.001s-33.334 -50.167 -44.001 -85.5s-16 -79 -16 -131c0 -50 5.16699 -92.5 15.5 -127.5s24.5 -63.5 42.5 -85.5s39.333 -38.167 64 -48.5s51.334 -15.5 80.001 -15.5zM414.003 837.004c0 -18 -5.83301 -33 -17.5 -45s-27.167 -18 -46.5 -18
s-34.833 6 -46.5 18s-17.5 27 -17.5 45c0 17.333 5.83301 32 17.5 44s27.167 18 46.5 18s34.833 -6 46.5 -18s17.5 -26.667 17.5 -44z" />
    <glyph glyph-name="cdotaccent" unicode="&#x10b;" 
d="M336 66c22 0 44.668 3.50098 68.001 10.501s45.666 18.5 66.999 34.5l44 -63c-24.667 -20 -53.334 -35 -86.001 -45s-64 -15 -94 -15c-40 0 -75.5 6.5 -106.5 19.5s-57.167 31.333 -78.5 55s-37.5 52.334 -48.5 86.001s-16.5 71.167 -16.5 112.5
c0 40 5.66699 76.833 17 110.5s27.666 63 48.999 88s47.5 44.5 78.5 58.5s66.5 21 106.5 21c34 0 66.167 -4.66699 96.5 -14s57.833 -24.333 82.5 -45l-45 -62c-21.333 16 -43.166 27.5 -65.499 34.5s-45.166 10.5 -68.499 10.5c-44.667 0 -81.167 -16.5 -109.5 -49.5
s-42.5 -83.833 -42.5 -152.5c0 -34.667 3.83301 -64.334 11.5 -89.001s18.167 -44.834 31.5 -60.501s29.333 -27.167 48 -34.5s39 -11 61 -11zM389.001 715.001c0 -18 -6 -33 -18 -45s-27.667 -18 -47 -18s-34.833 6 -46.5 18s-17.5 27 -17.5 45
c0 17.333 5.83301 32 17.5 44s27.167 18 46.5 18s35 -6 47 -18s18 -26.667 18 -44z" />
    <glyph glyph-name="Ccaron" unicode="&#x10c;" 
d="M358 68c38 0 69.5029 6.00391 94.5029 18.0039s46.167 25.667 63.5 41l49 -62c-21.333 -20 -49.333 -37.833 -84 -53.5s-77 -23.5 -127 -23.5c-43.333 0 -83.333 7.66699 -120 23s-68.334 38.166 -95.001 68.499s-47.334 67.666 -62.001 111.999s-22 95.5 -22 153.5
s8 109.167 24 153.5s37.5 81.5 64.5 111.5s58.5 52.667 94.5 68s74.333 23 115 23c45.333 0 83.5 -6 114.5 -18s60.167 -28.667 87.5 -50l-52 -61c-21.333 17.333 -44 30.166 -68 38.499s-49.333 12.5 -76 12.5c-27.333 0 -53.333 -4.83301 -78 -14.5
s-46.334 -25.334 -65.001 -47.001s-33.334 -50.167 -44.001 -85.5s-16 -79 -16 -131c0 -50 5.16699 -92.5 15.5 -127.5s24.5 -63.5 42.5 -85.5s39.333 -38.167 64 -48.5s51.334 -15.5 80.001 -15.5zM352.003 833.004l126 82l39 -45l-135 -111h-61l-136 111l40 45z" />
    <glyph glyph-name="ccaron" unicode="&#x10d;" 
d="M336 66c22 0 44.668 3.50098 68.001 10.501s45.666 18.5 66.999 34.5l44 -63c-24.667 -20 -53.334 -35 -86.001 -45s-64 -15 -94 -15c-40 0 -75.5 6.5 -106.5 19.5s-57.167 31.333 -78.5 55s-37.5 52.334 -48.5 86.001s-16.5 71.167 -16.5 112.5
c0 40 5.66699 76.833 17 110.5s27.666 63 48.999 88s47.5 44.5 78.5 58.5s66.5 21 106.5 21c34 0 66.167 -4.66699 96.5 -14s57.833 -24.333 82.5 -45l-45 -62c-21.333 16 -43.166 27.5 -65.499 34.5s-45.166 10.5 -68.499 10.5c-44.667 0 -81.167 -16.5 -109.5 -49.5
s-42.5 -83.833 -42.5 -152.5c0 -34.667 3.83301 -64.334 11.5 -89.001s18.167 -44.834 31.5 -60.501s29.333 -27.167 48 -34.5s39 -11 61 -11zM325.001 701.001l125 91l40 -44l-135 -121h-61l-136 121l42 44z" />
    <glyph glyph-name="Dcaron" unicode="&#x10e;" 
d="M454 348c0 58.667 -6.16699 105.331 -18.5 139.998s-28.333 61.334 -48 80.001s-41.5 30.834 -65.5 36.501s-47.667 8.5 -71 8.5h-76v-538h77c24.667 0 49 3.83301 73 11.5s45.5 21.5 64.5 41.5s34.5 47.667 46.5 83s18 81 18 137zM555 347.997
c0 -72 -9.5 -130.667 -28.5 -176s-43.5 -80.666 -73.5 -105.999s-63.667 -42.666 -101 -51.999s-74.333 -14 -111 -14h-161v689h150c40.667 0 80.5 -4.33301 119.5 -13s73.667 -25.334 104 -50.001s54.833 -59.334 73.5 -104.001s28 -102.667 28 -174zM274 832.997l126 82
l39 -45l-135 -111h-61l-136 111l40 45z" />
    <glyph glyph-name="dcaron" unicode="&#x10f;" 
d="M267 466c-42 0 -74.5 -16.666 -97.5 -49.999s-34.5 -84.333 -34.5 -153s10.333 -119.5 31 -152.5s51 -49.5 91 -49.5c28 0 52.333 8.16699 73 24.5s38 35.166 52 56.499v259c-14 20.667 -30.833 36.667 -50.5 48s-41.167 17 -64.5 17zM243 539.001
c57.333 0 103.664 -20.333 138.997 -61v272l92 -11v-739h-81l-8 68c-19.333 -27.333 -41.5 -47.5 -66.5 -60.5s-52.5 -19.5 -82.5 -19.5c-34 0 -63.667 6.66699 -89 20s-46.166 32 -62.499 56s-28.5 52.833 -36.5 86.5s-12 71.167 -12 112.5c0 40 4.66699 76.833 14 110.5
s22.833 62.667 40.5 87s39.334 43.5 65.001 57.5s54.834 21 87.501 21zM511.998 763.001c0 15.333 5.66699 28.333 17 39s25 16 41 16s29.5 -5.33301 40.5 -16s16.5 -23.667 16.5 -39c0 -9.33301 -1.33301 -18.333 -4 -27s-7 -19 -13 -31l-50 -106h-53l28 117
c-15.333 12 -23 27.667 -23 47z" />
    <glyph glyph-name="Dcroat" unicode="&#x110;" 
d="M561 348c0 -72 -9.5 -130.667 -28.5 -176s-43.5 -80.666 -73.5 -105.999s-63.667 -42.666 -101 -51.999s-74.333 -14 -111 -14h-161v318h-72v70h72v301h150c40.667 0 80.5 -4.33301 119.5 -13s73.667 -25.334 104 -50.001s54.833 -59.334 73.5 -104.001
s28 -102.667 28 -174zM460 348c0 58.667 -6.16699 105.331 -18.5 139.998s-28.333 61.334 -48 80.001s-41.5 30.834 -65.5 36.501s-47.667 8.5 -71 8.5h-76v-225h172v-70h-172v-243h77c24.667 0 49 3.83301 73 11.5s45.5 21.5 64.5 41.5s34.5 47.667 46.5 83s18 81 18 137z
" />
    <glyph glyph-name="dcroat" unicode="&#x111;" 
d="M267 539c57.333 0 103.664 -20.333 138.997 -61v119h-166v70h166v83l92 -11v-72h79v-70h-79v-597h-81l-8 68c-19.333 -27.333 -41.5 -47.5 -66.5 -60.5s-52.5 -19.5 -82.5 -19.5c-34 0 -63.667 6.66699 -89 20s-46.166 32 -62.499 56s-28.5 52.833 -36.5 86.5
s-12 71.167 -12 112.5c0 40 4.66699 76.833 14 110.5s22.833 62.667 40.5 87s39.334 43.5 65.001 57.5s54.834 21 87.501 21zM290.998 466c-42 0 -74.5 -16.666 -97.5 -49.999s-34.5 -84.333 -34.5 -153s10.333 -119.5 31 -152.5s51 -49.5 91 -49.5
c28 0 52.333 8.16699 73 24.5s38 35.166 52 56.499v259c-14 20.667 -30.833 36.667 -50.5 48s-41.167 17 -64.5 17z" />
    <glyph glyph-name="Emacron" unicode="&#x112;" 
d="M207 613v-225h254v-76h-254v-237h311v-75h-406v689h398l-11 -76h-292zM446 796h-273v70h273v-70z" />
    <glyph glyph-name="emacron" unicode="&#x113;" 
d="M171 232c4 -58.667 20.167 -101.501 48.5 -128.501s62.5 -40.5 102.5 -40.5c24 0 47.667 3.5 71 10.5s46.333 19.833 69 38.5l42 -61c-24.667 -19.333 -53 -34.666 -85 -45.999s-65 -17 -99 -17c-39.333 0 -74.166 6.66699 -104.499 20s-56 32 -77 56
s-36.833 52.833 -47.5 86.5s-16 71.167 -16 112.5c0 40 5.33301 76.833 16 110.5s26 62.667 46 87s44.167 43.5 72.5 57.5s60.166 21 95.499 21c69.333 0 123.5 -23.167 162.5 -69.5s58.5 -109.833 58.5 -190.5c0 -9.33301 -0.166992 -18 -0.5 -26s-0.833008 -15 -1.5 -21
h-353zM305 465.999c-36 0 -66.5 -13.5 -91.5 -40.5s-39.167 -68.833 -42.5 -125.5h266c-1.33301 54.667 -13.333 96 -36 124s-54.667 42 -96 42zM442 673.999h-273v69h273v-69z" />
    <glyph glyph-name="Ebreve" unicode="&#x114;" 
d="M207 613v-225h254v-76h-254v-237h311v-75h-406v689h398l-11 -76h-292zM309 760c-23.333 0 -44 4 -62 12s-33.167 18.333 -45.5 31s-22 26.667 -29 42s-11.5 30.666 -13.5 45.999l61 13c13.333 -49.333 43 -74 89 -74c47.333 0 77.666 24.667 90.999 74l61 -13
c-2 -15.333 -6.66699 -30.666 -14 -45.999s-17.166 -29.333 -29.499 -42s-27.5 -23 -45.5 -31s-39 -12 -63 -12z" />
    <glyph glyph-name="ebreve" unicode="&#x115;" 
d="M171 232c4 -58.667 20.167 -101.501 48.5 -128.501s62.5 -40.5 102.5 -40.5c24 0 47.667 3.5 71 10.5s46.333 19.833 69 38.5l42 -61c-24.667 -19.333 -53 -34.666 -85 -45.999s-65 -17 -99 -17c-39.333 0 -74.166 6.66699 -104.499 20s-56 32 -77 56
s-36.833 52.833 -47.5 86.5s-16 71.167 -16 112.5c0 40 5.33301 76.833 16 110.5s26 62.667 46 87s44.167 43.5 72.5 57.5s60.166 21 95.499 21c69.333 0 123.5 -23.167 162.5 -69.5s58.5 -109.833 58.5 -190.5c0 -9.33301 -0.166992 -18 -0.5 -26s-0.833008 -15 -1.5 -21
h-353zM305 465.999c-36 0 -66.5 -13.5 -91.5 -40.5s-39.167 -68.833 -42.5 -125.5h266c-1.33301 54.667 -13.333 96 -36 124s-54.667 42 -96 42zM305 627.999c-23.333 0 -43.8311 4.33301 -61.498 13s-32.834 19.667 -45.501 33s-22.5 28.333 -29.5 45s-11.5 33 -13.5 49
l61 13c7.33301 -25.333 18.166 -45.666 32.499 -60.999s33.166 -23 56.499 -23c24 0 43.5 7.66699 58.5 23s26.167 35.666 33.5 60.999l61 -13c-2 -16 -6.66699 -32.333 -14 -49s-17.333 -31.667 -30 -45s-28.167 -24.333 -46.5 -33s-39.166 -13 -62.499 -13z" />
    <glyph glyph-name="Edotaccent" unicode="&#x116;" 
d="M207 613v-225h254v-76h-254v-237h311v-75h-406v689h398l-11 -76h-292zM374 837c0 -18 -5.83301 -33 -17.5 -45s-27.167 -18 -46.5 -18s-34.833 6 -46.5 18s-17.5 27 -17.5 45c0 17.333 5.83301 32 17.5 44s27.167 18 46.5 18s34.833 -6 46.5 -18s17.5 -26.667 17.5 -44z
" />
    <glyph glyph-name="edotaccent" unicode="&#x117;" 
d="M171 232c4 -58.667 20.167 -101.501 48.5 -128.501s62.5 -40.5 102.5 -40.5c24 0 47.667 3.5 71 10.5s46.333 19.833 69 38.5l42 -61c-24.667 -19.333 -53 -34.666 -85 -45.999s-65 -17 -99 -17c-39.333 0 -74.166 6.66699 -104.499 20s-56 32 -77 56
s-36.833 52.833 -47.5 86.5s-16 71.167 -16 112.5c0 40 5.33301 76.833 16 110.5s26 62.667 46 87s44.167 43.5 72.5 57.5s60.166 21 95.499 21c69.333 0 123.5 -23.167 162.5 -69.5s58.5 -109.833 58.5 -190.5c0 -9.33301 -0.166992 -18 -0.5 -26s-0.833008 -15 -1.5 -21
h-353zM305 465.999c-36 0 -66.5 -13.5 -91.5 -40.5s-39.167 -68.833 -42.5 -125.5h266c-1.33301 54.667 -13.333 96 -36 124s-54.667 42 -96 42zM370 714.999c0 -18 -6 -33 -18 -45s-27.667 -18 -47 -18s-34.833 6 -46.5 18s-17.5 27 -17.5 45c0 17.333 5.83301 32 17.5 44
s27.167 18 46.5 18s35 -6 47 -18s18 -26.667 18 -44z" />
    <glyph glyph-name="Eogonek" unicode="&#x118;" 
d="M167 613v-224.999h254v-76h-254v-237h311v-75c-18.667 -10.667 -33.834 -21.667 -45.501 -33s-20.667 -22.5 -27 -33.5s-10.666 -21.667 -12.999 -32s-3.5 -19.833 -3.5 -28.5c0 -15.333 5 -28 15 -38s26.333 -15 49 -15c13.333 0 25.5 1.66699 36.5 5
s19.5 6.66602 25.5 9.99902l25 -54c-16 -8 -31.833 -13.667 -47.5 -17s-32.167 -5 -49.5 -5c-42 0 -74.333 10 -97 30s-34 47 -34 81c0 24 8.16699 47.5 24.5 70.5s38.833 42.833 67.5 59.5h-332v689h398l-11 -76h-292z" />
    <glyph glyph-name="eogonek" unicode="&#x119;" 
d="M171 232c4 -58.667 20.167 -101.499 48.5 -128.499s62.5 -40.5 102.5 -40.5c24 0 47.667 3.5 71 10.5s46.333 19.833 69 38.5l42 -61c-37.333 -26 -68.333 -54 -93 -84s-37 -61.333 -37 -94c0 -15.333 5 -28 15 -38s26.333 -15 49 -15c13.333 0 25.5 1.66699 36.5 5
s19.5 6.66602 25.5 9.99902l25 -54c-16 -8 -31.833 -13.667 -47.5 -17s-32.167 -5 -49.5 -5c-42 0 -74.333 10 -97 30s-34 47 -34 81c0 23.333 7.83301 46.5 23.5 69.5s37.167 43.167 64.5 60.5c-11.333 -4 -22 -7 -32 -9s-21 -3 -33 -3
c-39.333 0 -74.166 6.66699 -104.499 20s-56 32 -77 56s-36.833 52.833 -47.5 86.5s-16 71.167 -16 112.5c0 40 5.33301 76.833 16 110.5s26 62.667 46 87s44.167 43.5 72.5 57.5s60.166 21 95.499 21c69.333 0 123.5 -23.167 162.5 -69.5s58.5 -109.833 58.5 -190.5
c0 -9.33301 -0.166992 -18 -0.5 -26s-0.833008 -15 -1.5 -21h-353zM305 466.001c-36 0 -66.5 -13.5 -91.5 -40.5s-39.167 -68.833 -42.5 -125.5h266c-1.33301 54.667 -13.333 96 -36 124s-54.667 42 -96 42z" />
    <glyph glyph-name="Ecaron" unicode="&#x11a;" 
d="M207 613v-225h254v-76h-254v-237h311v-75h-406v689h398l-11 -76h-292zM311 833l126 82l39 -45l-135 -111h-61l-136 111l40 45z" />
    <glyph glyph-name="ecaron" unicode="&#x11b;" 
d="M171 232c4 -58.667 20.167 -101.501 48.5 -128.501s62.5 -40.5 102.5 -40.5c24 0 47.667 3.5 71 10.5s46.333 19.833 69 38.5l42 -61c-24.667 -19.333 -53 -34.666 -85 -45.999s-65 -17 -99 -17c-39.333 0 -74.166 6.66699 -104.499 20s-56 32 -77 56
s-36.833 52.833 -47.5 86.5s-16 71.167 -16 112.5c0 40 5.33301 76.833 16 110.5s26 62.667 46 87s44.167 43.5 72.5 57.5s60.166 21 95.499 21c69.333 0 123.5 -23.167 162.5 -69.5s58.5 -109.833 58.5 -190.5c0 -9.33301 -0.166992 -18 -0.5 -26s-0.833008 -15 -1.5 -21
h-353zM305 465.999c-36 0 -66.5 -13.5 -91.5 -40.5s-39.167 -68.833 -42.5 -125.5h266c-1.33301 54.667 -13.333 96 -36 124s-54.667 42 -96 42zM307 700.999l125 91l40 -44l-135 -121h-61l-136 121l42 44z" />
    <glyph glyph-name="Gcircumflex" unicode="&#x11c;" 
d="M325 -12c-42 0 -79.6641 7.5 -112.997 22.5s-61.833 37.333 -85.5 67s-41.834 66.834 -54.501 111.501s-19 96.667 -19 156s8.16699 111.166 24.5 155.499s38 81.333 65 111s57.833 52 92.5 67s70.667 22.5 108 22.5c23.333 0 44.333 -1.66699 63 -5s36 -8.33301 52 -15
s30.833 -14.667 44.5 -24s27.5 -20.333 41.5 -33l-56 -58c-21.333 19.333 -43.333 33.666 -66 42.999s-48.667 14 -78 14c-24 0 -47.5 -4.66699 -70.5 -14s-43.333 -25 -61 -47s-31.834 -50.667 -42.501 -86s-16 -79 -16 -131c0 -49.333 3.83301 -91.666 11.5 -126.999
s19 -64.333 34 -87s33.5 -39.167 55.5 -49.5s47.667 -15.5 77 -15.5c45.333 0 87.333 10.667 126 32v204h-130l-11 77h235v-330c-31.333 -17.333 -64.833 -31.833 -100.5 -43.5s-77.834 -17.5 -126.501 -17.5zM206.003 759l-40 45l136 111h61l135 -111l-39 -45l-127 81z" />
    <glyph glyph-name="gcircumflex" unicode="&#x11d;" 
d="M141 -25c-2.66699 -5.33301 -4.83008 -11.499 -6.49707 -18.499s-2.5 -14.5 -2.5 -22.5c0 -23.333 11.833 -41.666 35.5 -54.999s61.834 -20 114.501 -20c29.333 0 53.666 2.16699 72.999 6.5s34.833 10.166 46.5 17.499s20 15.833 25 25.5s7.5 20.167 7.5 31.5
c0 22 -8.83301 38.833 -26.5 50.5s-50.834 18.5 -99.501 20.5c-66.667 2.66699 -117.334 12 -152.001 28s-52 42.333 -52 79c0 16.667 4.5 32.667 13.5 48s22.167 29 39.5 41c-26.667 15.333 -47.334 35.666 -62.001 60.999s-22 54 -22 86c0 26 4.83301 50.333 14.5 73
s23.667 42.167 42 58.5s40.5 29.333 66.5 39s55 14.5 87 14.5c28.667 0 54.667 1.16699 78 3.5s44.833 5.66602 64.5 9.99902s37.5 9.33301 53.5 15s31.333 11.834 46 18.501l27 -83c-22 -7.33301 -45.333 -11.833 -70 -13.5s-50.667 -2.5 -78 -2.5v-3
c26 -12 46.5 -29.333 61.5 -52s22.5 -49 22.5 -79c0 -25.333 -4.66699 -48.833 -14 -70.5s-22.833 -40.5 -40.5 -56.5s-39 -28.5 -64 -37.5s-53.167 -13.5 -84.5 -13.5c-12 0 -24.333 0.666992 -37 2s-24.667 3.66602 -36 6.99902c-6.66699 -5.33301 -12 -11.833 -16 -19.5
s-6 -14.834 -6 -21.501c0 -8 1.66699 -15 5 -21s9.66602 -11.167 18.999 -15.5s22.5 -7.66602 39.5 -9.99902s39.167 -3.83301 66.5 -4.5c66.667 -2 117.834 -15 153.501 -39s53.5 -60 53.5 -108c0 -27.333 -6.5 -51 -19.5 -71s-30.5 -36.5 -52.5 -49.5
s-47.833 -22.5 -77.5 -28.5s-61.5 -9 -95.5 -9c-41.333 0 -76.666 3.16699 -105.999 9.5s-53.333 15.333 -72 27s-32.334 25.334 -41.001 41.001s-13 33.167 -13 52.5c0 12 1.16699 24.5 3.5 37.5s7.83301 26.167 16.5 39.5zM167.004 354.001
c0 -34.667 10.332 -63 30.999 -85s49 -33 85 -33s64 10.833 84 32.5s30 50.5 30 86.5c0 38 -9.66699 67.167 -29 87.5s-47.666 30.5 -84.999 30.5c-36.667 0 -65.167 -11.333 -85.5 -34s-30.5 -51 -30.5 -85zM168.003 627.001l-42 44l136 121h61l135 -121l-40 -44l-125 91z
" />
    <glyph glyph-name="Gbreve" unicode="&#x11e;" 
d="M325 -12c-42 0 -79.6641 7.5 -112.997 22.5s-61.833 37.333 -85.5 67s-41.834 66.834 -54.501 111.501s-19 96.667 -19 156s8.16699 111.166 24.5 155.499s38 81.333 65 111s57.833 52 92.5 67s70.667 22.5 108 22.5c23.333 0 44.333 -1.66699 63 -5s36 -8.33301 52 -15
s30.833 -14.667 44.5 -24s27.5 -20.333 41.5 -33l-56 -58c-21.333 19.333 -43.333 33.666 -66 42.999s-48.667 14 -78 14c-24 0 -47.5 -4.66699 -70.5 -14s-43.333 -25 -61 -47s-31.834 -50.667 -42.501 -86s-16 -79 -16 -131c0 -49.333 3.83301 -91.666 11.5 -126.999
s19 -64.333 34 -87s33.5 -39.167 55.5 -49.5s47.667 -15.5 77 -15.5c45.333 0 87.333 10.667 126 32v204h-130l-11 77h235v-330c-31.333 -17.333 -64.833 -31.833 -100.5 -43.5s-77.834 -17.5 -126.501 -17.5zM329.003 760c-23.333 0 -44 4 -62 12s-33.167 18.333 -45.5 31
s-22 26.667 -29 42s-11.5 30.666 -13.5 45.999l61 13c13.333 -49.333 43 -74 89 -74c47.333 0 77.666 24.667 90.999 74l61 -13c-2 -15.333 -6.66699 -30.666 -14 -45.999s-17.166 -29.333 -29.499 -42s-27.5 -23 -45.5 -31s-39 -12 -63 -12z" />
    <glyph glyph-name="gbreve" unicode="&#x11f;" 
d="M141 -25c-2.66699 -5.33301 -4.83008 -11.499 -6.49707 -18.499s-2.5 -14.5 -2.5 -22.5c0 -23.333 11.833 -41.666 35.5 -54.999s61.834 -20 114.501 -20c29.333 0 53.666 2.16699 72.999 6.5s34.833 10.166 46.5 17.499s20 15.833 25 25.5s7.5 20.167 7.5 31.5
c0 22 -8.83301 38.833 -26.5 50.5s-50.834 18.5 -99.501 20.5c-66.667 2.66699 -117.334 12 -152.001 28s-52 42.333 -52 79c0 16.667 4.5 32.667 13.5 48s22.167 29 39.5 41c-26.667 15.333 -47.334 35.666 -62.001 60.999s-22 54 -22 86c0 26 4.83301 50.333 14.5 73
s23.667 42.167 42 58.5s40.5 29.333 66.5 39s55 14.5 87 14.5c28.667 0 54.667 1.16699 78 3.5s44.833 5.66602 64.5 9.99902s37.5 9.33301 53.5 15s31.333 11.834 46 18.501l27 -83c-22 -7.33301 -45.333 -11.833 -70 -13.5s-50.667 -2.5 -78 -2.5v-3
c26 -12 46.5 -29.333 61.5 -52s22.5 -49 22.5 -79c0 -25.333 -4.66699 -48.833 -14 -70.5s-22.833 -40.5 -40.5 -56.5s-39 -28.5 -64 -37.5s-53.167 -13.5 -84.5 -13.5c-12 0 -24.333 0.666992 -37 2s-24.667 3.66602 -36 6.99902c-6.66699 -5.33301 -12 -11.833 -16 -19.5
s-6 -14.834 -6 -21.501c0 -8 1.66699 -15 5 -21s9.66602 -11.167 18.999 -15.5s22.5 -7.66602 39.5 -9.99902s39.167 -3.83301 66.5 -4.5c66.667 -2 117.834 -15 153.501 -39s53.5 -60 53.5 -108c0 -27.333 -6.5 -51 -19.5 -71s-30.5 -36.5 -52.5 -49.5
s-47.833 -22.5 -77.5 -28.5s-61.5 -9 -95.5 -9c-41.333 0 -76.666 3.16699 -105.999 9.5s-53.333 15.333 -72 27s-32.334 25.334 -41.001 41.001s-13 33.167 -13 52.5c0 12 1.16699 24.5 3.5 37.5s7.83301 26.167 16.5 39.5zM167.004 354.001
c0 -34.667 10.332 -63 30.999 -85s49 -33 85 -33s64 10.833 84 32.5s30 50.5 30 86.5c0 38 -9.66699 67.167 -29 87.5s-47.666 30.5 -84.999 30.5c-36.667 0 -65.167 -11.333 -85.5 -34s-30.5 -51 -30.5 -85zM291.003 628.001c-23.333 0 -43.8311 4.33301 -61.498 13
s-32.834 19.667 -45.501 33s-22.5 28.333 -29.5 45s-11.5 33 -13.5 49l61 13c7.33301 -25.333 18.166 -45.666 32.499 -60.999s33.166 -23 56.499 -23c24 0 43.5 7.66699 58.5 23s26.167 35.666 33.5 60.999l61 -13c-2 -16 -6.66699 -32.333 -14 -49
s-17.333 -31.667 -30 -45s-28.167 -24.333 -46.5 -33s-39.166 -13 -62.499 -13z" />
    <glyph glyph-name="Gdotaccent" unicode="&#x120;" 
d="M325 -12c-42 0 -79.6641 7.5 -112.997 22.5s-61.833 37.333 -85.5 67s-41.834 66.834 -54.501 111.501s-19 96.667 -19 156s8.16699 111.166 24.5 155.499s38 81.333 65 111s57.833 52 92.5 67s70.667 22.5 108 22.5c23.333 0 44.333 -1.66699 63 -5s36 -8.33301 52 -15
s30.833 -14.667 44.5 -24s27.5 -20.333 41.5 -33l-56 -58c-21.333 19.333 -43.333 33.666 -66 42.999s-48.667 14 -78 14c-24 0 -47.5 -4.66699 -70.5 -14s-43.333 -25 -61 -47s-31.834 -50.667 -42.501 -86s-16 -79 -16 -131c0 -49.333 3.83301 -91.666 11.5 -126.999
s19 -64.333 34 -87s33.5 -39.167 55.5 -49.5s47.667 -15.5 77 -15.5c45.333 0 87.333 10.667 126 32v204h-130l-11 77h235v-330c-31.333 -17.333 -64.833 -31.833 -100.5 -43.5s-77.834 -17.5 -126.501 -17.5zM395.003 837c0 -18 -5.83301 -33 -17.5 -45
s-27.167 -18 -46.5 -18s-34.833 6 -46.5 18s-17.5 27 -17.5 45c0 17.333 5.83301 32 17.5 44s27.167 18 46.5 18s34.833 -6 46.5 -18s17.5 -26.667 17.5 -44z" />
    <glyph glyph-name="gdotaccent" unicode="&#x121;" 
d="M141 -25c-2.66699 -5.33301 -4.83008 -11.499 -6.49707 -18.499s-2.5 -14.5 -2.5 -22.5c0 -23.333 11.833 -41.666 35.5 -54.999s61.834 -20 114.501 -20c29.333 0 53.666 2.16699 72.999 6.5s34.833 10.166 46.5 17.499s20 15.833 25 25.5s7.5 20.167 7.5 31.5
c0 22 -8.83301 38.833 -26.5 50.5s-50.834 18.5 -99.501 20.5c-66.667 2.66699 -117.334 12 -152.001 28s-52 42.333 -52 79c0 16.667 4.5 32.667 13.5 48s22.167 29 39.5 41c-26.667 15.333 -47.334 35.666 -62.001 60.999s-22 54 -22 86c0 26 4.83301 50.333 14.5 73
s23.667 42.167 42 58.5s40.5 29.333 66.5 39s55 14.5 87 14.5c28.667 0 54.667 1.16699 78 3.5s44.833 5.66602 64.5 9.99902s37.5 9.33301 53.5 15s31.333 11.834 46 18.501l27 -83c-22 -7.33301 -45.333 -11.833 -70 -13.5s-50.667 -2.5 -78 -2.5v-3
c26 -12 46.5 -29.333 61.5 -52s22.5 -49 22.5 -79c0 -25.333 -4.66699 -48.833 -14 -70.5s-22.833 -40.5 -40.5 -56.5s-39 -28.5 -64 -37.5s-53.167 -13.5 -84.5 -13.5c-12 0 -24.333 0.666992 -37 2s-24.667 3.66602 -36 6.99902c-6.66699 -5.33301 -12 -11.833 -16 -19.5
s-6 -14.834 -6 -21.501c0 -8 1.66699 -15 5 -21s9.66602 -11.167 18.999 -15.5s22.5 -7.66602 39.5 -9.99902s39.167 -3.83301 66.5 -4.5c66.667 -2 117.834 -15 153.501 -39s53.5 -60 53.5 -108c0 -27.333 -6.5 -51 -19.5 -71s-30.5 -36.5 -52.5 -49.5
s-47.833 -22.5 -77.5 -28.5s-61.5 -9 -95.5 -9c-41.333 0 -76.666 3.16699 -105.999 9.5s-53.333 15.333 -72 27s-32.334 25.334 -41.001 41.001s-13 33.167 -13 52.5c0 12 1.16699 24.5 3.5 37.5s7.83301 26.167 16.5 39.5zM167.004 354.001
c0 -34.667 10.332 -63 30.999 -85s49 -33 85 -33s64 10.833 84 32.5s30 50.5 30 86.5c0 38 -9.66699 67.167 -29 87.5s-47.666 30.5 -84.999 30.5c-36.667 0 -65.167 -11.333 -85.5 -34s-30.5 -51 -30.5 -85zM358.003 715.001c0 -18 -6 -33 -18 -45s-27.667 -18 -47 -18
s-34.833 6 -46.5 18s-17.5 27 -17.5 45c0 17.333 5.83301 32 17.5 44s27.167 18 46.5 18s35 -6 47 -18s18 -26.667 18 -44z" />
    <glyph glyph-name="uni0122" unicode="&#x122;" 
d="M325 -12c-42 0 -79.6641 7.5 -112.997 22.5s-61.833 37.333 -85.5 67s-41.834 66.834 -54.501 111.501s-19 96.667 -19 156s8.16699 111.166 24.5 155.499s38 81.333 65 111s57.833 52 92.5 67s70.667 22.5 108 22.5c23.333 0 44.333 -1.66699 63 -5s36 -8.33301 52 -15
s30.833 -14.667 44.5 -24s27.5 -20.333 41.5 -33l-56 -58c-21.333 19.333 -43.333 33.666 -66 42.999s-48.667 14 -78 14c-24 0 -47.5 -4.66699 -70.5 -14s-43.333 -25 -61 -47s-31.834 -50.667 -42.501 -86s-16 -79 -16 -131c0 -49.333 3.83301 -91.666 11.5 -126.999
s19 -64.333 34 -87s33.5 -39.167 55.5 -49.5s47.667 -15.5 77 -15.5c45.333 0 87.333 10.667 126 32v204h-130l-11 77h235v-330c-31.333 -17.333 -64.833 -31.833 -100.5 -43.5s-77.834 -17.5 -126.501 -17.5zM278.003 -126c0 16 5.5 29.333 16.5 40s24.5 16 40.5 16
s29.5 -5.33301 40.5 -16s16.5 -24 16.5 -40c0 -9.33301 -1.33301 -18.333 -4 -27s-6.66699 -19 -12 -31l-50 -106h-54l29 117c-15.333 12 -23 27.667 -23 47z" />
    <glyph glyph-name="uni0123" unicode="&#x123;" 
d="M141 -25c-2.66699 -5.33301 -4.83008 -11.499 -6.49707 -18.499s-2.5 -14.5 -2.5 -22.5c0 -23.333 11.833 -41.666 35.5 -54.999s61.834 -20 114.501 -20c29.333 0 53.666 2.16699 72.999 6.5s34.833 10.166 46.5 17.499s20 15.833 25 25.5s7.5 20.167 7.5 31.5
c0 22 -8.83301 38.833 -26.5 50.5s-50.834 18.5 -99.501 20.5c-66.667 2.66699 -117.334 12 -152.001 28s-52 42.333 -52 79c0 16.667 4.5 32.667 13.5 48s22.167 29 39.5 41c-26.667 15.333 -47.334 35.666 -62.001 60.999s-22 54 -22 86c0 26 4.83301 50.333 14.5 73
s23.667 42.167 42 58.5s40.5 29.333 66.5 39s55 14.5 87 14.5c28.667 0 54.667 1.16699 78 3.5s44.833 5.66602 64.5 9.99902s37.5 9.33301 53.5 15s31.333 11.834 46 18.501l27 -83c-22 -7.33301 -45.333 -11.833 -70 -13.5s-50.667 -2.5 -78 -2.5v-3
c26 -12 46.5 -29.333 61.5 -52s22.5 -49 22.5 -79c0 -25.333 -4.66699 -48.833 -14 -70.5s-22.833 -40.5 -40.5 -56.5s-39 -28.5 -64 -37.5s-53.167 -13.5 -84.5 -13.5c-12 0 -24.333 0.666992 -37 2s-24.667 3.66602 -36 6.99902c-6.66699 -5.33301 -12 -11.833 -16 -19.5
s-6 -14.834 -6 -21.501c0 -8 1.66699 -15 5 -21s9.66602 -11.167 18.999 -15.5s22.5 -7.66602 39.5 -9.99902s39.167 -3.83301 66.5 -4.5c66.667 -2 117.834 -15 153.501 -39s53.5 -60 53.5 -108c0 -27.333 -6.5 -51 -19.5 -71s-30.5 -36.5 -52.5 -49.5
s-47.833 -22.5 -77.5 -28.5s-61.5 -9 -95.5 -9c-41.333 0 -76.666 3.16699 -105.999 9.5s-53.333 15.333 -72 27s-32.334 25.334 -41.001 41.001s-13 33.167 -13 52.5c0 12 1.16699 24.5 3.5 37.5s7.83301 26.167 16.5 39.5zM167.004 354.001
c0 -34.667 10.332 -63 30.999 -85s49 -33 85 -33s64 10.833 84 32.5s30 50.5 30 86.5c0 38 -9.66699 67.167 -29 87.5s-47.666 30.5 -84.999 30.5c-36.667 0 -65.167 -11.333 -85.5 -34s-30.5 -51 -30.5 -85zM347.003 698.001c0 -15.333 -5.66699 -28.5 -17 -39.5
s-25 -16.5 -41 -16.5s-29.5 5.5 -40.5 16.5s-16.5 24.167 -16.5 39.5c0 9.33301 1.33301 18.333 4 27s7 19 13 31l50 106h53l-28 -117c15.333 -12 23 -27.667 23 -47z" />
    <glyph glyph-name="Hcircumflex" unicode="&#x124;" 
d="M425 0v323h-250v-323h-95v689h95v-288h250v288h95v-689h-95zM174 759l-40 45l136 111h61l135 -111l-39 -45l-127 81z" />
    <glyph glyph-name="hcircumflex" unicode="&#x125;" 
d="M97 0l0.00195312 737.999l92 10v-288c21.333 25.333 46.666 44.833 75.999 58.5s59.666 20.5 90.999 20.5c51.333 0 88.833 -13.667 112.5 -41s35.5 -65.666 35.5 -114.999v-383h-92v377c0 32 -7 55 -21 69s-36 21 -66 21c-14 0 -27.667 -2.5 -41 -7.5
s-25.833 -11.5 -37.5 -19.5s-22.5 -17.167 -32.5 -27.5s-18.333 -20.5 -25 -30.5v-382h-92zM174.002 778.999l-40 45l136 111h61l135 -111l-39 -45l-127 81z" />
    <glyph glyph-name="Hbar" unicode="&#x126;" 
d="M425 0v323h-250v-323h-95v508h-77v69h77v112h95v-112h250v112h95v-112h78v-69h-78v-508h-95zM425 401v107h-250v-107h250z" />
    <glyph glyph-name="hbar" unicode="&#x127;" 
d="M103 0l0.00195312 596.999h-79v70h79v71l92 10v-81h166v-70h-166v-137c21.333 25.333 46.666 44.833 75.999 58.5s59.666 20.5 90.999 20.5c51.333 0 88.833 -13.667 112.5 -41s35.5 -65.666 35.5 -114.999v-383h-92v377c0 32 -7 55 -21 69s-36 21 -66 21
c-14 0 -27.667 -2.5 -41 -7.5s-25.833 -11.5 -37.5 -19.5s-22.5 -17.167 -32.5 -27.5s-18.333 -20.5 -25 -30.5v-382h-92z" />
    <glyph glyph-name="Itilde" unicode="&#x128;" 
d="M500 614h-152v-539h152v-75h-400v75h152v539h-152v75h400v-75zM353 773c-14.667 0 -27.168 2.5 -37.501 7.5s-19.5 10.5 -27.5 16.5l-22.5 16.5c-7 5 -14.5 7.5 -22.5 7.5c-11.333 0 -20.666 -3.83301 -27.999 -11.5s-15 -18.5 -23 -32.5l-57 25c10 23.333 24 44 42 62
s41.667 27 71 27c14.667 0 27.334 -2.5 38.001 -7.5s20 -10.5 28 -16.5l22 -17c6.66699 -4.66699 14 -7 22 -7c11.333 0 20.666 3.66699 27.999 11s15 18 23 32l57 -25c-10.667 -23.333 -25 -43.833 -43 -61.5s-41.333 -26.5 -70 -26.5z" />
    <glyph glyph-name="itilde" unicode="&#x129;" 
d="M517 0h-400v71h161v385h-156v71h248v-456h147v-71zM344 650c-14.667 0 -27.168 2.5 -37.501 7.5s-19.5 10.5 -27.5 16.5l-22.5 16.5c-7 5 -14.5 7.5 -22.5 7.5c-11.333 0 -20.666 -3.83301 -27.999 -11.5s-15 -18.5 -23 -32.5l-57 26c10 23.333 24.167 43.833 42.5 61.5
s41.833 26.5 70.5 26.5c14.667 0 27.334 -2.5 38.001 -7.5s20 -10.5 28 -16.5l22 -17c6.66699 -4.66699 14 -7 22 -7c11.333 0 20.666 3.83301 27.999 11.5s15 18.5 23 32.5l57 -25c-10 -23.333 -24.167 -44 -42.5 -62s-41.833 -27 -70.5 -27z" />
    <glyph glyph-name="Imacron" unicode="&#x12a;" 
d="M500 614h-152v-539h152v-75h-400v75h152v539h-152v75h400v-75zM436 796h-273v70h273v-70z" />
    <glyph glyph-name="imacron" unicode="&#x12b;" 
d="M427 674h-273v69h273v-69zM517 0h-400v71h161v385h-156v71h248v-456h147v-71z" />
    <glyph glyph-name="Ibreve" unicode="&#x12c;" 
d="M500 614h-152v-539h152v-75h-400v75h152v539h-152v75h400v-75zM299 760c-23.333 0 -44 4 -62 12s-33.167 18.333 -45.5 31s-22 26.667 -29 42s-11.5 30.666 -13.5 45.999l61 13c13.333 -49.333 43 -74 89 -74c47.333 0 77.666 24.667 90.999 74l61 -13
c-2 -15.333 -6.66699 -30.666 -14 -45.999s-17.166 -29.333 -29.499 -42s-27.5 -23 -45.5 -31s-39 -12 -63 -12z" />
    <glyph glyph-name="ibreve" unicode="&#x12d;" 
d="M298 628c-23.333 0 -43.8311 4.33301 -61.498 13s-32.834 19.667 -45.501 33s-22.5 28.333 -29.5 45s-11.5 33 -13.5 49l61 13c7.33301 -25.333 18.166 -45.666 32.499 -60.999s33.166 -23 56.499 -23c24 0 43.5 7.66699 58.5 23s26.167 35.666 33.5 60.999l61 -13
c-2 -16 -6.66699 -32.333 -14 -49s-17.333 -31.667 -30 -45s-28.167 -24.333 -46.5 -33s-39.166 -13 -62.499 -13zM517.002 0h-400v71h161v385h-156v71h248v-456h147v-71z" />
    <glyph glyph-name="Iogonek" unicode="&#x12e;" 
d="M500 614l-152 0.000976562v-539h152v-75h-152c-18.667 -10.667 -33.834 -21.667 -45.501 -33s-20.667 -22.5 -27 -33.5s-10.666 -21.667 -12.999 -32s-3.5 -19.833 -3.5 -28.5c0 -15.333 5 -28 15 -38s26.333 -15 49 -15c13.333 0 25.5 1.66699 36.5 5
s19.5 6.66602 25.5 9.99902l25 -54c-16 -8 -31.833 -13.667 -47.5 -17s-32.167 -5 -49.5 -5c-42 0 -74.333 10 -97 30s-34 47 -34 81c0 24 8.16699 47.5 24.5 70.5s38.833 42.833 67.5 59.5h-174v75h152v539h-152v75h400v-75z" />
    <glyph glyph-name="iogonek" unicode="&#x12f;" 
d="M517 0l-145 0.000976562c-18.667 -10.667 -33.834 -21.667 -45.501 -33s-20.667 -22.5 -27 -33.5s-10.666 -21.667 -12.999 -32s-3.5 -19.833 -3.5 -28.5c0 -15.333 5 -28 15 -38s26.333 -15 49 -15c13.333 0 25.5 1.66699 36.5 5s19.5 6.66602 25.5 9.99902l25 -54
c-16 -8 -31.833 -13.667 -47.5 -17s-32.167 -5 -49.5 -5c-42 0 -74.333 10 -97 30s-34 47 -34 81c0 24 8.16699 47.5 24.5 70.5s38.833 42.833 67.5 59.5h-181v71h161v385h-156v71h248v-456h147v-71zM389 715.001c0 -18 -6 -33 -18 -45s-27.667 -18 -47 -18
s-34.833 6 -46.5 18s-17.5 27 -17.5 45c0 17.333 5.83301 32 17.5 44s27.167 18 46.5 18s35 -6 47 -18s18 -26.667 18 -44z" />
    <glyph glyph-name="Idotaccent" unicode="&#x130;" 
d="M501 614h-152v-539h152v-75h-400v75h152v539h-152v75h400v-75zM364 837c0 -18 -5.83301 -33 -17.5 -45s-27.167 -18 -46.5 -18s-34.833 6 -46.5 18s-17.5 27 -17.5 45c0 17.333 5.83301 32 17.5 44s27.167 18 46.5 18s34.833 -6 46.5 -18s17.5 -26.667 17.5 -44z" />
    <glyph glyph-name="dotlessi" unicode="&#x131;" 
d="M517 0h-400v71h161v385h-156v71h248v-456h147v-71z" />
    <glyph glyph-name="IJ" unicode="&#x132;" 
d="M198 -68c42.667 14 79.5 28.833 110.5 44.5s56.667 33.667 77 54s35.333 43.5 45 69.5s14.5 56 14.5 90v424h-236v-539h77v-75h-270v75h97v539h-97v75h524v-503c0 -74.667 -25.667 -140 -77 -196s-132 -99 -242 -129z" />
    <glyph glyph-name="ij" unicode="&#x133;" 
d="M328 0l-271.002 -0.000976562v71h91v387h-86v69h453v-465c0 -38 -6.66699 -71.5 -20 -100.5s-31.666 -54.5 -54.999 -76.5s-50.833 -40.833 -82.5 -56.5s-65.834 -29.5 -102.501 -41.5l-28 71c24.667 9.33301 48.834 19.5 72.501 30.5s44.834 24.333 63.501 40
s33.667 33.834 45 54.501s17 45 17 73v402h-188v-387h91v-71zM258.998 714.999c0 -18 -6 -33 -18 -45s-27.667 -18 -47 -18s-34.833 6 -46.5 18s-17.5 27 -17.5 45c0 17.333 5.83301 32 17.5 44s27.167 18 46.5 18s35 -6 47 -18s18 -26.667 18 -44zM523.998 714.999
c0 -18 -6 -33 -18 -45s-27.667 -18 -47 -18s-34.833 6 -46.5 18s-17.5 27 -17.5 45c0 17.333 5.83301 32 17.5 44s27.167 18 46.5 18s35 -6 47 -18s18 -26.667 18 -44z" />
    <glyph glyph-name="Jcircumflex" unicode="&#x134;" 
d="M450 186c0 -74.667 -25.667 -140 -77 -196s-132 -99 -242 -129l-23 71c42.667 14 79.5 28.833 110.5 44.5s56.667 33.667 77 54s35.333 43.5 45 69.5s14.5 56 14.5 90v424h-245v75h340v-503zM168 759l-40 45l136 111h61l135 -111l-39 -45l-127 81z" />
    <glyph glyph-name="jcircumflex" unicode="&#x135;" 
d="M176 627l-42 44l136 121h61l135 -121l-40 -44l-125 91zM90 -142c24.667 9.33301 48.833 19.499 72.5 30.499s44.667 24.333 63 40s33 33.834 44 54.501s16.5 45 16.5 73v400h-171v71h263v-465c0 -38 -6.66699 -71.5 -20 -100.5s-31.666 -54.5 -54.999 -76.5
s-50.833 -40.833 -82.5 -56.5s-65.834 -29.5 -102.501 -41.5z" />
    <glyph glyph-name="uni0136" unicode="&#x136;" 
d="M195 0h-95v689h95v-689zM200 368l262 321h108l-261 -315l280 -374h-117zM251 -126c0 16 5.66602 29.333 16.999 40s25 16 41 16s29.5 -5.33301 40.5 -16s16.5 -24 16.5 -40c0 -15.333 -5.66699 -34.333 -17 -57l-50 -106h-53l29 116c-7.33301 6 -13.166 13 -17.499 21
s-6.5 16.667 -6.5 26z" />
    <glyph glyph-name="uni0137" unicode="&#x137;" 
d="M97 0v739l92 11v-750h-92zM198 288l222 239h115l-225 -237l251 -290h-118zM236 -126c0 16 5.5 29.333 16.5 40s24.5 16 40.5 16s29.5 -5.33301 40.5 -16s16.5 -24 16.5 -40c0 -9.33301 -1.33301 -18.333 -4 -27s-6.66699 -19 -12 -31l-50 -106h-54l29 117
c-15.333 12 -23 27.667 -23 47z" />
    <glyph glyph-name="kgreenlandic" unicode="&#x138;" 
d="M97 0v527h92v-527h-92zM198 282l222 245h115l-227 -239l253 -288h-118z" />
    <glyph glyph-name="Lacute" unicode="&#x139;" 
d="M131 0v689h95v-606h313l-11 -83h-397zM100 804l189 109l47 -77l-208 -81z" />
    <glyph glyph-name="lacute" unicode="&#x13a;" 
d="M496 16c-12.667 -7.33301 -30.833 -13.832 -54.5 -19.499s-48.167 -8.5 -73.5 -8.5c-48.667 0 -87.5 13.5 -116.5 40.5s-43.5 64.833 -43.5 113.5v526h-161v71h253v-605c0 -25.333 7.83301 -43.333 23.5 -54s36.167 -16 61.5 -16c14 0 28.5 1.66699 43.5 5
s29.5 7.66602 43.5 12.999zM139.001 824.001l189 109l47 -77l-208 -81z" />
    <glyph glyph-name="uni013B" unicode="&#x13b;" 
d="M131 0v689h95v-606h313l-11 -83h-397zM268 -126c0 16 5.66602 29.333 16.999 40s25 16 41 16s29.5 -5.33301 40.5 -16s16.5 -24 16.5 -40c0 -15.333 -5.66699 -34.333 -17 -57l-50 -106h-53l29 116c-7.33301 6 -13.166 13 -17.499 21s-6.5 16.667 -6.5 26z" />
    <glyph glyph-name="uni013C" unicode="&#x13c;" 
d="M496 16c-12.667 -7.33301 -30.833 -13.832 -54.5 -19.499s-48.167 -8.5 -73.5 -8.5c-48.667 0 -87.5 13.5 -116.5 40.5s-43.5 64.833 -43.5 113.5v526h-161v71h253v-605c0 -25.333 7.83301 -43.333 23.5 -54s36.167 -16 61.5 -16c14 0 28.5 1.66699 43.5 5
s29.5 7.66602 43.5 12.999zM290.001 -125.999c0 16 5.5 29.333 16.5 40s24.5 16 40.5 16s29.5 -5.33301 40.5 -16s16.5 -24 16.5 -40c0 -9.33301 -1.33301 -18.333 -4 -27s-6.66699 -19 -12 -31l-50 -106h-54l29 117c-15.333 12 -23 27.667 -23 47z" />
    <glyph glyph-name="Lcaron" unicode="&#x13d;" 
d="M131 0v689h95v-606h313l-11 -83h-397zM314 638c0 15.333 5.66699 28.333 17 39s25 16 41 16s29.5 -5.33301 40.5 -16s16.5 -23.667 16.5 -39c0 -9.33301 -1.33301 -18.333 -4 -27s-7 -19 -13 -31l-50 -106h-53l28 117c-15.333 12 -23 27.667 -23 47z" />
    <glyph glyph-name="lcaron" unicode="&#x13e;" 
d="M496 16c-12.667 -7.33301 -30.833 -13.832 -54.5 -19.499s-48.167 -8.5 -73.5 -8.5c-48.667 0 -87.5 13.5 -116.5 40.5s-43.5 64.833 -43.5 113.5v526h-161v71h253v-605c0 -25.333 7.83301 -43.333 23.5 -54s36.167 -16 61.5 -16c14 0 28.5 1.66699 43.5 5
s29.5 7.66602 43.5 12.999zM392.001 763.001c0 15.333 5.66699 28.333 17 39s25 16 41 16s29.5 -5.33301 40.5 -16s16.5 -23.667 16.5 -39c0 -9.33301 -1.33301 -18.333 -4 -27s-7 -19 -13 -31l-50 -106h-53l28 117c-15.333 12 -23 27.667 -23 47z" />
    <glyph glyph-name="Ldot" unicode="&#x13f;" 
d="M131 0v689h95v-606h313l-11 -83h-397zM477 362c0 -18 -6 -33 -18 -45s-27.667 -18 -47 -18s-34.833 6 -46.5 18s-17.5 27 -17.5 45c0 17.333 5.83301 32 17.5 44s27.167 18 46.5 18s35 -6 47 -18s18 -26.667 18 -44z" />
    <glyph glyph-name="ldot" unicode="&#x140;" 
d="M496 16c-12.667 -7.33301 -30.833 -13.832 -54.5 -19.499s-48.167 -8.5 -73.5 -8.5c-48.667 0 -87.5 13.5 -116.5 40.5s-43.5 64.833 -43.5 113.5v526h-161v71h253v-605c0 -25.333 7.83301 -43.333 23.5 -54s36.167 -16 61.5 -16c14 0 28.5 1.66699 43.5 5
s29.5 7.66602 43.5 12.999zM481.001 360.001c0 -18 -6 -33 -18 -45s-27.667 -18 -47 -18s-34.833 6 -46.5 18s-17.5 27 -17.5 45c0 17.333 5.83301 32 17.5 44s27.167 18 46.5 18s35 -6 47 -18s18 -26.667 18 -44z" />
    <glyph glyph-name="Lslash" unicode="&#x141;" 
d="M131 0v264l-56 -35l-38 60l94 57v343h95v-284l160 100l39 -59l-199 -123v-240h313l-11 -83h-397z" />
    <glyph glyph-name="lslash" unicode="&#x142;" 
d="M496 16c-12.667 -7.33301 -30.833 -13.832 -54.5 -19.499s-48.167 -8.5 -73.5 -8.5c-48.667 0 -87.5 13.5 -116.5 40.5s-43.5 64.833 -43.5 113.5v159l-65 -40l-38 58l103 62v287h-161v71h253v-301l87 54l38 -58l-125 -77v-223c0 -25.333 7.83301 -43.333 23.5 -54
s36.167 -16 61.5 -16c14 0 28.5 1.66699 43.5 5s29.5 7.66602 43.5 12.999z" />
    <glyph glyph-name="Nacute" unicode="&#x143;" 
d="M390 0l-231.998 583.003h-4c0.666992 -4 1.66699 -14 3 -30s2.66602 -35.667 3.99902 -59s2.66602 -48.833 3.99902 -76.5s2 -54.834 2 -81.501v-336h-87v689h127l235 -586h4c-0.666992 4 -1.66699 13.5 -3 28.5s-2.83301 33.667 -4.5 56s-3 47.666 -4 75.999
s-1.5 58.166 -1.5 89.499v336h87v-689h-130zM202.002 804.003l189 109l47 -77l-208 -81z" />
    <glyph glyph-name="nacute" unicode="&#x144;" 
d="M97 0l0.000976562 527h79l7 -72c21.333 27.333 47.666 48.166 78.999 62.499s62.666 21.5 93.999 21.5c51.333 0 88.833 -13.667 112.5 -41s35.5 -65.666 35.5 -114.999v-383h-92v323c0 26 -1 48 -3 66s-6 32.833 -12 44.5s-14.667 20.167 -26 25.5s-26.666 8 -45.999 8
c-14 0 -27.667 -2.5 -41 -7.5s-25.833 -11.5 -37.5 -19.5s-22.5 -17.167 -32.5 -27.5s-18.333 -20.5 -25 -30.5v-382h-92zM195.001 672l188 119l47 -77l-205 -92z" />
    <glyph glyph-name="uni0145" unicode="&#x145;" 
d="M390 0l-231.998 583.003h-4c0.666992 -4 1.66699 -14 3 -30s2.66602 -35.667 3.99902 -59s2.66602 -48.833 3.99902 -76.5s2 -54.834 2 -81.501v-336h-87v689h127l235 -586h4c-0.666992 4 -1.66699 13.5 -3 28.5s-2.83301 33.667 -4.5 56s-3 47.666 -4 75.999
s-1.5 58.166 -1.5 89.499v336h87v-689h-130zM242.002 -125.997c0 16 5.66602 29.333 16.999 40s25 16 41 16s29.5 -5.33301 40.5 -16s16.5 -24 16.5 -40c0 -15.333 -5.66699 -34.333 -17 -57l-50 -106h-53l29 116c-7.33301 6 -13.166 13 -17.499 21s-6.5 16.667 -6.5 26z
" />
    <glyph glyph-name="uni0146" unicode="&#x146;" 
d="M97 0l0.000976562 527h79l7 -72c21.333 27.333 47.666 48.166 78.999 62.499s62.666 21.5 93.999 21.5c51.333 0 88.833 -13.667 112.5 -41s35.5 -65.666 35.5 -114.999v-383h-92v323c0 26 -1 48 -3 66s-6 32.833 -12 44.5s-14.667 20.167 -26 25.5s-26.666 8 -45.999 8
c-14 0 -27.667 -2.5 -41 -7.5s-25.833 -11.5 -37.5 -19.5s-22.5 -17.167 -32.5 -27.5s-18.333 -20.5 -25 -30.5v-382h-92zM244.001 -126c0 16 5.5 29.333 16.5 40s24.5 16 40.5 16s29.5 -5.33301 40.5 -16s16.5 -24 16.5 -40c0 -9.33301 -1.33301 -18.333 -4 -27
s-6.66699 -19 -12 -31l-50 -106h-54l29 117c-15.333 12 -23 27.667 -23 47z" />
    <glyph glyph-name="Ncaron" unicode="&#x147;" 
d="M390 0l-231.998 583.003h-4c0.666992 -4 1.66699 -14 3 -30s2.66602 -35.667 3.99902 -59s2.66602 -48.833 3.99902 -76.5s2 -54.834 2 -81.501v-336h-87v689h127l235 -586h4c-0.666992 4 -1.66699 13.5 -3 28.5s-2.83301 33.667 -4.5 56s-3 47.666 -4 75.999
s-1.5 58.166 -1.5 89.499v336h87v-689h-130zM300.002 833.003l126 82l39 -45l-135 -111h-61l-136 111l40 45z" />
    <glyph glyph-name="ncaron" unicode="&#x148;" 
d="M97 0l0.000976562 527h79l7 -72c21.333 27.333 47.666 48.166 78.999 62.499s62.666 21.5 93.999 21.5c51.333 0 88.833 -13.667 112.5 -41s35.5 -65.666 35.5 -114.999v-383h-92v323c0 26 -1 48 -3 66s-6 32.833 -12 44.5s-14.667 20.167 -26 25.5s-26.666 8 -45.999 8
c-14 0 -27.667 -2.5 -41 -7.5s-25.833 -11.5 -37.5 -19.5s-22.5 -17.167 -32.5 -27.5s-18.333 -20.5 -25 -30.5v-382h-92zM306.001 701l125 91l40 -44l-135 -121h-61l-136 121l42 44z" />
    <glyph glyph-name="napostrophe" unicode="&#x149;" 
d="M97 0l0.000976562 527h79l7 -72c21.333 27.333 47.666 48.166 78.999 62.499s62.666 21.5 93.999 21.5c51.333 0 88.833 -13.667 112.5 -41s35.5 -65.666 35.5 -114.999v-383h-92v323c0 26 -1 48 -3 66s-6 32.833 -12 44.5s-14.667 20.167 -26 25.5s-26.666 8 -45.999 8
c-14 0 -27.667 -2.5 -41 -7.5s-25.833 -11.5 -37.5 -19.5s-22.5 -17.167 -32.5 -27.5s-18.333 -20.5 -25 -30.5v-382h-92zM47.001 807c0 15.333 5.66699 28.333 17 39s25 16 41 16s29.5 -5.33301 40.5 -16s16.5 -23.667 16.5 -39c0 -9.33301 -1.33301 -18.333 -4 -27
s-7 -19 -13 -31l-50 -106h-53l28 117c-15.333 12 -23 27.667 -23 47z" />
    <glyph glyph-name="Eng" unicode="&#x14a;" 
d="M520 0c0 -28.667 -4.16309 -53.9941 -12.4961 -75.9941s-20.333 -41.667 -36 -59s-34.5 -32.333 -56.5 -45s-46.667 -23.667 -74 -33l-24 72c22 8.66699 40.167 17.667 54.5 27s25.666 19.666 33.999 30.999s14.166 23.666 17.499 36.999s5 28.666 5 45.999h-38l-232 583
h-4c0.666992 -4 1.66699 -14 3 -30s2.66602 -35.667 3.99902 -59s2.66602 -48.833 3.99902 -76.5s2 -54.834 2 -81.501v-336h-87v689h127l235 -586h4c-0.666992 4 -1.66699 13.5 -3 28.5s-2.83301 33.667 -4.5 56s-3 47.666 -4 75.999s-1.5 58.166 -1.5 89.499v336h87v-689z
" />
    <glyph glyph-name="eng" unicode="&#x14b;" 
d="M504 32c0 -38 -3.49805 -69.8311 -10.498 -95.498s-17.167 -47.5 -30.5 -65.5s-30 -33.333 -50 -46s-43.333 -25 -70 -37l-34 67c17.333 8 32.5 16.167 45.5 24.5s23.667 18.666 32 30.999s14.666 27.666 18.999 45.999s6.5 41.5 6.5 69.5v297c0 26 -1 48 -3 66
s-6 32.833 -12 44.5s-14.667 20.167 -26 25.5s-26.666 8 -45.999 8c-14 0 -27.667 -2.5 -41 -7.5s-25.833 -11.5 -37.5 -19.5s-22.5 -17.167 -32.5 -27.5s-18.333 -20.5 -25 -30.5v-382h-92v527h79l7 -72c21.333 27.333 47.666 48.166 78.999 62.499
s62.666 21.5 93.999 21.5c51.333 0 88.833 -13.667 112.5 -41s35.5 -65.666 35.5 -114.999v-351z" />
    <glyph glyph-name="Omacron" unicode="&#x14c;" 
d="M556 344c0 -52.667 -5.33301 -100.837 -16 -144.504s-26.834 -81.167 -48.501 -112.5s-48.5 -55.666 -80.5 -72.999s-69 -26 -111 -26s-79 8.5 -111 25.5s-58.833 41 -80.5 72s-37.834 68.333 -48.501 112s-16 92.167 -16 145.5c0 52.667 5.33301 100.834 16 144.501
s26.834 81.334 48.501 113.001s48.5 56.334 80.5 74.001s69 26.5 111 26.5s79 -8.5 111 -25.5s58.833 -41.167 80.5 -72.5s37.834 -69 48.501 -113s16 -92.667 16 -146zM457 343.997c0 90.667 -12.167 159.833 -36.5 207.5s-64.5 71.5 -120.5 71.5s-96.167 -24 -120.5 -72
s-36.5 -117.333 -36.5 -208c0 -91.333 12.5 -160.333 37.5 -207s64.833 -70 119.5 -70c56 0 96.167 23.5 120.5 70.5s36.5 116.167 36.5 207.5zM436 795.996h-273v70h273v-70z" />
    <glyph glyph-name="omacron" unicode="&#x14d;" 
d="M436 674h-273v69h273v-69zM432 264c0 68.667 -10.833 119.334 -32.5 152.001s-54.5 49 -98.5 49s-77.167 -16.333 -99.5 -49s-33.5 -83.667 -33.5 -153c0 -68.667 11 -119.334 33 -152.001s55 -49 99 -49s77 16.333 99 49s33 83.667 33 153zM70 263c0 40.667 5 78 15 112
s24.667 63.167 44 87.5s43.5 43.166 72.5 56.499s62.167 20 99.5 20s70.333 -6.5 99 -19.5s52.667 -31.5 72 -55.5s33.833 -52.833 43.5 -86.5s14.5 -71.5 14.5 -113.5c0 -40.667 -5 -78 -15 -112s-24.667 -63.167 -44 -87.5s-43.333 -43.166 -72 -56.499
s-61.667 -20 -99 -20s-70.333 6.5 -99 19.5s-52.667 31.5 -72 55.5s-34 52.833 -44 86.5s-15 71.5 -15 113.5z" />
    <glyph glyph-name="Obreve" unicode="&#x14e;" 
d="M556 344c0 -52.667 -5.33301 -100.837 -16 -144.504s-26.834 -81.167 -48.501 -112.5s-48.5 -55.666 -80.5 -72.999s-69 -26 -111 -26s-79 8.5 -111 25.5s-58.833 41 -80.5 72s-37.834 68.333 -48.501 112s-16 92.167 -16 145.5c0 52.667 5.33301 100.834 16 144.501
s26.834 81.334 48.501 113.001s48.5 56.334 80.5 74.001s69 26.5 111 26.5s79 -8.5 111 -25.5s58.833 -41.167 80.5 -72.5s37.834 -69 48.501 -113s16 -92.667 16 -146zM457 343.997c0 90.667 -12.167 159.833 -36.5 207.5s-64.5 71.5 -120.5 71.5s-96.167 -24 -120.5 -72
s-36.5 -117.333 -36.5 -208c0 -91.333 12.5 -160.333 37.5 -207s64.833 -70 119.5 -70c56 0 96.167 23.5 120.5 70.5s36.5 116.167 36.5 207.5zM299 759.996c-23.333 0 -44 4 -62 12s-33.167 18.333 -45.5 31s-22 26.667 -29 42s-11.5 30.666 -13.5 45.999l61 13
c13.333 -49.333 43 -74 89 -74c47.333 0 77.666 24.667 90.999 74l61 -13c-2 -15.333 -6.66699 -30.666 -14 -45.999s-17.166 -29.333 -29.499 -42s-27.5 -23 -45.5 -31s-39 -12 -63 -12z" />
    <glyph glyph-name="obreve" unicode="&#x14f;" 
d="M432 264c0 68.667 -10.833 119.334 -32.5 152.001s-54.5 49 -98.5 49s-77.167 -16.333 -99.5 -49s-33.5 -83.667 -33.5 -153c0 -68.667 11 -119.334 33 -152.001s55 -49 99 -49s77 16.333 99 49s33 83.667 33 153zM70 263c0 40.667 5 78 15 112s24.667 63.167 44 87.5
s43.5 43.166 72.5 56.499s62.167 20 99.5 20s70.333 -6.5 99 -19.5s52.667 -31.5 72 -55.5s33.833 -52.833 43.5 -86.5s14.5 -71.5 14.5 -113.5c0 -40.667 -5 -78 -15 -112s-24.667 -63.167 -44 -87.5s-43.333 -43.166 -72 -56.499s-61.667 -20 -99 -20
s-70.333 6.5 -99 19.5s-52.667 31.5 -72 55.5s-34 52.833 -44 86.5s-15 71.5 -15 113.5zM298 628c-23.333 0 -43.8311 4.33301 -61.498 13s-32.834 19.667 -45.501 33s-22.5 28.333 -29.5 45s-11.5 33 -13.5 49l61 13c7.33301 -25.333 18.166 -45.666 32.499 -60.999
s33.166 -23 56.499 -23c24 0 43.5 7.66699 58.5 23s26.167 35.666 33.5 60.999l61 -13c-2 -16 -6.66699 -32.333 -14 -49s-17.333 -31.667 -30 -45s-28.167 -24.333 -46.5 -33s-39.166 -13 -62.499 -13z" />
    <glyph glyph-name="Ohungarumlaut" unicode="&#x150;" 
d="M556 344c0 -52.667 -5.33301 -100.837 -16 -144.504s-26.834 -81.167 -48.501 -112.5s-48.5 -55.666 -80.5 -72.999s-69 -26 -111 -26s-79 8.5 -111 25.5s-58.833 41 -80.5 72s-37.834 68.333 -48.501 112s-16 92.167 -16 145.5c0 52.667 5.33301 100.834 16 144.501
s26.834 81.334 48.501 113.001s48.5 56.334 80.5 74.001s69 26.5 111 26.5s79 -8.5 111 -25.5s58.833 -41.167 80.5 -72.5s37.834 -69 48.501 -113s16 -92.667 16 -146zM457 343.997c0 90.667 -12.167 159.833 -36.5 207.5s-64.5 71.5 -120.5 71.5s-96.167 -24 -120.5 -72
s-36.5 -117.333 -36.5 -208c0 -91.333 12.5 -160.333 37.5 -207s64.833 -70 119.5 -70c56 0 96.167 23.5 120.5 70.5s36.5 116.167 36.5 207.5zM195 791.996l80 176l78 -37l-100 -166zM359 791.996l89 176l77 -40l-110 -165z" />
    <glyph glyph-name="ohungarumlaut" unicode="&#x151;" 
d="M144 662l80 176l78 -37l-100 -166zM308 662l89 176l77 -40l-110 -165zM432 264c0 68.667 -10.833 119.334 -32.5 152.001s-54.5 49 -98.5 49s-77.167 -16.333 -99.5 -49s-33.5 -83.667 -33.5 -153c0 -68.667 11 -119.334 33 -152.001s55 -49 99 -49s77 16.333 99 49
s33 83.667 33 153zM70 263c0 40.667 5 78 15 112s24.667 63.167 44 87.5s43.5 43.166 72.5 56.499s62.167 20 99.5 20s70.333 -6.5 99 -19.5s52.667 -31.5 72 -55.5s33.833 -52.833 43.5 -86.5s14.5 -71.5 14.5 -113.5c0 -40.667 -5 -78 -15 -112s-24.667 -63.167 -44 -87.5
s-43.333 -43.166 -72 -56.499s-61.667 -20 -99 -20s-70.333 6.5 -99 19.5s-52.667 31.5 -72 55.5s-34 52.833 -44 86.5s-15 71.5 -15 113.5z" />
    <glyph glyph-name="OE" unicode="&#x152;" 
d="M330 344c0 50.667 -2.16406 93.667 -6.49707 129s-11.333 64.333 -21 87s-21.834 39.167 -36.501 49.5s-32.334 15.5 -53.001 15.5c-20 0 -37.167 -5.16699 -51.5 -15.5s-26.166 -26.833 -35.499 -49.5s-16.333 -51.834 -21 -87.501s-7 -78.834 -7 -129.501
s2.5 -93.667 7.5 -129s12.167 -64.166 21.5 -86.499s21.166 -38.666 35.499 -48.999s31.166 -15.5 50.499 -15.5c20 0 37.5 5.16699 52.5 15.5s27.167 26.666 36.5 48.999s16.333 51.333 21 87s7 78.834 7 129.501zM359.003 614c17.333 -22 31.3301 -51.501 41.9971 -88.501
s17.334 -83.167 20.001 -138.5h150v-75h-150c-1.33301 -57.333 -7.83301 -105.333 -19.5 -144s-27.167 -69.667 -46.5 -93h260v-75h-331c-11.333 -3.33301 -22.666 -6.16602 -33.999 -8.49902s-23.666 -3.5 -36.999 -3.5c-72.667 0 -126.334 29.667 -161.001 89
s-52 148 -52 266c0 116 17.5 204.667 52.5 266s88.5 92 160.5 92c13.333 0 25.833 -1 37.5 -3s23.834 -5 36.501 -9h320l-11 -75h-237z" />
    <glyph glyph-name="oe" unicode="&#x153;" 
d="M448 539c29.333 0 54.499 -5.99902 75.499 -17.999s38.167 -29.167 51.5 -51.5s23.166 -49.5 29.499 -81.5s9.5 -68.333 9.5 -109c0 -9.33301 -0.166992 -17.833 -0.5 -25.5s-0.833008 -14.834 -1.5 -21.501h-260c4.66699 -58.667 15.334 -101.667 32.001 -129
s42 -41 76 -41c18.667 0 35 3.33301 49 10s29.333 16.334 46 29.001l41 -60c-20 -16 -40.833 -28.833 -62.5 -38.5s-46.834 -14.5 -75.501 -14.5c-36.667 0 -67.5 8.5 -92.5 25.5s-44.167 41.5 -57.5 73.5c-12.667 -30 -29.5 -54 -50.5 -72s-50.833 -27 -89.5 -27
c-29.333 0 -54.833 6.5 -76.5 19.5s-39.5 31.5 -53.5 55.5s-24.333 52.833 -31 86.5s-10 71.5 -10 113.5c0 40.667 3.33301 78 10 112s16.834 63.167 30.501 87.5s31.334 43.166 53.001 56.499s47.5 20 77.5 20c40.667 0 71.5 -9.16699 92.5 -27.5
s37.167 -42.833 48.5 -73.5c12 29.333 28.833 53.5 50.5 72.5s51.167 28.5 88.5 28.5zM262.999 264.001c0 69.333 -6.33301 120.332 -19 152.999s-34.667 49 -66 49c-32 0 -54.5 -16.5 -67.5 -49.5s-19.5 -84.167 -19.5 -153.5c0 -71.333 6.5 -122.666 19.5 -153.999
s35.5 -47 67.5 -47c31.333 0 53.333 15.167 66 45.5s19 82.5 19 156.5zM444.999 466c-14.667 0 -27.332 -2.83301 -37.999 -8.5s-19.834 -15 -27.501 -28s-13.667 -30.167 -18 -51.5s-7.5 -47.333 -9.5 -78h176c-1.33301 54.667 -7.5 96 -18.5 124s-32.5 42 -64.5 42z" />
    <glyph glyph-name="Racute" unicode="&#x154;" 
d="M540 494c0 -26 -4.16699 -49.3311 -12.5 -69.998s-20 -38.834 -35 -54.501s-32.5 -29 -52.5 -40s-41.667 -19.5 -65 -25.5l202 -304h-113l-184 292h-88v-292h-95v689h181c86.667 0 152 -16.333 196 -49s66 -81.334 66 -146.001zM439 494.002
c0 43.333 -12.333 74.332 -37 92.999s-63 28 -115 28h-95v-250h96c48 0 85.167 9.83301 111.5 29.5s39.5 52.834 39.5 99.501zM186 804.001l189 109l47 -77l-208 -81z" />
    <glyph glyph-name="racute" unicode="&#x155;" 
d="M452 0l-359.997 0.000976562v71h121v385h-121v71h201l11 -101c15.333 37.333 36.333 65.5 63 84.5s55.667 28.5 87 28.5c12.667 0 23.667 -0.5 33 -1.5s21.666 -3.16699 36.999 -6.5l-17 -91c-13.333 3.33301 -24.5 5.66602 -33.5 6.99902s-19.167 2 -30.5 2
c-16.667 0 -32.334 -3.83301 -47.001 -11.5s-28 -18 -40 -31s-22.333 -28 -31 -45s-15.334 -34.5 -20.001 -52.5v-238h147v-71zM203.003 672.001l188 119l47 -77l-205 -92z" />
    <glyph glyph-name="uni0156" unicode="&#x156;" 
d="M540 494c0 -26 -4.16699 -49.3311 -12.5 -69.998s-20 -38.834 -35 -54.501s-32.5 -29 -52.5 -40s-41.667 -19.5 -65 -25.5l202 -304h-113l-184 292h-88v-292h-95v689h181c86.667 0 152 -16.333 196 -49s66 -81.334 66 -146.001zM439 494.002
c0 43.333 -12.333 74.332 -37 92.999s-63 28 -115 28h-95v-250h96c48 0 85.167 9.83301 111.5 29.5s39.5 52.834 39.5 99.501zM245 -125.999c0 16 5.66602 29.333 16.999 40s25 16 41 16s29.5 -5.33301 40.5 -16s16.5 -24 16.5 -40c0 -15.333 -5.66699 -34.333 -17 -57
l-50 -106h-53l29 116c-7.33301 6 -13.166 13 -17.499 21s-6.5 16.667 -6.5 26z" />
    <glyph glyph-name="uni0157" unicode="&#x157;" 
d="M452 0l-359.997 0.000976562v71h121v385h-121v71h201l11 -101c15.333 37.333 36.333 65.5 63 84.5s55.667 28.5 87 28.5c12.667 0 23.667 -0.5 33 -1.5s21.666 -3.16699 36.999 -6.5l-17 -91c-13.333 3.33301 -24.5 5.66602 -33.5 6.99902s-19.167 2 -30.5 2
c-16.667 0 -32.334 -3.83301 -47.001 -11.5s-28 -18 -40 -31s-22.333 -28 -31 -45s-15.334 -34.5 -20.001 -52.5v-238h147v-71zM214.003 -125.999c0 16 5.5 29.333 16.5 40s24.5 16 40.5 16s29.5 -5.33301 40.5 -16s16.5 -24 16.5 -40c0 -9.33301 -1.33301 -18.333 -4 -27
s-6.66699 -19 -12 -31l-50 -106h-54l29 117c-15.333 12 -23 27.667 -23 47z" />
    <glyph glyph-name="Rcaron" unicode="&#x158;" 
d="M540 494c0 -26 -4.16699 -49.3311 -12.5 -69.998s-20 -38.834 -35 -54.501s-32.5 -29 -52.5 -40s-41.667 -19.5 -65 -25.5l202 -304h-113l-184 292h-88v-292h-95v689h181c86.667 0 152 -16.333 196 -49s66 -81.334 66 -146.001zM439 494.002
c0 43.333 -12.333 74.332 -37 92.999s-63 28 -115 28h-95v-250h96c48 0 85.167 9.83301 111.5 29.5s39.5 52.834 39.5 99.501zM290 833.001l126 82l39 -45l-135 -111h-61l-136 111l40 45z" />
    <glyph glyph-name="rcaron" unicode="&#x159;" 
d="M452 0l-359.997 0.000976562v71h121v385h-121v71h201l11 -101c15.333 37.333 36.333 65.5 63 84.5s55.667 28.5 87 28.5c12.667 0 23.667 -0.5 33 -1.5s21.666 -3.16699 36.999 -6.5l-17 -91c-13.333 3.33301 -24.5 5.66602 -33.5 6.99902s-19.167 2 -30.5 2
c-16.667 0 -32.334 -3.83301 -47.001 -11.5s-28 -18 -40 -31s-22.333 -28 -31 -45s-15.334 -34.5 -20.001 -52.5v-238h147v-71zM300.003 701.001l125 91l40 -44l-135 -121h-61l-136 121l42 44z" />
    <glyph glyph-name="Sacute" unicode="&#x15a;" 
d="M540 192c0 -30 -5.66699 -57.4971 -17 -82.4971s-27.833 -46.5 -49.5 -64.5s-48 -32 -79 -42s-66.167 -15 -105.5 -15c-54 0 -101.667 7.83301 -143 23.5s-76.666 37.5 -105.999 65.5l55 61c24 -22.667 51.333 -40.334 82 -53.001s67 -19 109 -19c20 0 39.333 2.5 58 7.5
s35.167 12.667 49.5 23s25.833 23.166 34.5 38.499s13 33.333 13 54c0 16 -2.33301 30.167 -7 42.5s-12.5 23.5 -23.5 33.5s-26.167 19.333 -45.5 28s-43.333 17.667 -72 27c-33.333 10 -63.333 21.167 -90 33.5s-49.334 26.5 -68.001 42.5s-32.834 34.167 -42.501 54.5
s-14.5 43.833 -14.5 70.5s5.66699 51 17 73s27 41 47 57s43.833 28.333 71.5 37s58.167 13 91.5 13c48 0 90.167 -7 126.5 -21s68.5 -33.667 96.5 -59l-54 -60c-24.667 21.333 -51 37 -79 47s-56.667 15 -86 15c-18.667 0 -36.167 -2 -52.5 -6s-30.5 -10 -42.5 -18
s-21.5 -18.167 -28.5 -30.5s-10.5 -26.833 -10.5 -43.5c0 -14.667 2.66699 -27.5 8 -38.5s14.333 -21.333 27 -31s29.334 -18.834 50.001 -27.501s46.667 -17.667 78 -27c27.333 -8.66699 53.333 -18.167 78 -28.5s46.167 -23.333 64.5 -39s32.833 -35 43.5 -58
s16 -50.833 16 -83.5zM193 804.003l189 109l47 -77l-208 -81z" />
    <glyph glyph-name="sacute" unicode="&#x15b;" 
d="M275 62c39.333 0 70.165 7.16797 92.498 21.501s33.5 33.833 33.5 58.5c0 12.667 -1.5 23.667 -4.5 33s-9 17.666 -18 24.999s-21.667 14 -38 20s-38.166 12.667 -65.499 20c-26 6.66699 -49.667 14.167 -71 22.5s-39.666 18.333 -54.999 30s-27.166 25.5 -35.499 41.5
s-12.5 35.667 -12.5 59c0 22 4.83301 42 14.5 60s23.5 33.333 41.5 46s39.5 22.5 64.5 29.5s52.833 10.5 83.5 10.5c38 0 72.167 -5.16699 102.5 -15.5s57.166 -23.833 80.499 -40.5l-41 -62c-19.333 14 -40.333 25 -63 33s-48.334 12 -77.001 12
c-41.333 0 -70.166 -5.83301 -86.499 -17.5s-24.5 -28.167 -24.5 -49.5c0 -11.333 2.16699 -20.833 6.5 -28.5s11.833 -14.834 22.5 -21.501s24.5 -13 41.5 -19s38.5 -12.667 64.5 -20c25.333 -7.33301 48.333 -15 69 -23s38.5 -18 53.5 -30s26.5 -26.667 34.5 -44
s12 -38.666 12 -63.999c0 -28.667 -6.33301 -53.167 -19 -73.5s-29.5 -37 -50.5 -50s-45 -22.5 -72 -28.5s-54.833 -9 -83.5 -9c-48.667 0 -90.667 7 -126 21s-64.666 31 -87.999 51l51 58c20.667 -17.333 45.167 -31 73.5 -41s58.166 -15 89.499 -15zM180.999 672.001
l188 119l47 -77l-205 -92z" />
    <glyph glyph-name="Scircumflex" unicode="&#x15c;" 
d="M540 192c0 -30 -5.66699 -57.4971 -17 -82.4971s-27.833 -46.5 -49.5 -64.5s-48 -32 -79 -42s-66.167 -15 -105.5 -15c-54 0 -101.667 7.83301 -143 23.5s-76.666 37.5 -105.999 65.5l55 61c24 -22.667 51.333 -40.334 82 -53.001s67 -19 109 -19c20 0 39.333 2.5 58 7.5
s35.167 12.667 49.5 23s25.833 23.166 34.5 38.499s13 33.333 13 54c0 16 -2.33301 30.167 -7 42.5s-12.5 23.5 -23.5 33.5s-26.167 19.333 -45.5 28s-43.333 17.667 -72 27c-33.333 10 -63.333 21.167 -90 33.5s-49.334 26.5 -68.001 42.5s-32.834 34.167 -42.501 54.5
s-14.5 43.833 -14.5 70.5s5.66699 51 17 73s27 41 47 57s43.833 28.333 71.5 37s58.167 13 91.5 13c48 0 90.167 -7 126.5 -21s68.5 -33.667 96.5 -59l-54 -60c-24.667 21.333 -51 37 -79 47s-56.667 15 -86 15c-18.667 0 -36.167 -2 -52.5 -6s-30.5 -10 -42.5 -18
s-21.5 -18.167 -28.5 -30.5s-10.5 -26.833 -10.5 -43.5c0 -14.667 2.66699 -27.5 8 -38.5s14.333 -21.333 27 -31s29.334 -18.834 50.001 -27.501s46.667 -17.667 78 -27c27.333 -8.66699 53.333 -18.167 78 -28.5s46.167 -23.333 64.5 -39s32.833 -35 43.5 -58
s16 -50.833 16 -83.5zM185 759.003l-40 45l136 111h61l135 -111l-39 -45l-127 81z" />
    <glyph glyph-name="scircumflex" unicode="&#x15d;" 
d="M275 62c39.333 0 70.165 7.16797 92.498 21.501s33.5 33.833 33.5 58.5c0 12.667 -1.5 23.667 -4.5 33s-9 17.666 -18 24.999s-21.667 14 -38 20s-38.166 12.667 -65.499 20c-26 6.66699 -49.667 14.167 -71 22.5s-39.666 18.333 -54.999 30s-27.166 25.5 -35.499 41.5
s-12.5 35.667 -12.5 59c0 22 4.83301 42 14.5 60s23.5 33.333 41.5 46s39.5 22.5 64.5 29.5s52.833 10.5 83.5 10.5c38 0 72.167 -5.16699 102.5 -15.5s57.166 -23.833 80.499 -40.5l-41 -62c-19.333 14 -40.333 25 -63 33s-48.334 12 -77.001 12
c-41.333 0 -70.166 -5.83301 -86.499 -17.5s-24.5 -28.167 -24.5 -49.5c0 -11.333 2.16699 -20.833 6.5 -28.5s11.833 -14.834 22.5 -21.501s24.5 -13 41.5 -19s38.5 -12.667 64.5 -20c25.333 -7.33301 48.333 -15 69 -23s38.5 -18 53.5 -30s26.5 -26.667 34.5 -44
s12 -38.666 12 -63.999c0 -28.667 -6.33301 -53.167 -19 -73.5s-29.5 -37 -50.5 -50s-45 -22.5 -72 -28.5s-54.833 -9 -83.5 -9c-48.667 0 -90.667 7 -126 21s-64.666 31 -87.999 51l51 58c20.667 -17.333 45.167 -31 73.5 -41s58.166 -15 89.499 -15zM176.999 627.001
l-42 44l136 121h61l135 -121l-40 -44l-125 91z" />
    <glyph glyph-name="Scedilla" unicode="&#x15e;" 
d="M334 -141c0 17.333 -7.66699 28.665 -23 33.998s-36.666 8 -63.999 8l7 88c-46 3.33301 -86.833 12.5 -122.5 27.5s-66.167 35.167 -91.5 60.5l55 61c24 -22.667 51.333 -40.334 82 -53.001s67 -19 109 -19c20 0 39.333 2.5 58 7.5s35.167 12.667 49.5 23
s25.833 23.166 34.5 38.499s13 33.333 13 54c0 16 -2.33301 30.167 -7 42.5s-12.5 23.5 -23.5 33.5s-26.167 19.333 -45.5 28s-43.333 17.667 -72 27c-33.333 10 -63.333 21.167 -90 33.5s-49.334 26.5 -68.001 42.5s-32.834 34.167 -42.501 54.5s-14.5 43.833 -14.5 70.5
s5.66699 51 17 73s27 41 47 57s43.833 28.333 71.5 37s58.167 13 91.5 13c48 0 90.167 -7 126.5 -21s68.5 -33.667 96.5 -59l-54 -60c-24.667 21.333 -51 37 -79 47s-56.667 15 -86 15c-18.667 0 -36.167 -2 -52.5 -6s-30.5 -10 -42.5 -18s-21.5 -18.167 -28.5 -30.5
s-10.5 -26.833 -10.5 -43.5c0 -14.667 2.66699 -27.5 8 -38.5s14.333 -21.333 27 -31s29.334 -18.834 50.001 -27.501s46.667 -17.667 78 -27c27.333 -8.66699 53.333 -18.167 78 -28.5s46.167 -23.333 64.5 -39s32.833 -35 43.5 -58s16 -50.833 16 -83.5
c0 -57.333 -19.5 -104.166 -58.5 -140.499s-93.833 -57.166 -164.5 -62.499v-45c33.333 -3.33301 57.333 -13.166 72 -29.499s22 -34.833 22 -55.5c0 -16.667 -3.33301 -31.167 -10 -43.5s-15.834 -22.666 -27.501 -30.999s-25 -14.666 -40 -18.999s-30.833 -6.5 -47.5 -6.5
c-20.667 0 -40.167 2.33301 -58.5 7s-34.166 10.667 -47.499 18l28 51c9.33301 -5.33301 20 -9.33301 32 -12s23.333 -4 34 -4c18 0 32.5 3 43.5 9s16.5 16.333 16.5 31z" />
    <glyph glyph-name="scedilla" unicode="&#x15f;" 
d="M332 -141c0 17.333 -7.66992 28.665 -23.0029 33.998s-36.666 8 -63.999 8l7 88c-43.333 2 -80.666 9.66699 -111.999 23s-57.666 29.333 -78.999 48l51 58c20.667 -17.333 45.167 -31 73.5 -41s58.166 -15 89.499 -15c39.333 0 70.166 7.16699 92.499 21.5
s33.5 33.833 33.5 58.5c0 12.667 -1.5 23.667 -4.5 33s-9 17.666 -18 24.999s-21.667 14 -38 20s-38.166 12.667 -65.499 20c-26 6.66699 -49.667 14.167 -71 22.5s-39.666 18.333 -54.999 30s-27.166 25.5 -35.499 41.5s-12.5 35.667 -12.5 59c0 22 4.83301 42 14.5 60
s23.5 33.333 41.5 46s39.5 22.5 64.5 29.5s52.833 10.5 83.5 10.5c38 0 72.167 -5.16699 102.5 -15.5s57.166 -23.833 80.499 -40.5l-41 -62c-19.333 14 -40.333 25 -63 33s-48.334 12 -77.001 12c-41.333 0 -70.166 -5.83301 -86.499 -17.5s-24.5 -28.167 -24.5 -49.5
c0 -11.333 2.16699 -20.833 6.5 -28.5s11.833 -14.834 22.5 -21.501s24.5 -13 41.5 -19s38.5 -12.667 64.5 -20c25.333 -7.33301 48.333 -15 69 -23s38.5 -18 53.5 -30s26.5 -26.667 34.5 -44s12 -38.666 12 -63.999s-5 -47.5 -15 -66.5s-23.5 -34.833 -40.5 -47.5
s-36.667 -22.667 -59 -30s-45.833 -12.333 -70.5 -15v-46c33.333 -3.33301 57.333 -13.166 72 -29.499s22 -34.833 22 -55.5c0 -16.667 -3.33301 -31.167 -10 -43.5s-15.834 -22.666 -27.501 -30.999s-25 -14.666 -40 -18.999s-30.833 -6.5 -47.5 -6.5
c-20.667 0 -40.167 2.33301 -58.5 7s-34.166 10.667 -47.499 18l28 51c9.33301 -5.33301 20 -9.33301 32 -12s23.667 -4 35 -4c17.333 0 31.5 3 42.5 9s16.5 16.333 16.5 31z" />
    <glyph glyph-name="Scaron" unicode="&#x160;" 
d="M540 192c0 -30 -5.66699 -57.4971 -17 -82.4971s-27.833 -46.5 -49.5 -64.5s-48 -32 -79 -42s-66.167 -15 -105.5 -15c-54 0 -101.667 7.83301 -143 23.5s-76.666 37.5 -105.999 65.5l55 61c24 -22.667 51.333 -40.334 82 -53.001s67 -19 109 -19c20 0 39.333 2.5 58 7.5
s35.167 12.667 49.5 23s25.833 23.166 34.5 38.499s13 33.333 13 54c0 16 -2.33301 30.167 -7 42.5s-12.5 23.5 -23.5 33.5s-26.167 19.333 -45.5 28s-43.333 17.667 -72 27c-33.333 10 -63.333 21.167 -90 33.5s-49.334 26.5 -68.001 42.5s-32.834 34.167 -42.501 54.5
s-14.5 43.833 -14.5 70.5s5.66699 51 17 73s27 41 47 57s43.833 28.333 71.5 37s58.167 13 91.5 13c48 0 90.167 -7 126.5 -21s68.5 -33.667 96.5 -59l-54 -60c-24.667 21.333 -51 37 -79 47s-56.667 15 -86 15c-18.667 0 -36.167 -2 -52.5 -6s-30.5 -10 -42.5 -18
s-21.5 -18.167 -28.5 -30.5s-10.5 -26.833 -10.5 -43.5c0 -14.667 2.66699 -27.5 8 -38.5s14.333 -21.333 27 -31s29.334 -18.834 50.001 -27.501s46.667 -17.667 78 -27c27.333 -8.66699 53.333 -18.167 78 -28.5s46.167 -23.333 64.5 -39s32.833 -35 43.5 -58
s16 -50.833 16 -83.5zM312 833.003l126 82l39 -45l-135 -111h-61l-136 111l40 45z" />
    <glyph glyph-name="scaron" unicode="&#x161;" 
d="M275 62c39.333 0 70.165 7.16797 92.498 21.501s33.5 33.833 33.5 58.5c0 12.667 -1.5 23.667 -4.5 33s-9 17.666 -18 24.999s-21.667 14 -38 20s-38.166 12.667 -65.499 20c-26 6.66699 -49.667 14.167 -71 22.5s-39.666 18.333 -54.999 30s-27.166 25.5 -35.499 41.5
s-12.5 35.667 -12.5 59c0 22 4.83301 42 14.5 60s23.5 33.333 41.5 46s39.5 22.5 64.5 29.5s52.833 10.5 83.5 10.5c38 0 72.167 -5.16699 102.5 -15.5s57.166 -23.833 80.499 -40.5l-41 -62c-19.333 14 -40.333 25 -63 33s-48.334 12 -77.001 12
c-41.333 0 -70.166 -5.83301 -86.499 -17.5s-24.5 -28.167 -24.5 -49.5c0 -11.333 2.16699 -20.833 6.5 -28.5s11.833 -14.834 22.5 -21.501s24.5 -13 41.5 -19s38.5 -12.667 64.5 -20c25.333 -7.33301 48.333 -15 69 -23s38.5 -18 53.5 -30s26.5 -26.667 34.5 -44
s12 -38.666 12 -63.999c0 -28.667 -6.33301 -53.167 -19 -73.5s-29.5 -37 -50.5 -50s-45 -22.5 -72 -28.5s-54.833 -9 -83.5 -9c-48.667 0 -90.667 7 -126 21s-64.666 31 -87.999 51l51 58c20.667 -17.333 45.167 -31 73.5 -41s58.166 -15 89.499 -15zM299.999 701.001
l125 91l40 -44l-135 -121h-61l-136 121l42 44z" />
    <glyph glyph-name="uni0162" unicode="&#x162;" 
d="M363 -141c0 17.333 -7.66797 28.6641 -23.001 33.9971s-36.666 8 -63.999 8l7 99h-32v609h-213v80h524l-10 -80h-206v-665c33.333 -3.33301 57.333 -13.166 72 -29.499s22 -34.833 22 -55.5c0 -16.667 -3.33301 -31.167 -10 -43.5s-15.834 -22.666 -27.501 -30.999
s-25 -14.666 -40 -18.999s-30.833 -6.5 -47.5 -6.5c-20.667 0 -40.167 2.33301 -58.5 7s-34.166 10.667 -47.499 18l28 51c9.33301 -5.33301 20 -9.33301 32 -12s23.333 -4 34 -4c18 0 32.5 3 43.5 9s16.5 16.333 16.5 31z" />
    <glyph glyph-name="uni0163" unicode="&#x163;" 
d="M414 -141c0 17.333 -7.66797 28.6641 -23.001 33.9971s-36.666 8 -63.999 8l7 93c-41.333 8.66699 -72.833 27 -94.5 55s-32.5 62 -32.5 102v306h-120v70h120v119l92 11v-130h181l-11 -70h-170v-305c0 -30 7.5 -52.167 22.5 -66.5s40.167 -21.5 75.5 -21.5
c19.333 0 37.5 2.33301 54.5 7s32.167 11 45.5 19l35 -63c-17.333 -11.333 -38 -20.333 -62 -27s-48.333 -10.667 -73 -12v-44c33.333 -3.33301 57.333 -13.166 72 -29.499s22 -34.833 22 -55.5c0 -16.667 -3.33301 -31.167 -10 -43.5s-15.834 -22.666 -27.501 -30.999
s-25 -14.666 -40 -18.999s-30.833 -6.5 -47.5 -6.5c-20.667 0 -40.167 2.33301 -58.5 7s-34.166 10.667 -47.499 18l28 51c9.33301 -5.33301 20 -9.33301 32 -12s23.667 -4 35 -4c17.333 0 31.5 3 42.5 9s16.5 16.333 16.5 31z" />
    <glyph glyph-name="Tcaron" unicode="&#x164;" 
d="M346 609v-609h-95v609h-213v80h524l-10 -80h-206zM297 833l126 82l39 -45l-135 -111h-61l-136 111l40 45z" />
    <glyph glyph-name="tcaron" unicode="&#x165;" 
d="M532 27c-18.667 -12 -40.999 -21.5 -66.999 -28.5s-52 -10.5 -78 -10.5c-58.667 0 -103.334 15.167 -134.001 45.5s-46 69.5 -46 117.5v306h-120v70h120v119l92 11v-130h181l-11 -70h-170v-305c0 -30 7.5 -52.167 22.5 -66.5s40.167 -21.5 75.5 -21.5
c19.333 0 37.5 2.33301 54.5 7s32.167 11 45.5 19zM377.001 763c0 15.333 5.66699 28.333 17 39s25 16 41 16s29.5 -5.33301 40.5 -16s16.5 -23.667 16.5 -39c0 -9.33301 -1.33301 -18.333 -4 -27s-7 -19 -13 -31l-50 -106h-53l28 117c-15.333 12 -23 27.667 -23 47z" />
    <glyph glyph-name="Tbar" unicode="&#x166;" 
d="M346 609v-176h130v-70h-130v-363h-95v363h-129v70h129v176h-213v80h524l-10 -80h-206z" />
    <glyph glyph-name="tbar" unicode="&#x167;" 
d="M532 27c-18.667 -12 -40.999 -21.5 -66.999 -28.5s-52 -10.5 -78 -10.5c-58.667 0 -103.334 15.167 -134.001 45.5s-46 69.5 -46 117.5v134h-109v68h109v104h-120v70h120v119l92 11v-130h181l-11 -70h-170v-104h171v-68h-171v-133c0 -30 7.5 -52.167 22.5 -66.5
s40.167 -21.5 75.5 -21.5c19.333 0 37.5 2.33301 54.5 7s32.167 11 45.5 19z" />
    <glyph glyph-name="Utilde" unicode="&#x168;" 
d="M531 224c0 -35.333 -5.33203 -67.333 -15.999 -96s-26 -53.5 -46 -74.5s-44.333 -37.167 -73 -48.5s-61 -17 -97 -17s-68.333 5.66699 -97 17s-52.834 27.5 -72.501 48.5s-34.667 45.833 -45 74.5s-15.5 60.667 -15.5 96v465h95v-461c0 -54 11.5 -94.167 34.5 -120.5
s56.5 -39.5 100.5 -39.5c90.667 0 136 53.333 136 160v461h96v-465zM352.001 773c-14.667 0 -27.168 2.5 -37.501 7.5s-19.5 10.5 -27.5 16.5l-22.5 16.5c-7 5 -14.5 7.5 -22.5 7.5c-11.333 0 -20.666 -3.83301 -27.999 -11.5s-15 -18.5 -23 -32.5l-57 25
c10 23.333 24 44 42 62s41.667 27 71 27c14.667 0 27.334 -2.5 38.001 -7.5s20 -10.5 28 -16.5l22 -17c6.66699 -4.66699 14 -7 22 -7c11.333 0 20.666 3.66699 27.999 11s15 18 23 32l57 -25c-10.667 -23.333 -25 -43.833 -43 -61.5s-41.333 -26.5 -70 -26.5z" />
    <glyph glyph-name="utilde" unicode="&#x169;" 
d="M189 527v-371.999c0 -34 6.83301 -58.333 20.5 -73s35.167 -22 64.5 -22c28 0 54.333 8 79 24s44 35 58 57v386h92v-527h-79l-7 70c-20.667 -26.667 -46 -47 -76 -61s-60.667 -21 -92 -21c-51.333 0 -89.5 13.667 -114.5 41s-37.5 65.666 -37.5 114.999v383h92z
M353 650.001c-14.667 0 -27.168 2.5 -37.501 7.5s-19.5 10.5 -27.5 16.5l-22.5 16.5c-7 5 -14.5 7.5 -22.5 7.5c-11.333 0 -20.666 -3.83301 -27.999 -11.5s-15 -18.5 -23 -32.5l-57 26c10 23.333 24.167 43.833 42.5 61.5s41.833 26.5 70.5 26.5
c14.667 0 27.334 -2.5 38.001 -7.5s20 -10.5 28 -16.5l22 -17c6.66699 -4.66699 14 -7 22 -7c11.333 0 20.666 3.83301 27.999 11.5s15 18.5 23 32.5l57 -25c-10 -23.333 -24.167 -44 -42.5 -62s-41.833 -27 -70.5 -27z" />
    <glyph glyph-name="Umacron" unicode="&#x16a;" 
d="M531 224c0 -35.333 -5.33203 -67.333 -15.999 -96s-26 -53.5 -46 -74.5s-44.333 -37.167 -73 -48.5s-61 -17 -97 -17s-68.333 5.66699 -97 17s-52.834 27.5 -72.501 48.5s-34.667 45.833 -45 74.5s-15.5 60.667 -15.5 96v465h95v-461c0 -54 11.5 -94.167 34.5 -120.5
s56.5 -39.5 100.5 -39.5c90.667 0 136 53.333 136 160v461h96v-465zM436.001 796h-273v70h273v-70z" />
    <glyph glyph-name="umacron" unicode="&#x16b;" 
d="M189 527v-371.999c0 -34 6.83301 -58.333 20.5 -73s35.167 -22 64.5 -22c28 0 54.333 8 79 24s44 35 58 57v386h92v-527h-79l-7 70c-20.667 -26.667 -46 -47 -76 -61s-60.667 -21 -92 -21c-51.333 0 -89.5 13.667 -114.5 41s-37.5 65.666 -37.5 114.999v383h92z
M436 674.001h-273v69h273v-69z" />
    <glyph glyph-name="Ubreve" unicode="&#x16c;" 
d="M531 224c0 -35.333 -5.33203 -67.333 -15.999 -96s-26 -53.5 -46 -74.5s-44.333 -37.167 -73 -48.5s-61 -17 -97 -17s-68.333 5.66699 -97 17s-52.834 27.5 -72.501 48.5s-34.667 45.833 -45 74.5s-15.5 60.667 -15.5 96v465h95v-461c0 -54 11.5 -94.167 34.5 -120.5
s56.5 -39.5 100.5 -39.5c90.667 0 136 53.333 136 160v461h96v-465zM299.001 760c-23.333 0 -44 4 -62 12s-33.167 18.333 -45.5 31s-22 26.667 -29 42s-11.5 30.666 -13.5 45.999l61 13c13.333 -49.333 43 -74 89 -74c47.333 0 77.666 24.667 90.999 74l61 -13
c-2 -15.333 -6.66699 -30.666 -14 -45.999s-17.166 -29.333 -29.499 -42s-27.5 -23 -45.5 -31s-39 -12 -63 -12z" />
    <glyph glyph-name="ubreve" unicode="&#x16d;" 
d="M189 527v-371.999c0 -34 6.83301 -58.333 20.5 -73s35.167 -22 64.5 -22c28 0 54.333 8 79 24s44 35 58 57v386h92v-527h-79l-7 70c-20.667 -26.667 -46 -47 -76 -61s-60.667 -21 -92 -21c-51.333 0 -89.5 13.667 -114.5 41s-37.5 65.666 -37.5 114.999v383h92z
M299 628.001c-23.333 0 -43.8311 4.33301 -61.498 13s-32.834 19.667 -45.501 33s-22.5 28.333 -29.5 45s-11.5 33 -13.5 49l61 13c7.33301 -25.333 18.166 -45.666 32.499 -60.999s33.166 -23 56.499 -23c24 0 43.5 7.66699 58.5 23s26.167 35.666 33.5 60.999l61 -13
c-2 -16 -6.66699 -32.333 -14 -49s-17.333 -31.667 -30 -45s-28.167 -24.333 -46.5 -33s-39.166 -13 -62.499 -13z" />
    <glyph glyph-name="Uring" unicode="&#x16e;" 
d="M531 224c0 -35.333 -5.33203 -67.333 -15.999 -96s-26 -53.5 -46 -74.5s-44.333 -37.167 -73 -48.5s-61 -17 -97 -17s-68.333 5.66699 -97 17s-52.834 27.5 -72.501 48.5s-34.667 45.833 -45 74.5s-15.5 60.667 -15.5 96v465h95v-461c0 -54 11.5 -94.167 34.5 -120.5
s56.5 -39.5 100.5 -39.5c90.667 0 136 53.333 136 160v461h96v-465zM246.001 845c0 -17.333 4.83301 -31.166 14.5 -41.499s22.834 -15.5 39.501 -15.5c16 0 28.833 5.16699 38.5 15.5s14.5 24.166 14.5 41.499s-4.83301 31 -14.5 41s-22.5 15 -38.5 15
c-16.667 0 -29.834 -5 -39.501 -15s-14.5 -23.667 -14.5 -41zM414.001 845c0 -30 -10.5 -55.167 -31.5 -75.5s-48.5 -30.5 -82.5 -30.5s-61.5 10.167 -82.5 30.5s-31.5 45.5 -31.5 75.5c0 29.333 10.5 54.166 31.5 74.499s48.5 30.5 82.5 30.5s61.5 -10.167 82.5 -30.5
s31.5 -45.166 31.5 -74.499z" />
    <glyph glyph-name="uring" unicode="&#x16f;" 
d="M189 527v-371.999c0 -34 6.83301 -58.333 20.5 -73s35.167 -22 64.5 -22c28 0 54.333 8 79 24s44 35 58 57v386h92v-527h-79l-7 70c-20.667 -26.667 -46 -47 -76 -61s-60.667 -21 -92 -21c-51.333 0 -89.5 13.667 -114.5 41s-37.5 65.666 -37.5 114.999v383h92z
M247 722.001c0 -17.333 4.83301 -31 14.5 -41s22.5 -15 38.5 -15c16.667 0 29.667 5 39 15s14 23.667 14 41s-4.66699 31 -14 41s-22.333 15 -39 15c-16 0 -28.833 -5 -38.5 -15s-14.5 -23.667 -14.5 -41zM414 722.001c0 -29.333 -10.5 -54.166 -31.5 -74.499
s-48.5 -30.5 -82.5 -30.5s-61.5 10.167 -82.5 30.5s-31.5 45.166 -31.5 74.499c0 30 10.5 55.167 31.5 75.5s48.5 30.5 82.5 30.5s61.5 -10.167 82.5 -30.5s31.5 -45.5 31.5 -75.5z" />
    <glyph glyph-name="Uhungarumlaut" unicode="&#x170;" 
d="M531 224c0 -35.333 -5.33203 -67.333 -15.999 -96s-26 -53.5 -46 -74.5s-44.333 -37.167 -73 -48.5s-61 -17 -97 -17s-68.333 5.66699 -97 17s-52.834 27.5 -72.501 48.5s-34.667 45.833 -45 74.5s-15.5 60.667 -15.5 96v465h95v-461c0 -54 11.5 -94.167 34.5 -120.5
s56.5 -39.5 100.5 -39.5c90.667 0 136 53.333 136 160v461h96v-465zM177.001 792l80 176l78 -37l-100 -166zM341.001 792l89 176l77 -40l-110 -165z" />
    <glyph glyph-name="uhungarumlaut" unicode="&#x171;" 
d="M189 527v-371.999c0 -34 6.83301 -58.333 20.5 -73s35.167 -22 64.5 -22c28 0 54.333 8 79 24s44 35 58 57v386h92v-527h-79l-7 70c-20.667 -26.667 -46 -47 -76 -61s-60.667 -21 -92 -21c-51.333 0 -89.5 13.667 -114.5 41s-37.5 65.666 -37.5 114.999v383h92z
M173 662.001l80 176l78 -37l-100 -166zM337 662.001l89 176l77 -40l-110 -165z" />
    <glyph glyph-name="Uogonek" unicode="&#x172;" 
d="M531 224c0 -47.333 -9.33105 -88.833 -27.998 -124.5s-46 -63.167 -82 -82.5c-43.333 -24 -73.333 -48.5 -90 -73.5s-25 -48.5 -25 -70.5c0 -15.333 4.83301 -28 14.5 -38s26.167 -15 49.5 -15c13.333 0 25.5 1.66699 36.5 5s19.167 6.66602 24.5 9.99902l25 -54
c-16 -8 -31.833 -13.667 -47.5 -17s-31.834 -5 -48.501 -5c-42 0 -74.333 10 -97 30s-34 47 -34 81c0 21.333 6.66699 42.333 20 63s31.666 39 54.999 55c-38 0 -71.667 5.83301 -101 17.5s-54 27.834 -74 48.501s-35 45.5 -45 74.5s-15 60.833 -15 95.5v465h95v-461
c0 -54 11.5 -94.167 34.5 -120.5s56.5 -39.5 100.5 -39.5c90.667 0 136 53.333 136 160v461h96v-465z" />
    <glyph glyph-name="uogonek" unicode="&#x173;" 
d="M189 527v-371.998c0 -34 6.83301 -58.333 20.5 -73s35.167 -22 64.5 -22c28 0 54.333 8 79 24s44 35 58 57v386h92v-527c-18.667 -10.667 -33.834 -21.667 -45.501 -33s-20.667 -22.5 -27 -33.5s-10.666 -21.667 -12.999 -32s-3.5 -19.833 -3.5 -28.5
c0 -15.333 5 -28 15 -38s26.333 -15 49 -15c13.333 0 25.5 1.66699 36.5 5s19.5 6.66602 25.5 9.99902l25 -54c-16 -8 -31.833 -13.667 -47.5 -17s-32.167 -5 -49.5 -5c-42 0 -74.333 10 -97 30s-34 47 -34 81c0 24 9 47.667 27 71s42.667 43 74 59h-14l-7 70
c-20.667 -26.667 -46 -47 -76 -61s-60.667 -21 -92 -21c-51.333 0 -89.5 13.667 -114.5 41s-37.5 65.666 -37.5 114.999v383h92z" />
    <glyph glyph-name="Wcircumflex" unicode="&#x174;" 
d="M494 0h-120l-74 503h-4l-85 -503h-125l-82 689h95l52 -580h4l91 500h110l74 -497h4l75 577h87zM174 759l-40 45l136 111h61l135 -111l-39 -45l-127 81z" />
    <glyph glyph-name="wcircumflex" unicode="&#x175;" 
d="M494 0h-125l-65 373h-4l-68 -373h-122l-94 527h92l64 -457h4l77 390h103l72 -388h4l64 455h88zM176 627l-42 44l136 121h61l135 -121l-40 -44l-125 91z" />
    <glyph glyph-name="Ycircumflex" unicode="&#x176;" 
d="M348 265v-265h-96v264l-232 425h105l176 -337h3l177 337h99zM174 759l-40 45l136 111h61l135 -111l-39 -45l-127 81z" />
    <glyph glyph-name="ycircumflex" unicode="&#x177;" 
d="M358 -3c-9.33301 -28 -20.667 -54.001 -34 -78.001s-29.5 -45.167 -48.5 -63.5s-41.5 -33.5 -67.5 -45.5s-56.667 -19.667 -92 -23l-13 72c26.667 4.66699 49.167 10.834 67.5 18.501s33.833 17.167 46.5 28.5s23 24.833 31 40.5s15.667 33.5 23 53.5h-31l-182 527h98
l144 -453h4l143 453h95zM176.999 626.999l-42 44l136 121h61l135 -121l-40 -44l-125 91z" />
    <glyph glyph-name="Ydieresis" unicode="&#x178;" 
d="M348 265v-265h-96v264l-232 425h105l176 -337h3l177 337h99zM195 769c-16 0 -29.5 5.33301 -40.5 16s-16.5 24.334 -16.5 41.001c0 16 5.5 29.333 16.5 40s24.5 16 40.5 16c16.667 0 30.5 -5.33301 41.5 -16s16.5 -24 16.5 -40c0 -16.667 -5.5 -30.334 -16.5 -41.001
s-24.833 -16 -41.5 -16zM405 769c-16.667 0 -30.5 5.33301 -41.5 16s-16.5 24.334 -16.5 41.001c0 16 5.5 29.333 16.5 40s24.833 16 41.5 16c16 0 29.667 -5.33301 41 -16s17 -24 17 -40c0 -16.667 -5.66699 -30.334 -17 -41.001s-25 -16 -41 -16z" />
    <glyph glyph-name="Zacute" unicode="&#x179;" 
d="M174 81h357l-11 -81h-452v76l360 533h-324v80h427v-77zM205 804l189 109l47 -77l-208 -81z" />
    <glyph glyph-name="zacute" unicode="&#x17a;" 
d="M211 77h290l-11 -77h-391v69l289 380h-266v78h376v-70zM187 672l188 119l47 -77l-205 -92z" />
    <glyph glyph-name="Zdotaccent" unicode="&#x17b;" 
d="M174 81h357l-11 -81h-452v76l360 533h-324v80h427v-77zM378 837c0 -18 -5.83301 -33 -17.5 -45s-27.167 -18 -46.5 -18s-34.833 6 -46.5 18s-17.5 27 -17.5 45c0 17.333 5.83301 32 17.5 44s27.167 18 46.5 18s34.833 -6 46.5 -18s17.5 -26.667 17.5 -44z" />
    <glyph glyph-name="zdotaccent" unicode="&#x17c;" 
d="M211 77h290l-11 -77h-391v69l289 380h-266v78h376v-70zM370 715c0 -18 -6 -33 -18 -45s-27.667 -18 -47 -18s-34.833 6 -46.5 18s-17.5 27 -17.5 45c0 17.333 5.83301 32 17.5 44s27.167 18 46.5 18s35 -6 47 -18s18 -26.667 18 -44z" />
    <glyph glyph-name="Zcaron" unicode="&#x17d;" 
d="M174 81h357l-11 -81h-452v76l360 533h-324v80h427v-77zM316 833l126 82l39 -45l-135 -111h-61l-136 111l40 45z" />
    <glyph glyph-name="zcaron" unicode="&#x17e;" 
d="M211 77h290l-11 -77h-391v69l289 380h-266v78h376v-70zM306 701l125 91l40 -44l-135 -121h-61l-136 121l42 44z" />
    <glyph glyph-name="florin" unicode="&#x192;" 
d="M103 -146c17.333 8 32.3301 16.167 44.9971 24.5s23.334 18.833 32.001 31.5s15 28.167 19 46.5s6 41.5 6 69.5v430h-84v71h84v71c0 44 14 80.333 42 109s69 43 123 43c25.333 0 47.333 -2.33301 66 -7s38.667 -11.667 60 -21l-30 -66
c-16.667 7.33301 -32.667 12.5 -48 15.5s-29.666 4.5 -42.999 4.5c-29.333 0 -49.833 -6.33301 -61.5 -19s-17.5 -32 -17.5 -58v-72h129l-11 -71h-118v-414c0 -40 -3.16699 -73.333 -9.5 -100s-16 -49.5 -29 -68.5s-29.667 -35 -50 -48s-44.166 -25.5 -71.499 -37.5z" />
    <glyph glyph-name="AEacute" unicode="&#x1fc;" 
d="M328 173h-197l-47 -173h-96l199 689h379l-11 -75h-230l49 -227h183v-75h-169l50 -237h169v-75h-244zM153 250h159l-69 355h-5zM236 804l189 109l47 -77l-208 -81z" />
    <glyph glyph-name="aeacute" unicode="&#x1fd;" 
d="M338 232c4.66699 -58.667 15.666 -101.671 32.999 -129.004s43.333 -41 78 -41c19.333 0 36.333 3.33301 51 10s30.334 16.334 47.001 29.001l41 -60c-20 -16 -41.167 -28.833 -63.5 -38.5s-48.166 -14.5 -77.499 -14.5c-36 0 -65.833 7.66699 -89.5 23
s-43.834 37.333 -60.501 66c-11.333 -15.333 -22.333 -28.666 -33 -39.999s-22 -20.666 -34 -27.999s-24.833 -12.666 -38.5 -15.999s-28.834 -5 -45.501 -5c-46.667 0 -83.667 14.833 -111 44.5s-41 69.167 -41 118.5c0 55.333 17.833 97.5 53.5 126.5
s88.834 43.5 159.501 43.5h45v41c0 36.667 -7.83301 63.167 -23.5 79.5s-38.167 24.5 -67.5 24.5c-17.333 0 -33.5 -2.16699 -48.5 -6.5s-33.167 -11.166 -54.5 -20.499l-24 66c22.667 10.667 45.5 19 68.5 25s45.5 9 67.5 9c40 0 70.333 -7.83301 91 -23.5
s36.334 -36.5 47.001 -62.5c9.33301 26.667 24.666 47.667 45.999 63s48 23 80 23c30 0 55.833 -6 77.5 -18s39.5 -29.167 53.5 -51.5s24.333 -49.5 31 -81.5s10 -68.333 10 -109c0 -9.33301 -0.166992 -17.833 -0.5 -25.5s-0.833008 -14.834 -1.5 -21.501h-266z
M159.999 56.9961c21.333 0 39.834 7.83301 55.501 23.5s32.167 38.834 49.5 69.501c-4.66699 16 -8 33.333 -10 52s-3 38 -3 58h-40c-46.667 0 -78.834 -9.5 -96.501 -28.5s-26.5 -44.167 -26.5 -75.5c0 -32.667 6.5 -57.334 19.5 -74.001s30.167 -25 51.5 -25zM431 465.996
c-14.667 0 -27.334 -2.83301 -38.001 -8.5s-19.834 -15 -27.501 -28s-13.667 -30.167 -18 -51.5s-7.5 -47.333 -9.5 -78h182c-1.33301 54.667 -8.16602 96 -20.499 124s-35.166 42 -68.499 42zM198 671.996l188 119l47 -77l-205 -92z" />
    <glyph glyph-name="Oslashacute" unicode="&#x1fe;" 
d="M164 28c-40 28 -70.002 68.9961 -90.002 122.996s-30 118 -30 192c0 52.667 5.33301 100.834 16 144.501s26.834 81.334 48.501 113.001s48.5 56.334 80.5 74.001s69 26.5 111 26.5c20.667 0 41.667 -2.66699 63 -8l37 126l79 -21l-43 -138
c40 -28.667 70 -70.167 90 -124.5s30 -118.166 30 -191.499c0 -52.667 -5.33301 -100.834 -16 -144.501s-26.834 -81.167 -48.501 -112.5s-48.5 -55.666 -80.5 -72.999s-69 -26 -111 -26c-11.333 0 -22.166 0.666992 -32.499 2s-20.166 3 -29.499 5l-38 -126l-79 21z
M456.998 343.996c0 60.667 -3.99805 110.833 -11.998 150.5s-22.333 70.167 -43 91.5l-149 -515c7.33301 -1.33301 14.666 -2.5 21.999 -3.5s15.666 -1.5 24.999 -1.5c56 0 96.167 23.5 120.5 70.5s36.5 116.167 36.5 207.5zM143 342.995
c0 -60.667 4.16699 -110.5 12.5 -149.5s22.5 -69.167 42.5 -90.5l149 514c-14 4 -29.667 6 -47 6c-56 0 -96.167 -24 -120.5 -72s-36.5 -117.333 -36.5 -208zM155 831.995l189 109l47 -77l-208 -81z" />
    <glyph glyph-name="oslashacute" unicode="&#x1ff;" 
d="M70 263c0 40.667 5.00098 78 15.001 112s24.667 63.167 44 87.5s43.5 43.166 72.5 56.499s62.167 20 99.5 20c8 0 16 -0.333008 24 -1s15.667 -1.66699 23 -3l38 120l75 -22l-41 -124c36 -21.333 63.333 -53 82 -95s28 -92 28 -150c0 -40.667 -5 -78 -15 -112
s-24.667 -63.167 -44 -87.5s-43.333 -43.166 -72 -56.499s-61.667 -20 -99 -20c-8.66699 0 -17 0.333008 -25 1s-15.667 1.66699 -23 3l-37 -123l-75 22l41 126c-36.667 21.333 -64.334 53 -83.001 95s-28 92.333 -28 151zM168.001 263c0 -84 16.333 -141.334 49 -172.001
l115 370c-10 2 -20.333 3 -31 3c-44 0 -77.167 -16.167 -99.5 -48.5s-33.5 -83.166 -33.5 -152.499zM432.001 263.999c0 81.333 -16 137.667 -48 169l-115 -368c8.66699 -2 19 -3 31 -3c44 0 77 16.333 99 49s33 83.667 33 153zM174.001 673l188 119l47 -77l-205 -92z" />
    <glyph glyph-name="uni0218" unicode="&#x218;" 
d="M540 192c0 -30 -5.66699 -57.4971 -17 -82.4971s-27.833 -46.5 -49.5 -64.5s-48 -32 -79 -42s-66.167 -15 -105.5 -15c-54 0 -101.667 7.83301 -143 23.5s-76.666 37.5 -105.999 65.5l55 61c24 -22.667 51.333 -40.334 82 -53.001s67 -19 109 -19c20 0 39.333 2.5 58 7.5
s35.167 12.667 49.5 23s25.833 23.166 34.5 38.499s13 33.333 13 54c0 16 -2.33301 30.167 -7 42.5s-12.5 23.5 -23.5 33.5s-26.167 19.333 -45.5 28s-43.333 17.667 -72 27c-33.333 10 -63.333 21.167 -90 33.5s-49.334 26.5 -68.001 42.5s-32.834 34.167 -42.501 54.5
s-14.5 43.833 -14.5 70.5s5.66699 51 17 73s27 41 47 57s43.833 28.333 71.5 37s58.167 13 91.5 13c48 0 90.167 -7 126.5 -21s68.5 -33.667 96.5 -59l-54 -60c-24.667 21.333 -51 37 -79 47s-56.667 15 -86 15c-18.667 0 -36.167 -2 -52.5 -6s-30.5 -10 -42.5 -18
s-21.5 -18.167 -28.5 -30.5s-10.5 -26.833 -10.5 -43.5c0 -14.667 2.66699 -27.5 8 -38.5s14.333 -21.333 27 -31s29.334 -18.834 50.001 -27.501s46.667 -17.667 78 -27c27.333 -8.66699 53.333 -18.167 78 -28.5s46.167 -23.333 64.5 -39s32.833 -35 43.5 -58
s16 -50.833 16 -83.5zM242 -125.997c0 16 5.5 29.333 16.5 40s24.5 16 40.5 16s29.5 -5.33301 40.5 -16s16.5 -24 16.5 -40c0 -9.33301 -1.33301 -18.333 -4 -27s-6.66699 -19 -12 -31l-50 -106h-54l29 117c-15.333 12 -23 27.667 -23 47z" />
    <glyph glyph-name="uni0219" unicode="&#x219;" 
d="M275 62c39.333 0 70.165 7.16797 92.498 21.501s33.5 33.833 33.5 58.5c0 12.667 -1.5 23.667 -4.5 33s-9 17.666 -18 24.999s-21.667 14 -38 20s-38.166 12.667 -65.499 20c-26 6.66699 -49.667 14.167 -71 22.5s-39.666 18.333 -54.999 30s-27.166 25.5 -35.499 41.5
s-12.5 35.667 -12.5 59c0 22 4.83301 42 14.5 60s23.5 33.333 41.5 46s39.5 22.5 64.5 29.5s52.833 10.5 83.5 10.5c38 0 72.167 -5.16699 102.5 -15.5s57.166 -23.833 80.499 -40.5l-41 -62c-19.333 14 -40.333 25 -63 33s-48.334 12 -77.001 12
c-41.333 0 -70.166 -5.83301 -86.499 -17.5s-24.5 -28.167 -24.5 -49.5c0 -11.333 2.16699 -20.833 6.5 -28.5s11.833 -14.834 22.5 -21.501s24.5 -13 41.5 -19s38.5 -12.667 64.5 -20c25.333 -7.33301 48.333 -15 69 -23s38.5 -18 53.5 -30s26.5 -26.667 34.5 -44
s12 -38.666 12 -63.999c0 -28.667 -6.33301 -53.167 -19 -73.5s-29.5 -37 -50.5 -50s-45 -22.5 -72 -28.5s-54.833 -9 -83.5 -9c-48.667 0 -90.667 7 -126 21s-64.666 31 -87.999 51l51 58c20.667 -17.333 45.167 -31 73.5 -41s58.166 -15 89.499 -15zM238.999 -125.999
c0 16 5.5 29.333 16.5 40s24.5 16 40.5 16s29.5 -5.33301 40.5 -16s16.5 -24 16.5 -40c0 -9.33301 -1.33301 -18.333 -4 -27s-6.66699 -19 -12 -31l-50 -106h-54l29 117c-15.333 12 -23 27.667 -23 47z" />
    <glyph glyph-name="uni021A" unicode="&#x21a;" 
d="M346 609v-609h-95v609h-213v80h524l-10 -80h-206zM244 -126c0 16 5.66602 29.333 16.999 40s25 16 41 16s29.5 -5.33301 40.5 -16s16.5 -24 16.5 -40c0 -15.333 -5.66699 -34.333 -17 -57l-50 -106h-53l29 116c-7.33301 6 -13.166 13 -17.499 21s-6.5 16.667 -6.5 26z
" />
    <glyph glyph-name="uni021B" unicode="&#x21b;" 
d="M532 27c-18.667 -12 -40.999 -21.5 -66.999 -28.5s-52 -10.5 -78 -10.5c-58.667 0 -103.334 15.167 -134.001 45.5s-46 69.5 -46 117.5v306h-120v70h120v119l92 11v-130h181l-11 -70h-170v-305c0 -30 7.5 -52.167 22.5 -66.5s40.167 -21.5 75.5 -21.5
c19.333 0 37.5 2.33301 54.5 7s32.167 11 45.5 19zM307.001 -126c0 16 5.5 29.333 16.5 40s24.5 16 40.5 16s29.5 -5.33301 40.5 -16s16.5 -24 16.5 -40c0 -9.33301 -1.33301 -18.333 -4 -27s-6.66699 -19 -12 -31l-50 -106h-54l29 117c-15.333 12 -23 27.667 -23 47z" />
    <glyph glyph-name="dotlessj" unicode="&#x237;" 
d="M90 -142c24.667 9.33301 48.833 19.499 72.5 30.499s44.667 24.333 63 40s33 33.834 44 54.501s16.5 45 16.5 73v400h-171v71h263v-465c0 -38 -6.66699 -71.5 -20 -100.5s-31.666 -54.5 -54.999 -76.5s-50.833 -40.833 -82.5 -56.5s-65.834 -29.5 -102.501 -41.5z" />
    <glyph glyph-name="circumflex" unicode="&#x2c6;" 
d="M174 642l-40 45l136 113h61l135 -113l-39 -45l-126 84z" />
    <glyph glyph-name="caron" unicode="&#x2c7;" 
d="M300 716l127 84l39 -45l-135 -113h-61l-136 113l40 45z" />
    <glyph glyph-name="uni02C9" unicode="&#x2c9;" 
d="M436 682h-273v69h273v-69z" />
    <glyph glyph-name="breve" unicode="&#x2d8;" 
d="M298 643c-23.333 0 -43.833 4 -61.5 12s-32.834 18.333 -45.501 31s-22.5 27 -29.5 43s-11.5 31.667 -13.5 47l61 13c14 -50.667 43.667 -76 89 -76c47.333 0 78 25.333 92 76l61 -13c-2 -15.333 -6.66699 -31 -14 -47s-17.333 -30.333 -30 -43s-28.167 -23 -46.5 -31
s-39.166 -12 -62.499 -12z" />
    <glyph glyph-name="dotaccent" unicode="&#x2d9;" 
d="M364 722c0 -17.333 -6 -32 -18 -44s-27.667 -18 -47 -18s-34.833 6 -46.5 18s-17.5 26.667 -17.5 44c0 18 5.83301 33 17.5 45s27.167 18 46.5 18s35 -6 47 -18s18 -27 18 -45z" />
    <glyph glyph-name="ring" unicode="&#x2da;" 
d="M247 730c0 -17.333 4.66699 -31 14 -41s22.333 -15 39 -15c16 0 28.833 5 38.5 15s14.5 23.667 14.5 41s-4.66699 31 -14 41s-22.333 15 -39 15s-29.667 -5 -39 -15s-14 -23.667 -14 -41zM414 730c0 -30 -10.5 -55.167 -31.5 -75.5s-48.5 -30.5 -82.5 -30.5
s-61.5 10.167 -82.5 30.5s-31.5 45.5 -31.5 75.5s10.5 55.167 31.5 75.5s48.5 30.5 82.5 30.5s61.5 -10.167 82.5 -30.5s31.5 -45.5 31.5 -75.5z" />
    <glyph glyph-name="ogonek" unicode="&#x2db;" 
d="M263 -127c0 -15.333 4.83301 -27.999 14.5 -37.999s26.167 -15 49.5 -15c13.333 0 25.5 1.66699 36.5 5s19.5 6.66602 25.5 9.99902l24 -54c-15.333 -8 -31 -13.667 -47 -17s-32.333 -5 -49 -5c-42 0 -74.333 10 -97 30s-34 47 -34 81c0 32 13.833 62.333 41.5 91
s64.167 50.334 109.5 65.001h69c-30 -12 -54.333 -24.833 -73 -38.5s-33.167 -27.167 -43.5 -40.5s-17.333 -26.333 -21 -39s-5.5 -24.334 -5.5 -35.001z" />
    <glyph glyph-name="tilde" unicode="&#x2dc;" 
d="M352 658c-14.667 0 -27.167 2.5 -37.5 7.5s-19.5 10.5 -27.5 16.5l-22 16c-6.66699 5.33301 -14 8 -22 8c-11.333 0 -20.666 -3.83301 -27.999 -11.5s-15 -18.5 -23 -32.5l-57 26c10 23.333 24 43.833 42 61.5s41.667 26.5 71 26.5c14.667 0 27.167 -2.5 37.5 -7.5
s19.5 -10.5 27.5 -16.5l22.5 -16.5c7 -5 14.5 -7.5 22.5 -7.5c11.333 0 20.666 3.83301 27.999 11.5s15 18.5 23 32.5l56 -26c-10 -23.333 -24 -43.833 -42 -61.5s-41.667 -26.5 -71 -26.5z" />
    <glyph glyph-name="hungarumlaut" unicode="&#x2dd;" 
d="M136 675l77 171l80 -38l-97 -158zM300 675l86 171l78 -41l-106 -157z" />
    <glyph glyph-name="gravecomb" unicode="&#x300;" 
d="M388 622l-206 93l47 77l188 -120z" />
    <glyph glyph-name="acutecomb" unicode="&#x301;" 
d="M182 672l188 119l47 -77l-205 -92z" />
    <glyph glyph-name="uni0302" unicode="&#x302;" 
d="M176 627l-42 44l136 121h61l135 -121l-40 -44l-125 91z" />
    <glyph glyph-name="tildecomb" unicode="&#x303;" 
d="M352 650c-14.667 0 -27.168 2.5 -37.501 7.5s-19.5 10.5 -27.5 16.5l-22.5 16.5c-7 5 -14.5 7.5 -22.5 7.5c-11.333 0 -20.666 -3.83301 -27.999 -11.5s-15 -18.5 -23 -32.5l-57 26c10 23.333 24.167 43.833 42.5 61.5s41.833 26.5 70.5 26.5
c14.667 0 27.334 -2.5 38.001 -7.5s20 -10.5 28 -16.5l22 -17c6.66699 -4.66699 14 -7 22 -7c11.333 0 20.666 3.83301 27.999 11.5s15 18.5 23 32.5l57 -25c-10 -23.333 -24.167 -44 -42.5 -62s-41.833 -27 -70.5 -27z" />
    <glyph glyph-name="uni0304" unicode="&#x304;" 
d="M436 674h-273v69h273v-69z" />
    <glyph glyph-name="uni0306" unicode="&#x306;" 
d="M298 628c-23.333 0 -43.8311 4.33301 -61.498 13s-32.834 19.667 -45.501 33s-22.5 28.333 -29.5 45s-11.5 33 -13.5 49l61 13c7.33301 -25.333 18.166 -45.666 32.499 -60.999s33.166 -23 56.499 -23c24 0 43.5 7.66699 58.5 23s26.167 35.666 33.5 60.999l61 -13
c-2 -16 -6.66699 -32.333 -14 -49s-17.333 -31.667 -30 -45s-28.167 -24.333 -46.5 -33s-39.166 -13 -62.499 -13z" />
    <glyph glyph-name="uni0307" unicode="&#x307;" 
d="M364 715c0 -18 -6 -33 -18 -45s-27.667 -18 -47 -18s-34.833 6 -46.5 18s-17.5 27 -17.5 45c0 17.333 5.83301 32 17.5 44s27.167 18 46.5 18s35 -6 47 -18s18 -26.667 18 -44z" />
    <glyph glyph-name="uni0308" unicode="&#x308;" 
d="M195 647c-16.667 0 -30.5 5.33301 -41.5 16s-16.5 24 -16.5 40c0 16.667 5.5 30.334 16.5 41.001s24.833 16 41.5 16c16 0 29.5 -5.33301 40.5 -16s16.5 -24.334 16.5 -41.001c0 -16 -5.5 -29.333 -16.5 -40s-24.5 -16 -40.5 -16zM404 647c-16 0 -29.5 5.33301 -40.5 16
s-16.5 24 -16.5 40c0 16.667 5.5 30.334 16.5 41.001s24.5 16 40.5 16c16.667 0 30.5 -5.33301 41.5 -16s16.5 -24.334 16.5 -41.001c0 -16 -5.5 -29.333 -16.5 -40s-24.833 -16 -41.5 -16z" />
    <glyph glyph-name="uni030A" unicode="&#x30a;" 
d="M247 722c0 -17.333 4.83301 -31 14.5 -41s22.5 -15 38.5 -15c16.667 0 29.667 5 39 15s14 23.667 14 41s-4.66699 31 -14 41s-22.333 15 -39 15c-16 0 -28.833 -5 -38.5 -15s-14.5 -23.667 -14.5 -41zM414 722c0 -29.333 -10.5 -54.166 -31.5 -74.499
s-48.5 -30.5 -82.5 -30.5s-61.5 10.167 -82.5 30.5s-31.5 45.166 -31.5 74.499c0 30 10.5 55.167 31.5 75.5s48.5 30.5 82.5 30.5s61.5 -10.167 82.5 -30.5s31.5 -45.5 31.5 -75.5z" />
    <glyph glyph-name="uni030B" unicode="&#x30b;" 
d="M135 662l80 176l78 -37l-100 -166zM299 662l89 176l77 -40l-110 -165z" />
    <glyph glyph-name="uni030C" unicode="&#x30c;" 
d="M301 701l125 91l40 -44l-135 -121h-61l-136 121l42 44z" />
    <glyph glyph-name="uni0312" unicode="&#x312;" 
d="M355 698c0 -15.333 -5.66699 -28.5 -17 -39.5s-25 -16.5 -41 -16.5s-29.5 5.5 -40.5 16.5s-16.5 24.167 -16.5 39.5c0 9.33301 1.33301 18.333 4 27s7 19 13 31l50 106h53l-28 -117c15.333 -12 23 -27.667 23 -47z" />
    <glyph glyph-name="uni0313" unicode="&#x313;" 
d="M245 807c0 15.333 5.66699 28.333 17 39s25 16 41 16s29.5 -5.33301 40.5 -16s16.5 -23.667 16.5 -39c0 -9.33301 -1.33301 -18.333 -4 -27s-7 -19 -13 -31l-50 -106h-53l28 117c-15.333 12 -23 27.667 -23 47z" />
    <glyph glyph-name="uni0326" unicode="&#x326;" 
d="M246 -126c0 16 5.5 29.333 16.5 40s24.5 16 40.5 16s29.5 -5.33301 40.5 -16s16.5 -24 16.5 -40c0 -9.33301 -1.33301 -18.333 -4 -27s-6.66699 -19 -12 -31l-50 -106h-54l29 117c-15.333 12 -23 27.667 -23 47z" />
    <glyph glyph-name="uni0327" unicode="&#x327;" 
d="M338 -141c0 17.333 -7.66797 28.6641 -23.001 33.9971s-36.666 8 -63.999 8l9 115h61v-72c33.333 -3.33301 57.333 -13.166 72 -29.499s22 -34.833 22 -55.5c0 -16.667 -3.33301 -31.167 -10 -43.5s-15.834 -22.666 -27.501 -30.999s-25 -14.666 -40 -18.999
s-30.833 -6.5 -47.5 -6.5c-20.667 0 -40.167 2.33301 -58.5 7s-34.166 10.667 -47.499 18l28 51c9.33301 -5.33301 20 -9.33301 32 -12s23.667 -4 35 -4c17.333 0 31.5 3 42.5 9s16.5 16.333 16.5 31z" />
    <glyph glyph-name="uni0328" unicode="&#x328;" 
d="M352 0c-18.667 -10.667 -33.834 -21.667 -45.501 -33s-20.667 -22.5 -27 -33.5s-10.666 -21.667 -12.999 -32s-3.5 -19.833 -3.5 -28.5c0 -15.333 5 -28 15 -38s26.333 -15 49 -15c13.333 0 25.5 1.66699 36.5 5s19.5 6.66602 25.5 9.99902l25 -54
c-16 -8 -31.833 -13.667 -47.5 -17s-32.167 -5 -49.5 -5c-42 0 -74.333 10 -97 30s-34 47 -34 81c0 32 13.833 62.333 41.5 91s64.5 50.334 110.5 65.001z" />
    <glyph glyph-name="uni0335" unicode="&#x335;" 
d="M474 278h-349v70h349v-70z" />
    <glyph glyph-name="uni0336" unicode="&#x336;" 
d="M627 278h-653v70h653v-70z" />
    <glyph glyph-name="tonos" unicode="&#x384;" 
d="M231 601l38 211l100 -18l-69 -205z" />
    <glyph glyph-name="dieresistonos" unicode="&#x385;" 
d="M185 612c-16.667 0 -30.5 5.33301 -41.5 16s-16.5 24 -16.5 40c0 16.667 5.5 30.334 16.5 41.001s24.833 16 41.5 16c16 0 29.5 -5.33301 40.5 -16s16.5 -24.334 16.5 -41.001c0 -16 -5.5 -29.333 -16.5 -40s-24.5 -16 -40.5 -16zM414 612c-16 0 -29.5 5.33301 -40.5 16
s-16.5 24 -16.5 40c0 16.667 5.5 30.334 16.5 41.001s24.5 16 40.5 16c16.667 0 30.5 -5.33301 41.5 -16s16.5 -24.334 16.5 -41.001c0 -16 -5.5 -29.333 -16.5 -40s-24.833 -16 -41.5 -16zM265 727l29 179l101 -18l-62 -171z" />
    <glyph glyph-name="Alphatonos" unicode="&#x386;" 
d="M430 173h-265l-53 -173h-95l223 689h120l223 -689h-100zM188 250h219l-107 353h-4zM47 512l48 189l100 -16l-78 -185z" />
    <glyph glyph-name="Epsilontonos" unicode="&#x388;" 
d="M207 613v-225h254v-76h-254v-237h311v-75h-406v689h398l-11 -76h-292zM-65 512l48 189l100 -16l-78 -185z" />
    <glyph glyph-name="Etatonos" unicode="&#x389;" 
d="M425 0v323h-250v-323h-95v689h95v-288h250v288h95v-689h-95zM-97 512l48 189l100 -16l-78 -185z" />
    <glyph glyph-name="Iotatonos" unicode="&#x38a;" 
d="M500 614h-152v-539h152v-75h-400v75h152v539h-152v75h400v-75zM-69 512l48 189l100 -16l-78 -185z" />
    <glyph glyph-name="Omicrontonos" unicode="&#x38c;" 
d="M556 344c0 -52.667 -5.33301 -100.837 -16 -144.504s-26.834 -81.167 -48.501 -112.5s-48.5 -55.666 -80.5 -72.999s-69 -26 -111 -26s-79 8.5 -111 25.5s-58.833 41 -80.5 72s-37.834 68.333 -48.501 112s-16 92.167 -16 145.5c0 52.667 5.33301 100.834 16 144.501
s26.834 81.334 48.501 113.001s48.5 56.334 80.5 74.001s69 26.5 111 26.5s79 -8.5 111 -25.5s58.833 -41.167 80.5 -72.5s37.834 -69 48.501 -113s16 -92.667 16 -146zM457 343.997c0 90.667 -12.167 159.833 -36.5 207.5s-64.5 71.5 -120.5 71.5s-96.167 -24 -120.5 -72
s-36.5 -117.333 -36.5 -208c0 -91.333 12.5 -160.333 37.5 -207s64.833 -70 119.5 -70c56 0 96.167 23.5 120.5 70.5s36.5 116.167 36.5 207.5zM-63 511.996l48 189l100 -16l-78 -185z" />
    <glyph glyph-name="Upsilontonos" unicode="&#x38e;" 
d="M348 265v-265h-96v264l-232 425h105l176 -337h3l177 337h99zM-127 512l48 189l100 -16l-78 -185z" />
    <glyph glyph-name="Omegatonos" unicode="&#x38f;" 
d="M300 623c-26 0 -48.6689 -5.00098 -68.002 -15.001s-35.666 -25.833 -48.999 -47.5s-23.333 -49.667 -30 -84s-10 -75.833 -10 -124.5c0 -79.333 10.667 -141.166 32 -185.499s52 -76.5 92 -96.5v-70h-212v75h112v4c-39.333 20 -69.666 52.333 -90.999 97
s-32 103.334 -32 176.001c0 55.333 6 104.666 18 147.999s29 79.833 51 109.5s48.833 52.334 80.5 68.001s67.167 23.5 106.5 23.5s74.833 -7.83301 106.5 -23.5s58.5 -38.334 80.5 -68.001s39 -66.167 51 -109.5s18 -92.666 18 -147.999c0 -72.667 -11 -131 -33 -175
s-52.667 -76.667 -92 -98v-4h114v-75h-211v70c40 20 70.5 52.167 91.5 96.5s31.5 106.166 31.5 185.499c0 48.667 -3.33301 90.167 -10 124.5s-16.667 62.333 -30 84s-29.833 37.5 -49.5 47.5s-42.167 15 -67.5 15zM-64.002 511.999l48 189l100 -16l-78 -185z" />
    <glyph glyph-name="iotadieresistonos" unicode="&#x390;" 
d="M236 458c-12.667 -1.33301 -25 -2.33203 -37 -2.99902s-24.333 -1 -37 -1c-17.333 0 -34.5 0.666992 -51.5 2s-33.833 3.33301 -50.5 6l10 72c18 -2.66699 37.5 -4.5 58.5 -5.5s42.833 -1.5 65.5 -1.5s45.334 0.5 68.001 1.5s44.667 2.83301 66 5.5v-400
c0 -25.333 7.83301 -43.333 23.5 -54s36.167 -16 61.5 -16c14 0 28.5 1.66699 43.5 5s29.5 7.66602 43.5 12.999l24 -66c-12.667 -7.33301 -30.834 -13.833 -54.501 -19.5s-48.167 -8.5 -73.5 -8.5c-48.667 0 -87.5 13.5 -116.5 40.5s-43.5 64.833 -43.5 113.5v316z
M162 612.001c-16.667 0 -30.5 5.33301 -41.5 16s-16.5 24 -16.5 40c0 16.667 5.5 30.334 16.5 41.001s24.833 16 41.5 16c16 0 29.5 -5.33301 40.5 -16s16.5 -24.334 16.5 -41.001c0 -16 -5.5 -29.333 -16.5 -40s-24.5 -16 -40.5 -16zM391 612.001
c-16 0 -29.5 5.33301 -40.5 16s-16.5 24 -16.5 40c0 16.667 5.5 30.334 16.5 41.001s24.5 16 40.5 16c16.667 0 30.5 -5.33301 41.5 -16s16.5 -24.334 16.5 -41.001c0 -16 -5.5 -29.333 -16.5 -40s-24.833 -16 -41.5 -16zM242 727.001l29 179l101 -18l-62 -171z" />
    <glyph glyph-name="Alpha" unicode="&#x391;" 
d="M430 173h-265l-53 -173h-95l223 689h120l223 -689h-100zM188 250h219l-107 353h-4z" />
    <glyph glyph-name="Beta" unicode="&#x392;" 
d="M443 195c0 25.333 -3.83398 46.166 -11.501 62.499s-18 29.333 -31 39s-28.167 16.334 -45.5 20.001s-36 5.5 -56 5.5h-112v-245h108c16.667 0 33.834 1.5 51.501 4.5s33.667 8.83301 48 17.5s26 20.667 35 36s13.5 35.333 13.5 60zM415.999 509
c0 38 -11.668 65.001 -35.001 81.001s-55.666 24 -96.999 24h-97v-216h105c40 0 70.667 8.66699 92 26s32 45.666 32 84.999zM542.998 197.001c0 -38 -7.50293 -69.5029 -22.5029 -94.5029s-34.833 -45.167 -59.5 -60.5s-52.667 -26.166 -84 -32.499s-63 -9.5 -95 -9.5h-190
v689h175c30.667 0 60.834 -2.66699 90.501 -8s56 -14.666 79 -27.999s41.5 -31.166 55.5 -53.499s21 -50.5 21 -84.5c0 -22 -3.5 -41.5 -10.5 -58.5s-16.167 -31.5 -27.5 -43.5s-24.166 -21.667 -38.499 -29s-28.833 -12.666 -43.5 -15.999v-4
c17.333 -3.33301 34.833 -8.5 52.5 -15.5s33.834 -17 48.501 -30s26.5 -29.333 35.5 -49s13.5 -43.834 13.5 -72.501z" />
    <glyph glyph-name="Gamma" unicode="&#x393;" 
d="M546 689l-10 -82h-310v-607h-95v689h415z" />
    <glyph glyph-name="uni0394" unicode="&#x394;" 
d="M240 689h120l223 -689h-566zM136 78h323l-159 525h-4z" />
    <glyph glyph-name="Epsilon" unicode="&#x395;" 
d="M207 613v-225h254v-76h-254v-237h311v-75h-406v689h398l-11 -76h-292z" />
    <glyph glyph-name="Zeta" unicode="&#x396;" 
d="M174 81h357l-11 -81h-452v76l360 533h-324v80h427v-77z" />
    <glyph glyph-name="Eta" unicode="&#x397;" 
d="M425 0v323h-250v-323h-95v689h95v-288h250v288h95v-689h-95z" />
    <glyph glyph-name="Theta" unicode="&#x398;" 
d="M399 310h-199v74h199v-74zM556 344c0 -52.667 -5.33301 -100.837 -16 -144.504s-26.834 -81.167 -48.501 -112.5s-48.5 -55.666 -80.5 -72.999s-69 -26 -111 -26s-79 8.5 -111 25.5s-58.833 41 -80.5 72s-37.834 68.333 -48.501 112s-16 92.167 -16 145.5
c0 52.667 5.33301 100.834 16 144.501s26.834 81.334 48.501 113.001s48.5 56.334 80.5 74.001s69 26.5 111 26.5s79 -8.5 111 -25.5s58.833 -41.167 80.5 -72.5s37.834 -69 48.501 -113s16 -92.667 16 -146zM457 343.997c0 90.667 -12.167 159.833 -36.5 207.5
s-64.5 71.5 -120.5 71.5s-96.167 -24 -120.5 -72s-36.5 -117.333 -36.5 -208c0 -91.333 12.5 -160.333 37.5 -207s64.833 -70 119.5 -70c56 0 96.167 23.5 120.5 70.5s36.5 116.167 36.5 207.5z" />
    <glyph glyph-name="Iota" unicode="&#x399;" 
d="M500 614h-152v-539h152v-75h-400v75h152v539h-152v75h400v-75z" />
    <glyph glyph-name="Kappa" unicode="&#x39a;" 
d="M195 0h-95v689h95v-689zM200 368l262 321h108l-261 -315l280 -374h-117z" />
    <glyph glyph-name="Lambda" unicode="&#x39b;" 
d="M117 0h-96l219 689h120l218 -689h-100l-178 597h-4z" />
    <glyph glyph-name="Mu" unicode="&#x39c;" 
d="M481 0l-20 353.003c-1.33301 33.333 -2.5 67.166 -3.5 101.499s-1.5 63.166 -1.5 86.499c0 10.667 0.166992 19.667 0.5 27s0.5 12.666 0.5 15.999h-3l-109 -461h-91l-114 461h-4v-161c0 -24.667 -0.666992 -48 -2 -70l-17 -353h-88l39 689h126l106 -460h4l101 460h127
l39 -689h-90z" />
    <glyph glyph-name="Nu" unicode="&#x39d;" 
d="M390 0l-231.998 583.003h-4c0.666992 -4 1.66699 -14 3 -30s2.66602 -35.667 3.99902 -59s2.66602 -48.833 3.99902 -76.5s2 -54.834 2 -81.501v-336h-87v689h127l235 -586h4c-0.666992 4 -1.66699 13.5 -3 28.5s-2.83301 33.667 -4.5 56s-3 47.666 -4 75.999
s-1.5 58.166 -1.5 89.499v336h87v-689h-130z" />
    <glyph glyph-name="Xi" unicode="&#x39e;" 
d="M125 392h341v-85h-341v85zM74 689h443l-13 -85h-430v85zM74 87h452v-87h-452v87z" />
    <glyph glyph-name="Omicron" unicode="&#x39f;" 
d="M556 344c0 -52.667 -5.33301 -100.837 -16 -144.504s-26.834 -81.167 -48.501 -112.5s-48.5 -55.666 -80.5 -72.999s-69 -26 -111 -26s-79 8.5 -111 25.5s-58.833 41 -80.5 72s-37.834 68.333 -48.501 112s-16 92.167 -16 145.5c0 52.667 5.33301 100.834 16 144.501
s26.834 81.334 48.501 113.001s48.5 56.334 80.5 74.001s69 26.5 111 26.5s79 -8.5 111 -25.5s58.833 -41.167 80.5 -72.5s37.834 -69 48.501 -113s16 -92.667 16 -146zM457 343.997c0 90.667 -12.167 159.833 -36.5 207.5s-64.5 71.5 -120.5 71.5s-96.167 -24 -120.5 -72
s-36.5 -117.333 -36.5 -208c0 -91.333 12.5 -160.333 37.5 -207s64.833 -70 119.5 -70c56 0 96.167 23.5 120.5 70.5s36.5 116.167 36.5 207.5z" />
    <glyph glyph-name="Pi" unicode="&#x3a0;" 
d="M425 0v608h-250v-608h-95v689h440v-689h-95z" />
    <glyph glyph-name="Rho" unicode="&#x3a1;" 
d="M458 475c0 26 -4 47.833 -12 65.5s-19 32 -33 43s-30.667 19 -50 24s-40.333 7.5 -63 7.5h-95v-287h95c22.667 0 43.667 2.16699 63 6.5s36 12 50 23s25 26 33 45s12 43.167 12 72.5zM559 476c0 -40 -6.66797 -74.166 -20.001 -102.499s-31.666 -51.5 -54.999 -69.5
s-51.5 -31 -84.5 -39s-68.833 -12 -107.5 -12h-87v-253h-95v689h180c83.333 0 149 -17.333 197 -52s72 -88.334 72 -161.001z" />
    <glyph glyph-name="Sigma" unicode="&#x3a3;" 
d="M406 315l-225 -237h348v-78h-458v78l250 266l-250 266v79h458v-78h-349l226 -234v-62z" />
    </font>
</defs>
</svg>
