<?xml version="1.0" standalone="no"?>
<!DOCTYPE svg PUBLIC "-//W3C//DTD SVG 1.1//EN" "http://www.w3.org/Graphics/SVG/1.1/DTD/svg11.dtd" >
<svg xmlns="http://www.w3.org/2000/svg">
<metadata>Generated by IcoMoon</metadata>
<defs>
<font id="argon" horiz-adv-x="1024">
<font-face units-per-em="1024" ascent="960" descent="-64" />
<missing-glyph horiz-adv-x="1024" />
<glyph unicode="&#x20;" horiz-adv-x="512" d="" />
<glyph unicode="&#xe20b;" glyph-name="expand_more" d="M708 572.667l60-60-256-256-256 256 60 60 196-196z" />
<glyph unicode="&#xe20e;" glyph-name="menu" d="M128 682.667h768v-86h-768v86zM128 384.667v84h768v-84h-768zM128 170.667v86h768v-86h-768z" />
<glyph unicode="&#xe291;" glyph-name="favorite" d="M512 28.667l-62 56q-106 96-154 142t-107 114-81 123-22 113q0 98 67 166t167 68q116 0 192-90 76 90 192 90 100 0 167-68t67-166q0-78-52-162t-113-146-199-186z" />
<glyph unicode="&#xe603;" glyph-name="spinner" d="M512 960c-278.748 0-505.458-222.762-511.848-499.974 5.92 241.864 189.832 435.974 415.848 435.974 229.75 0 416-200.576 416-448 0-53.020 42.98-96 96-96s96 42.98 96 96c0 282.77-229.23 512-512 512zM512-64c278.748 0 505.458 222.762 511.848 499.974-5.92-241.864-189.832-435.974-415.848-435.974-229.75 0-416 200.576-416 448 0 53.020-42.98 96-96 96s-96-42.98-96-96c0-282.77 229.23-512 512-512z" />
<glyph unicode="&#xe900;" glyph-name="delete" d="M125.458 707.971l32.017-640.746c0-72.474 59.964-131.225 133.93-131.225h442.45c73.965 0 133.936 58.75 133.936 131.225l30.8 640.746h-773.133zM936.022 753.424c0.132 27.023 0.212 28.82 0.212 30.63 0 70.468-41.716 109.142-97.69 109.142l-155.797-0.164c0 36.987-36.126 66.968-73.112 66.968h-193.946c-36.979 0-74.274-29.981-74.274-66.968l-155.958 0.164c-61.826 0-97.69-47.127-97.69-109.142 0-1.817 0.072-3.608 0.212-30.63h848.046zM646.026 539.594c0 20.428 16.556 36.986 36.979 36.986 20.428 0 36.986-16.558 36.986-36.986v-423.683c0-20.43-16.558-36.987-36.986-36.987-20.423 0-36.979 16.558-36.979 36.987v423.683zM475.011 539.594c0 20.428 16.563 36.986 36.987 36.986 20.428 0 36.986-16.558 36.986-36.986v-423.683c0-20.43-16.558-36.987-36.986-36.987-20.423 0-36.987 16.558-36.987 36.987v423.683zM304.113 539.594c0 20.428 16.558 36.986 36.987 36.986 20.422 0 36.986-16.558 36.986-36.986v-423.683c0-20.43-16.563-36.987-36.986-36.987-20.43 0-36.987 16.558-36.987 36.987v423.683z" />
<glyph unicode="&#xe901;" glyph-name="edit" d="M272.359 84.325c-6.319-1.194-12.678-1.728-18.975-1.728-27.681 0-54.578 10.908-74.5 30.859-24.491 24.471-35.378 59.415-29.143 93.476 61.33 335.066 88.166 361.923 109.776 383.553l285.612 285.592-65.898 65.898h-416.008c-34.925 0-63.223-28.298-63.223-63.222v-878.107c0-34.946 28.299-63.223 63.223-63.223h634.405c34.927 0 63.225 28.276 63.225 63.223v298.383l-104.98-104.98c-21.589-21.568-48.445-48.404-383.512-109.723zM1005.077 783.632l-156.041 156.040c-25.211 25.211-66.104 25.211-91.313-0.021l-423.707-423.685c-25.212-25.232-80.633-328.009-80.633-328.009s302.777 55.423 328.009 80.633l423.685 423.707c25.232 25.212 25.232 66.104 0 91.336zM441.878 297.937l-47.643-16.134c-1.338-0.455-2.779-0.659-4.219-0.681-0.267 0-0.536 0.084-0.803 0.103-1.544 0.063-3.087 0.351-4.549 0.845-0.433 0.144-0.885 0.289-1.296 0.472-1.626 0.701-3.149 1.544-4.281 2.697l-28.462 28.463c-3.539 3.539-5.145 10.042-3.416 15.105l16.155 47.645c1.008 2.984 2.305 5.699 3.684 8.251 0.33 0.639 0.68 1.256 1.050 1.854 1.42 2.386 2.944 4.609 4.59 6.421 0.144 0.164 0.287 0.267 0.432 0.411 1.565 1.646 3.19 2.945 4.817 3.973 0.433 0.268 0.864 0.535 1.275 0.741 1.791 0.907 3.561 1.523 5.29 1.544 0.782 0 1.502-0.207 2.244-0.392 0.473-0.103 0.946-0.103 1.399-0.289 1.194-0.495 2.325-1.235 3.396-2.305l70.569-70.57c8.787-8.788-2.655-22.186-20.231-28.155zM888.078 726.727l-42.845-42.847c-8.233-8.232-21.569-8.232-29.802 0l-66.124 66.124c-8.231 8.233-8.231 21.568 0 29.801l42.849 42.847c8.231 8.232 21.567 8.232 29.8 0l66.122-66.124c8.233-8.233 8.233-21.568 0-29.801z" />
<glyph unicode="&#xe902;" glyph-name="use" d="M0 426.667l384-384 640 640-170.667 170.667-469.333-469.333-213.333 213.333z" />
<glyph unicode="&#xe903;" glyph-name="loading" d="M870.623 198.711c0-3.451 2.797-6.248 6.248-6.248s6.248 2.797 6.248 6.248c0 0 0 0.001 0 0.001 0 3.45-2.797 6.247-6.247 6.247 0 0-0.001 0-0.001 0v0c0 0-0.001 0-0.001 0-3.45 0-6.247-2.797-6.247-6.247 0 0 0-0.001 0-0.001v0zM732.694 56.388c0-6.863 5.563-12.427 12.427-12.427s12.427 5.563 12.427 12.427-5.563 12.427-12.427 12.427-12.427-5.563-12.427-12.427zM546.774-16.868c0-10.313 8.361-18.674 18.674-18.674s18.674 8.361 18.674 18.674-8.361 18.674-18.674 18.674-18.674-8.361-18.674-18.674zM346.643-7.050c0-13.726 11.128-24.853 24.853-24.853s24.853 11.128 24.853 24.853-11.128 24.853-24.853 24.853-24.853-11.128-24.853-24.853zM169.099 84.056c0-17.177 13.924-31.101 31.101-31.101s31.101 13.924 31.101 31.101-13.924 31.101-31.101 31.101-31.101-13.924-31.101-31.101zM46.137 238.943c0-20.627 16.722-37.349 37.349-37.349s37.349 16.722 37.349 37.349-16.722 37.349-37.349 37.349-37.349-16.722-37.349-37.349zM0 429.12c0-24.040 19.487-43.528 43.528-43.528s43.528 19.487 43.528 43.528-19.487 43.528-43.528 43.528-43.528-19.487-43.528-43.528zM37.967 618.060c0-27.49 22.285-49.775 49.775-49.775s49.775 22.285 49.775 49.775c0 27.49-22.285 49.775-49.775 49.775s-49.775-22.285-49.775-49.775zM151.866 770.407c0-30.941 25.082-56.023 56.023-56.023s56.023 25.082 56.023 56.023c0 30.941-25.082 56.023-56.023 56.023s-56.023-25.082-56.023-56.023zM319.112 857.669c0-34.354 27.848-62.202 62.202-62.202s62.202 27.848 62.202 62.202-27.848 62.202-62.202 62.202-62.202-27.848-62.202-62.202zM506.954 863.092c0-37.804 30.646-68.45 68.45-68.45s68.45 30.646 68.45 68.45c0 37.804-30.646 68.45-68.45 68.45s-68.45-30.646-68.45-68.45zM678.936 785.717c0-41.216 33.413-74.629 74.629-74.629s74.629 33.413 74.629 74.629-33.413 74.629-74.629 74.629-74.629-33.413-74.629-74.629zM801.144 640.373c0-44.667 36.209-80.876 80.876-80.876s80.876 36.209 80.876 80.876-36.209 80.876-80.876 80.876-80.876-36.209-80.876-80.876zM849.752 452.119c0-48.117 39.007-87.124 87.124-87.124s87.124 39.007 87.124 87.124c0 48.117-39.007 87.124-87.124 87.124s-87.124-39.007-87.124-87.124z" />
<glyph unicode="&#xe904;" glyph-name="switch" d="M275.2 486.4v-512h121.6v947.2l-396.8-435.2zM748.8 409.6v512h-121.6v-947.2l396.8 435.2z" />
<glyph unicode="&#xe905;" glyph-name="error" d="M0.001 886.857l73.143 73.143 950.855-950.855-73.142-73.143-950.857 950.855zM73.146-63.998l-73.142 73.143 950.855 950.855 73.142-73.142-950.855-950.857z" />
<glyph unicode="&#xe906;" glyph-name="dashboard" d="M567.979 960h456.021v-341.333h-456.021v341.333zM567.979-64v567.979h456.021v-567.979h-456.021zM0-64v341.333h456.021v-341.333h-456.021zM0 392.021v567.979h456.021v-567.979h-456.021z" />
<glyph unicode="&#xe907;" glyph-name="logout" d="M764.839 182.518v164.346h-353.976v202.272h353.976v164.346l265.482-265.482-265.482-265.482zM562.568 953.68c55.624 0 101.136-45.511 101.136-101.136v-202.272h-101.136v202.272h-455.112v-809.088h455.112v202.272h101.136v-202.272c0-55.624-45.511-101.136-101.136-101.136h-455.112c-55.624 0-101.136 45.511-101.136 101.136v809.088c0 55.624 45.511 101.136 101.136 101.136h455.112z" />
<glyph unicode="&#xe908;" glyph-name="Network" d="M384 192h256v-256h-256zM384 959.999h256v-256h-256zM768 192h256v-256h-256zM0.001 192h256v-256h-256zM480.001 640h64v-160h-64zM480.001 448h64v-192h-64zM928 256h-64v160h-704v-160h-64v224h832z" />
<glyph unicode="&#xe909;" glyph-name="services" d="M548.901 208.144c2.306 9.225 2.306 20.757 2.306 32.289s0 20.757-2.306 32.289l64.576 46.126c6.919 4.613 9.225 13.838 4.613 20.757l-62.27 106.090c-4.613 6.919-11.532 9.225-18.451 6.919l-71.495-34.595c-16.144 13.838-34.595 23.063-55.351 32.289l-6.919 78.414c0 6.919-6.919 13.838-13.838 13.838h-122.235c-6.919 0-13.838-6.919-13.838-13.838l-9.225-80.721c-20.757-6.919-36.901-18.451-55.351-32.289l-71.495 32.289c-6.919 2.306-16.144 0-18.451-6.919l-62.27-106.090c-4.613-6.919-2.306-16.144 4.613-20.757l64.576-46.126c-2.306-9.225-2.306-20.757-2.306-32.289s0-20.757 2.306-32.289l-64.576-46.126c-6.919-4.613-9.225-13.838-4.613-20.757l62.27-106.090c4.613-6.919 11.532-9.225 18.451-6.919l71.495 32.289c16.144-13.838 34.595-23.063 55.351-32.289l6.919-78.414c0-6.919 6.919-13.838 13.838-13.838h122.235c6.919 0 13.838 6.919 13.838 13.838l6.919 78.414c20.757 6.919 36.901 18.451 55.351 32.289l71.495-32.289c6.919-2.306 16.144 0 18.451 6.919l62.27 106.090c4.613 6.919 2.306 16.144-4.613 20.757l-62.27 50.738zM327.495 125.117c-64.576 0-115.316 50.738-115.316 115.316s50.738 115.316 115.316 115.316 115.316-50.738 115.316-115.316-50.738-115.316-115.316-115.316zM924.829 648.649c2.306 11.532 2.306 20.757 2.306 29.982s0 18.451-2.306 29.982l57.657 41.514c6.919 4.613 6.919 11.532 4.613 18.451l-57.657 99.171c-4.613 6.919-11.532 9.225-18.451 4.613l-66.883-29.982c-16.144 11.532-32.289 20.757-50.738 29.982l-6.919 71.495c2.306 6.919-2.306 11.532-9.225 11.532h-113.009c-6.919 0-13.838-4.613-13.838-11.532l-6.919-71.495c-18.451-6.919-34.595-16.144-50.738-29.982l-66.883 29.982c-6.919 2.306-13.838 0-18.451-4.613l-57.657-99.171c-4.613-6.919-2.306-13.838 4.613-18.451l57.657-41.514v-29.982c0-9.225 0-18.451 2.306-29.982l-57.657-41.514c-6.919-4.613-6.919-11.532-4.613-18.451l57.657-99.171c4.613-6.919 11.532-9.225 18.451-4.613l66.883 29.982c16.144-11.532 32.289-20.757 50.738-29.982l6.919-71.495c0-6.919 6.919-11.532 13.838-11.532h113.009c6.919 0 13.838 4.613 13.838 11.532l6.919 71.495c18.451 6.919 34.595 16.144 50.738 29.982l66.883-29.982c6.919-2.306 13.838 0 18.451 4.613l57.657 99.171c4.613 6.919 2.306 13.838-4.613 18.451l-64.576 41.514zM719.568 563.316c-64.576 0-115.316 50.738-115.316 115.316s50.738 115.316 115.316 115.316 115.316-50.738 115.316-115.316-50.738-115.316-115.316-115.316z" />
<glyph unicode="&#xe90a;" glyph-name="system" d="M512 191.089c-142.121 0-255.089 112.968-255.089 255.089s112.968 255.089 255.089 255.089 255.089-112.968 255.089-255.089-112.968-255.089-255.089-255.089zM1022.178 362.363v167.63c-32.797 7.288-69.238 14.577-109.324 18.221-10.932 40.085-25.509 76.527-43.73 109.324 25.509 32.797 47.374 61.95 65.594 91.103l-120.256 120.256c-29.153-18.221-58.306-40.085-91.103-61.95-32.797 18.221-69.238 36.441-109.324 43.73-3.644 40.085-10.932 76.527-18.221 109.324h-167.63c-7.288-32.797-14.577-69.238-18.221-109.324-40.085-10.932-76.527-25.509-109.324-43.73-32.797 18.221-61.95 40.085-91.103 58.306l-116.612-116.612c18.221-29.153 40.085-58.306 61.95-91.103-18.221-32.797-36.441-69.238-43.73-109.324-40.085-3.644-76.527-10.932-109.324-18.221v-167.63c32.797-7.288 69.238-14.577 109.324-18.221 10.932-40.085 25.509-76.527 43.73-109.324-25.509-32.797-47.374-61.95-61.95-91.103l120.256-120.256c29.153 18.221 58.306 40.085 91.103 65.594 32.797-18.221 69.238-36.441 109.324-43.73 3.644-40.085 10.932-76.527 18.221-109.324h167.63c7.288 32.797 14.577 69.238 18.221 109.324 40.085 10.932 76.527 25.509 109.324 43.73 32.797-25.509 61.95-47.374 91.103-65.594l120.256 120.256c-18.221 29.153-40.085 58.306-65.594 91.103 18.221 32.797 36.441 69.238 43.73 109.324 36.441 3.644 72.883 10.932 105.68 18.221z" />
<glyph unicode="&#xe90b;" glyph-name="vpn" d="M977.454 820.363v23.272c0 65.163-51.2 116.364-116.364 116.364s-116.364-51.2-116.364-116.364v-23.272c-27.927 0-46.546-18.619-46.546-46.546v-186.182c0-27.927 18.619-46.546 46.546-46.546h232.727c27.927 0 46.546 18.619 46.546 46.546v186.182c0 27.927-18.619 46.546-46.546 46.546zM940.217 820.363h-158.255v23.272c0 41.891 37.236 79.127 79.127 79.127s79.127-37.236 79.127-79.127v-23.272zM833.163 448c0-13.964 4.655-32.582 4.655-46.546 0-97.745-37.236-186.182-97.745-251.345-13.964 37.236-46.546 65.163-88.437 65.163h-46.546v139.636c0 27.927-18.619 46.546-46.546 46.546h-279.272v93.090h93.090c27.927 0 46.546 18.619 46.546 46.546v93.090h93.090c51.2 0 93.090 41.891 93.090 93.090v116.364c-41.891 13.964-93.090 23.272-139.636 23.272-256 0-465.454-209.454-465.454-465.454s209.454-465.454 465.454-465.454 465.454 209.454 465.454 465.454c0 13.964 0 32.582-4.655 46.546h-93.090zM418.91 33.746c-181.527 23.272-325.818 181.527-325.818 367.709 0 27.927 4.655 55.854 9.309 83.782l223.418-223.418v-46.546c0-51.2 41.891-93.090 93.090-93.090v-88.437z" />
<glyph unicode="&#xe90c;" glyph-name="storage" d="M512 521.152c90.304 0 174.656 8.192 253.12 24.576s140.416 40.576 185.728 72.576v-97.152c0-26.304-19.648-50.688-58.88-73.152s-92.544-40.32-160-53.44c-67.392-13.12-140.736-19.712-219.968-19.712s-152.576 6.592-220.032 19.712c-67.392 13.184-120.704 30.976-160 53.44-39.232 22.464-58.88 46.848-58.88 73.152v97.152c45.312-32 107.264-56.192 185.728-72.576 78.528-16.384 162.88-24.576 253.184-24.576v0 0zM512 82.304c90.304 0 174.656 8.192 253.12 24.576s140.416 40.576 185.728 72.576v-97.152c0-26.304-19.648-50.688-58.88-73.152s-92.544-40.32-160-53.44c-67.392-13.12-140.736-19.712-219.968-19.712s-152.576 6.592-220.032 19.712c-67.456 13.12-120.768 30.976-160 53.44s-58.88 46.848-58.88 73.152v97.152c45.312-32 107.264-56.192 185.728-72.576 78.528-16.384 162.88-24.576 253.184-24.576v0 0zM512 301.696c90.304 0 174.656 8.192 253.12 24.576s140.416 40.576 185.728 72.576v-97.152c0-26.304-19.648-50.688-58.88-73.152s-92.544-40.256-160-53.44c-67.392-13.12-140.736-19.648-219.968-19.648s-152.576 6.592-220.032 19.712c-67.456 13.12-120.768 30.976-160 53.44s-58.88 46.848-58.88 73.152v97.088c45.312-32 107.264-56.192 185.728-72.576 78.528-16.384 162.88-24.576 253.184-24.576v0 0zM512 960c79.232 0 152.576-6.592 220.032-19.712s120.768-30.976 160-53.44c39.232-22.464 58.88-46.848 58.88-73.152v-73.152c0-26.304-19.648-50.688-58.88-73.152s-92.544-40.256-160-53.44c-67.456-13.12-140.8-19.648-220.032-19.648s-152.576 6.592-220.032 19.712c-67.456 13.12-120.768 30.976-160 53.44s-58.88 46.848-58.88 73.152v73.088c0 26.304 19.648 50.688 58.88 73.152s92.544 40.32 160 53.44c67.456 13.12 140.8 19.712 220.032 19.712v0 0z" />
<glyph unicode="&#xe90d;" glyph-name="statistics" d="M933.842 916.59h-845.911c-48.973 0-89.044-40.069-89.044-89.044v-623.301c0-48.973 40.069-89.044 89.044-89.044h378.434v-66.783h-175.861c-22.261 0-42.296-15.583-46.748-37.844-4.452-28.939 17.808-51.2 44.521-51.2h442.991c22.261 0 42.296 15.583 46.748 37.844 4.452 28.939-17.808 51.2-44.521 51.2h-178.086v66.783h378.434c48.973 0 89.044 40.069 89.044 89.044v623.301c0 48.973-40.069 89.044-89.044 89.044zM800.277 471.374h-146.921l-51.2-151.373c-4.452-13.356-22.261-15.583-31.165-4.452l-160.278 222.61-20.035-51.2c-2.227-8.904-11.131-13.356-20.035-13.356h-169.182c-22.261 0-42.296 15.583-46.748 37.844-4.452 28.939 17.808 51.2 44.521 51.2h124.661l51.2 129.113c4.452 13.356 22.261 15.583 31.165 4.452l155.826-213.705 22.261 66.783c2.227 8.904 11.131 15.583 20.035 15.583h191.443c22.261 0 42.296-15.583 46.748-37.844 6.679-33.392-13.356-55.652-42.296-55.652z" />
<glyph unicode="&#xe90e;" glyph-name="hello-world" d="M490 960c14.6 0 29.4 0 44 0 4.2-0.8 8.2-2 12.4-2.6 23-3 46.4-4.4 69-9.2 105-22 194.8-71.8 268.2-149.8 77.6-82.6 123.2-180.4 135.8-293.2 1.4-11.8 3-23.4 4.6-35.2 0-14.6 0-29.4 0-44-0.8-4.2-2-8.2-2.6-12.4-3-23-4.4-46.4-9.2-69-22-105-71.8-194.8-149.8-268.2-82.6-77.6-180.4-123.2-293.2-135.8-11.8-1.4-23.4-3-35.2-4.6-14.6 0-29.4 0-44 0-4.2 0.8-8.2 2-12.4 2.6-23 3-46.4 4.4-69 9.2-105 22-194.8 71.8-268.2 149.8-77.6 82.6-123.2 180.4-135.8 293.2-1.4 11.8-3 23.4-4.6 35.2 0 14.6 0 29.4 0 44 0.8 4.2 2 8.2 2.6 12.4 3 23 4.4 46.4 9.2 69 22 105 71.8 194.8 149.8 268.2 82.6 77.6 180.4 123.2 293.2 135.8 11.8 1.4 23.4 3 35.2 4.6zM337.6 321c6.6-22.4 12.2-41.8 18.2-61.2 3.6-12 11.6-18.4 22-18.4 9.8 0 19 7 23 17.8 2 5.6 3.6 11.4 5.4 17.2 11.2 35.8 22.6 71.6 33.6 107.6 5 16.4-6.4 30.8-21.6 27.8-9.6-2-15.8-7.6-18.6-17.4-6.4-23-13.2-45.8-20.6-71-6.4 22.4-12.2 42.4-18 62.6-3.6 12.6-11.4 19.8-21.8 20.2-10.8 0.4-20.2-7.4-24-20.2-2-6.6-3.8-13.4-5.8-20.2-4.4-15.4-8.6-30.6-13.6-48-7.2 23.8-13.6 45-20.4 66.2-4 13-14 18.4-26 14.8-11.6-3.4-18.2-15.4-14.6-27.6 2.8-9.2 5.8-18.4 8.8-27.6 9.8-30 19.6-60 29.6-90 4-12 11-17.8 21.2-18.2 10.4-0.4 20 6.8 24 17.8 1.2 3.2 1.8 6.4 2.8 9.6 4.8 18.6 10.2 37 16.4 58.2zM880.8 395.6c0 28.4 0 56.6 0 85 0 13-7.8 21.4-19.8 21.4s-21.8-9.2-22-21.2c-0.2-11-0.2-22 0-33 0.2-6.8-1-9-9-7.8-44.6 6.8-80.6-23.6-79.2-66.2 0.4-15.4 0.2-30.6 0.2-46 0.2-25.2 18.2-47.4 42.6-52.4 25.8-5.2 50.2 1.2 73.6 11.6 9.2 4 13.6 12 13.6 22.6 0 28.6 0 57.2 0 86zM184.8 586.4c0 10.2 0 22.4 0 34.6 0 13.2-7.6 21.4-19.6 21.6-11.8 0-22.2-9.4-22.2-21 0-61.6 0-123.4 0-185 0-8.8 4.4-14.4 12.4-17.4 14.2-5.4 29.2 4.8 29.4 20 0.2 29.6 0.4 59.4-0.2 89-0.2 9.8 3.8 14.6 12.2 17.8 21.8 8.4 35 0.2 36.2-23.2 0.2-2.4 0-4.6 0-7 0-23.6 0-47.4 0-71 0-13 7.2-20.8 19-20.6s20.6 8.8 20.6 21c0.2 30.4 0.2 60.6 0 91-0.2 23.2-17.4 46-40 49.8-14.8 2.8-30.4 0.6-47.8 0.4zM330 493.4c7.6 0.6 14.6 1.2 21.4 1.8 15.2 1.4 30.4 2.2 45.6 4.2 10.2 1.4 18 8.2 19 18 1.4 12.8 1.8 26.2-1 38.6-6.6 29.6-28.2 43.6-62.8 42.8-36.2-0.8-65-29.8-65.2-65.8 0-15.6-0.2-31.2 0-47 0.2-25.4 18.8-47.6 43.4-52.8 24.4-5.2 46.8 1 68.2 11.8 11.2 5.6 15.2 18 10 27.8s-15.8 12.4-27.6 7.6c-8-3.2-16-6.4-24.4-8.4-16-4.2-24.8 2.8-26.6 21.4zM687.8 538.8c-0.4 0-0.6 0-1 0 0 8 0.2 16 0 24-1 20.4-9.8 36.6-27.2 47.2-39.2 23.6-95.8 1.4-105.8-43.2-4.2-18.8-2.4-39-2.4-58.6 0-20 9-36 25.8-47 38.4-25 96.2-3.2 107.4 41 2.8 11.8 2.2 24.4 3.2 36.6zM579.8 339.6c-0.6 0-1.2 0-1.8 0 0 11 1.8 22.2-0.4 32.8-6.2 30.6-29.6 46.8-64 46.2-39-0.6-68-29.4-68.4-68.2-0.2-14.6-0.2-29.4 0-44 0.2-14.2 5-26.8 15-37 18.8-19.2 42-21.8 66.4-15.8 25.6 6.4 43.2 22.4 49.6 48.2 3.2 12.4 2.6 25.2 3.6 37.8zM693.2 379c0-30.2 0-60.6 0-90.8 0-14 6.6-21.2 19.2-21.4 13.6-0.2 22.6 8.4 22.6 22.2 0 60.6 0 121.2 0 181.8 0 10.4-5.8 18-14.6 19.8-14 3-27-7.2-27-21.6-0.4-30-0.2-60-0.2-90zM433.2 550c0-30 0-60 0-90 0-12.6 6.8-20.4 17.8-20.8 11.8-0.6 21.8 8 21.8 19.8 0.2 62.4 0.2 124.6 0 187 0 8.8-4.8 14.2-13 16.8-13.4 4.2-26.6-5.6-26.6-19.8-0.2-31 0-62 0-93zM495.2 556c0-30.4 0-60.6 0-91 0-12.8 7.2-21.2 18.4-21.6 11.4-0.4 21.2 9.4 21.2 21.8 0 61.4 0.2 122.6-0.2 184 0 4.8-2.6 10.4-5.8 14-5.6 6.2-13.4 7-21 3.4-7.8-3.6-12.6-9.4-12.6-18.6 0-30.6 0-61.4 0-92zM595.2 329.8c0-17.4-0.6-34.6 0.4-51.8 0.4-5.4 4-13 8.4-15.2 5.4-2.8 13.6-2.6 19.6-0.8 7.8 2.4 11.4 9.6 11.4 18.2-0.2 27.6 0 55.2 0 82.8 0 25.8 0 25.8 25.6 24.4 12-0.6 21.8 7.2 23.4 18.6 1.6 10.4-5.2 19.6-17.4 21.6-7.8 1.4-16 1.4-23.8 0.8-27.6-2-47.6-24.2-47.6-51.8 0-15.6 0-31.2 0-46.8zM839.2 356.2c0 10.6 0.2 21.2-0.2 32 0 2.8-0.6 6.8-2.4 8-8.6 6.4-18.8 6.4-28.6 3.8-8.6-2.4-15-8.2-15.4-17.6-0.6-17.6-1-35 0-52.6 0.8-12.2 9-18 21.2-17 6.2 0.6 12.6 1.4 18.4 3.6 3 1.2 6.2 5.6 6.6 8.8 0.8 10.4 0.4 20.8 0.4 31zM647.8 537.4c-0.8 7.4-1 14.8-2.2 22-2.2 13.8-9.8 20-23.8 20-14.8-0.2-25.6-8.2-27-21.2-1.2-12.8-2-25.8-1.6-38.8 0.4-8.6-0.4-19 9-24 16.6-8.8 42.2-2.6 43.4 19.4 0.4 7.6 1.4 15 2.2 22.6zM539.8 337.6c-0.6 7.2-1 14.6-2 21.8-2.2 13.8-9.8 20.2-23.8 20-14.8-0.2-26.2-8.2-27-21.2-1-16.8-0.8-33.8 0.2-50.6 0.2-4.6 4.8-11 9-13 18.8-8.6 41.4 0.4 41.8 21 0 7.4 1 14.6 1.8 22zM839.2 356.2c0-10.4 0.6-20.6-0.4-31-0.2-3.2-3.6-7.6-6.6-8.8-5.8-2.2-12.2-3.2-18.4-3.6-12.2-1-20.4 4.8-21.2 17-1 17.4-0.6 35 0 52.6 0.4 9.4 6.8 15.2 15.4 17.6 9.8 2.6 20 2.6 28.6-3.8 1.8-1.4 2.4-5.4 2.4-8 0.2-10.6 0.2-21.2 0.2-32zM330.4 533c1 19.4 10.2 27.6 28.2 26.2 8.6-0.8 16.6-8.6 16.2-17.2-0.2-2-3.8-5.2-6-5.4-12.6-1.6-25.2-2.4-38.4-3.6zM647.8 537.4c-0.6-7.6-1.6-15-2-22.6-1.2-22-26.8-28.4-43.4-19.4-9.4 5-8.8 15.4-9 24-0.4 12.8 0.4 25.8 1.6 38.8s12.2 21 27 21.2c14 0.2 21.6-6 23.8-20 1-7.2 1.2-14.6 2-22zM539.8 337.6c-0.6-7.4-1.8-14.6-1.8-21.8-0.4-20.6-23-29.6-41.8-21-4.2 2-8.6 8.4-9 13-1 16.8-1.2 33.8-0.2 50.6 0.8 13 12.2 21 27 21.2 14 0.2 21.6-6.2 23.8-20 1-7.6 1.2-14.8 2-22z" />
<glyph unicode="&#xe90f;" glyph-name="angle-right" d="M704.6 414l-272-272c-18.8-18.8-49.2-18.8-67.8 0l-45.2 45.2c-18.8 18.8-18.8 49.2 0 67.8l192.8 192.8-192.8 192.8c-18.8 18.8-18.8 49.2 0 67.8l45 45.6c18.8 18.8 49.2 18.8 67.8 0l272-272c19-18.8 19-49.2 0.2-68z" />
<glyph unicode="&#xe910;" glyph-name="password" d="M196.923 603.569v0zM827.077 507.077h-512v92.554c0 104.369 78.769 196.923 183.138 202.831 96.492 5.908 177.231-55.138 202.831-141.785 1.969-7.877 9.846-15.754 19.692-15.754h80.738c11.815 0 21.662 11.815 19.692 23.631-31.508 149.662-165.415 259.938-324.923 252.062-167.385-7.877-295.385-151.631-299.323-317.046v-96.492c-43.323 0-78.769-35.446-78.769-78.769v-374.154c0-43.323 35.446-78.769 78.769-78.769h630.154c43.323 0 78.769 35.446 78.769 78.769v374.154c0 43.323-35.446 78.769-78.769 78.769zM602.585 119.138c3.938-11.815-5.908-25.6-19.692-25.6h-143.754c-13.785 0-23.631 11.815-19.692 25.6l35.446 118.154c-29.538 19.692-47.262 55.138-39.385 94.523 7.877 37.415 37.415 66.954 76.8 74.831 63.015 11.815 118.154-33.477 118.154-92.554 0-31.508-15.754-61.046-41.354-76.8l33.477-118.154z" />
<glyph unicode="&#xe911;" glyph-name="docker" d="M537 896l87 2 14-14 1-89-14-13-87-2-14 13-1 90 14 13zM270 756l87 2 14-13 1-90-14-13-87-2-13 14-1 89 13 13zM404 758l88 1 13-14 1-88-13-14-88-1-13 13-1 90 13 13zM538 760l87 1 14-14v-88l-12-14-87-1-14 13-1 89 13 14zM874 675q44-14 102-108 84 2 134-53v-6q-68-104-159-105-199-323-519-327l-74-1q-235-3-311 269l-7 69-1 53 13 15 744 9q34 0 40 21l-1 75q13 89 39 89zM138 618l87 2 14-15v-88l-13-13-87-2-14 13-1 89 14 14zM272 620l86 1 15-14 1-88-14-14-87-1-13 13-1 89 13 14zM405 622l88 1 13-14 1-89-13-13-87-1-13 13-1 89 12 14zM540 624l87 1 13-14 1-89-13-13-87-1-14 13-1 88 14 15zM674 625l86 2 15-14 1-89-14-14-87-1-13 14-1 88 13 14z" />
<glyph unicode="&#xe912;" glyph-name="control" d="M1024.001-23.040v942.081c0 22.656-18.304 40.96-40.96 40.96h-942.081c-22.656 0-40.96-18.304-40.96-40.96v-942.081c0-22.656 18.304-40.96 40.96-40.96h942.081c22.656 0 40.96 18.304 40.96 40.96zM293.119 586.241h-98.56c-5.632 0-10.24 4.608-10.24 10.24v61.44c0 5.632 4.608 10.24 10.24 10.24h98.56c17.408 53.376 67.584 92.16 126.72 92.16s109.44-38.785 126.72-92.16h282.88c5.632 0 10.24-4.608 10.24-10.24v-61.44c0-5.632-4.608-10.24-10.24-10.24h-282.88c-17.408-53.376-67.584-92.16-126.72-92.16s-109.44 38.785-126.72 92.16zM477.312 228.352c0-0.256 0.128-0.384 0.128-0.512h-282.88c-5.632 0-10.24 4.608-10.24 10.24v61.44c0 5.632 4.608 10.24 10.24 10.24h282.88c0-0.256-0.128-0.384-0.128-0.512 17.152 53.76 67.457 92.672 126.848 92.672s109.696-38.912 126.848-92.672c0 0.256-0.128 0.384-0.128 0.512h98.56c5.632 0 10.24-4.608 10.24-10.24v-61.44c0-5.632-4.608-10.24-10.24-10.24h-98.56c0 0.256 0.128 0.384 0.128 0.512-17.152-53.76-67.457-92.672-126.848-92.672s-109.696 38.912-126.848 92.672zM604.16 314.88c-25.45 0-46.080-20.63-46.080-46.080s20.63-46.080 46.080-46.080v0c25.45 0 46.080 20.63 46.080 46.080s-20.63 46.080-46.080 46.080v0zM442.24 587.008l3.072 1.92c0.128 0 0.128 0.128 0.256 0.128l1.536 1.152c0.128 0.128 0.256 0.256 0.384 0.256 1.664 1.28 3.2 2.56 4.608 4.096l0.256 0.256c0.512 0.512 1.024 1.024 1.408 1.536 1.024 1.024 1.92 2.176 2.688 3.328v0.128l1.152 1.536c0.128 0.128 0.256 0.384 0.384 0.512 1.024 1.536 2.048 3.2 2.816 4.992 0.128 0.256 0.256 0.64 0.512 0.896 0.256 0.512 0.384 0.896 0.64 1.408 0.128 0.384 0.384 0.896 0.512 1.28 0.256 0.64 0.512 1.28 0.64 1.92 0.128 0.512 0.384 1.152 0.512 1.664l0.384 1.152 0.384 1.792c0.128 0.256 0.128 0.64 0.256 0.896 0.128 0.896 0.384 1.792 0.512 2.688 0 0.256 0 0.512 0.128 0.768 0.128 0.768 0.128 1.408 0.256 2.176 0 0.256 0 0.512 0.128 0.896 0 1.024 0.128 1.92 0.128 2.944s0 1.92-0.128 2.944c0 0.256 0 0.512-0.128 0.896 0 0.768-0.128 1.536-0.256 2.176 0 0.256 0 0.512-0.128 0.768-0.128 0.896-0.256 1.792-0.512 2.688-0.128 0.256-0.128 0.64-0.256 0.896l-0.384 1.792-0.384 1.152c-0.128 0.512-0.384 1.152-0.512 1.664-0.256 0.64-0.512 1.28-0.64 1.92-0.128 0.384-0.384 0.896-0.512 1.28-0.256 0.512-0.384 0.896-0.64 1.408-0.128 0.256-0.256 0.64-0.512 0.896-0.896 1.664-1.792 3.328-2.816 4.992-0.128 0.128-0.256 0.384-0.384 0.512l-1.152 1.536v0.128c-0.896 1.152-1.792 2.304-2.688 3.328-0.512 0.512-0.896 1.024-1.408 1.536l-0.256 0.256c-1.425 1.384-2.925 2.724-4.483 3.997l-0.125 0.1c-0.128 0.128-0.256 0.256-0.384 0.256l-1.536 1.152c-0.128 0-0.128 0.128-0.256 0.128l-3.072 1.92c-0.256 0.128-0.384 0.256-0.64 0.384-6.528 3.456-13.952 5.504-21.76 5.504s-15.36-2.048-21.76-5.504c-0.256-0.128-0.384-0.256-0.64-0.384l-3.072-1.92c-0.128 0-0.128-0.128-0.256-0.128l-1.536-1.152c-0.128-0.128-0.256-0.256-0.384-0.256-1.664-1.28-3.2-2.56-4.608-4.096l-0.256-0.256c-0.512-0.512-1.024-1.024-1.408-1.536-1.024-1.024-1.92-2.176-2.688-3.328v-0.128l-1.152-1.536c-0.128-0.128-0.256-0.384-0.384-0.512-1.024-1.536-2.048-3.2-2.816-4.992-0.128-0.256-0.256-0.64-0.512-0.896-0.256-0.512-0.384-0.896-0.64-1.408-0.128-0.384-0.384-0.896-0.512-1.28-0.256-0.64-0.512-1.28-0.64-1.92-0.128-0.512-0.384-1.152-0.512-1.664l-0.384-1.152-0.384-1.792c-0.128-0.256-0.128-0.64-0.256-0.896-0.128-0.896-0.384-1.792-0.512-2.688 0-0.256 0-0.512-0.128-0.768-0.128-0.768-0.128-1.408-0.256-2.176 0-0.256 0-0.512-0.128-0.896 0-1.024-0.128-1.92-0.128-2.944s0-1.92 0.128-2.944c0-0.256 0-0.512 0.128-0.896 0-0.768 0.128-1.536 0.256-2.176 0-0.256 0-0.512 0.128-0.768 0.128-0.896 0.256-1.792 0.512-2.688 0.128-0.256 0.128-0.64 0.256-0.896l0.384-1.792 0.384-1.152c0.128-0.512 0.384-1.152 0.512-1.664 0.256-0.64 0.512-1.28 0.64-1.92 0.128-0.384 0.384-0.896 0.512-1.28 0.256-0.512 0.384-0.896 0.64-1.408 0.128-0.256 0.256-0.64 0.512-0.896 0.896-1.664 1.792-3.328 2.816-4.992 0.128-0.128 0.256-0.384 0.384-0.512l1.152-1.536v-0.128c0.896-1.152 1.792-2.304 2.688-3.328 0.512-0.512 0.896-1.024 1.408-1.536l0.256-0.256c1.408-1.408 3.072-2.816 4.608-4.096 0.128-0.128 0.256-0.256 0.384-0.256l1.536-1.152c0.128 0 0.128-0.128 0.256-0.128l3.072-1.92c0.256-0.128 0.384-0.256 0.64-0.384 6.528-3.456 13.952-5.504 21.76-5.504s15.36 2.048 21.76 5.504c0.256 0.128 0.512 0.256 0.64 0.384z" />
<glyph unicode="&#xe913;" glyph-name="statistics1" d="M242.692 27.226v606.954c0 24.204-18.621 42.82-40.959 42.82h-122.884c-22.336 0-40.959-20.476-40.959-42.82v-606.954h204.8zM503.346 27.226v867.607c0 24.206-18.617 44.687-40.96 44.687h-122.884c-22.336 0-40.959-20.482-40.959-44.687v-867.607h204.802zM763.999 27.226v383.538c0 24.204-18.615 44.681-40.959 44.681h-122.877c-22.343 0-40.967-20.476-40.967-44.681v-383.538h204.802zM1024.653 27.226v606.954c0 24.204-18.615 42.82-40.959 42.82h-122.877c-22.343 0-40.959-20.476-40.959-42.82v-606.954h204.793z" />
<glyph unicode="&#xe914;" glyph-name="asterisk" d="M956.42 291.814l-284.42 156.186 284.42 156.186c23.59 12.954 31.922 42.768 18.464 66.074l-38.96 67.482c-13.456 23.306-43.44 30.998-66.454 17.046l-277.47-168.224 6.95 324.408c0.576 26.906-21.076 49.028-47.99 49.028h-77.92c-26.912 0-48.566-22.122-47.988-49.028l6.948-324.408-277.47 168.222c-23.012 13.952-52.998 6.26-66.454-17.046l-38.96-67.482c-13.456-23.306-5.124-53.12 18.466-66.074l284.418-156.184-284.42-156.186c-23.59-12.954-31.922-42.768-18.464-66.074l38.96-67.482c13.456-23.306 43.442-30.998 66.454-17.046l277.47 168.224-6.95-324.408c-0.576-26.906 21.078-49.028 47.99-49.028h77.922c26.912 0 48.566 22.122 47.99 49.028l-6.952 324.408 277.47-168.222c23.012-13.952 52.998-6.26 66.454 17.046l38.96 67.482c13.456 23.306 5.126 53.118-18.464 66.072z" />
<glyph unicode="&#xe915;" glyph-name="app" d="M417.786-56.315c28.674-16.897 51.203-5.633 51.203 28.674v398.871c0 34.306-23.041 68.612-51.203 85.509l-330.259 205.324c-28.674 11.264-51.203 0-51.203-28.674v-398.871c0-34.306 23.041-68.612 51.203-85.509l330.259-205.324zM138.731 787.511c-28.674-16.897-28.674-39.938 0-56.835l325.139-205.324c28.674-16.897 68.612-16.897 96.774-5.633l325.139 165.386c28.674 16.897 28.674 39.938 0 56.835l-342.547 205.324c-23.041 16.897-68.612 16.897-96.774 0l-307.73-159.753zM560.643-27.642c0-34.306 23.041-45.571 51.203-28.674l325.139 165.386c28.674 16.897 51.203 51.203 51.203 85.509v399.383c0 34.306-23.041 45.571-51.203 28.674l-325.139-165.386c-28.674-16.897-51.203-51.203-51.203-85.509v-399.383z" />
<glyph unicode="&#xe971;" glyph-name="user" d="M576 253.388v52.78c70.498 39.728 128 138.772 128 237.832 0 159.058 0 288-192 288s-192-128.942-192-288c0-99.060 57.502-198.104 128-237.832v-52.78c-217.102-17.748-384-124.42-384-253.388h896c0 128.968-166.898 235.64-384 253.388z" />
<glyph unicode="&#xf059;" glyph-name="question" horiz-adv-x="878" d="M512 164.571v109.714q0 8-5.143 13.143t-13.143 5.143h-109.714q-8 0-13.143-5.143t-5.143-13.143v-109.714q0-8 5.143-13.143t13.143-5.143h109.714q8 0 13.143 5.143t5.143 13.143zM658.286 548.571q0 50.286-31.714 93.143t-79.143 66.286-97.143 23.429q-138.857 0-212-121.714-8.571-13.714 4.571-24l75.429-57.143q4-3.429 10.857-3.429 9.143 0 14.286 6.857 30.286 38.857 49.143 52.571 19.429 13.714 49.143 13.714 27.429 0 48.857-14.857t21.429-33.714q0-21.714-11.429-34.857t-38.857-25.714q-36-16-66-49.429t-30-71.714v-20.571q0-8 5.143-13.143t13.143-5.143h109.714q8 0 13.143 5.143t5.143 13.143q0 10.857 12.286 28.286t31.143 28.286q18.286 10.286 28 16.286t26.286 20 25.429 27.429 16 34.571 7.143 46.286zM877.714 438.857q0-119.429-58.857-220.286t-159.714-159.714-220.286-58.857-220.286 58.857-159.714 159.714-58.857 220.286 58.857 220.286 159.714 159.714 220.286 58.857 220.286-58.857 159.714-159.714 58.857-220.286z" />
</font>
</defs>
</svg>
